osu file format v14

[General]
AudioFilename: audio.mp3
AudioLeadIn: 0
PreviewTime: 146614
Countdown: 0
SampleSet: Soft
StackLeniency: 0.7
Mode: 0
LetterboxInBreaks: 0
WidescreenStoryboard: 0

[Editor]
Bookmarks: 13489,40156,53490,66823,80156,106823,120156,131823,133490,146823,160156,173490,186823,198906,200156,213490,226833,240198,253560,263490
DistanceSpacing: 0.3
BeatDivisor: 3
GridSize: 16
TimelineZoom: 2.1

[Metadata]
Title:Something Comforting
TitleUnicode:Something Comforting
Artist:Porter Robinson
ArtistUnicode:Porter Robinson
Creator:Mimari
Version:Mimari x Altai's Solace
Source:
Tags:nurture altai ascended jaybone english electronic pop synth piano instrumental -_ascended_- -ascended-
BeatmapID:2965511
BeatmapSetID:1441516

[Difficulty]
HPDrainRate:6
CircleSize:4.2
OverallDifficulty:8
ApproachRate:9
SliderMultiplier:2.3
SliderTickRate:1

[Events]
//Background and Video events
0,0,"bgs.jpg",0,0
//Break Periods
2,107047,119164
2,211197,212705
//Storyboard Layer 0 (Background)
//Storyboard Layer 1 (Fail)
//Storyboard Layer 2 (Pass)
//Storyboard Layer 3 (Foreground)
//Storyboard Layer 4 (Overlay)
//Storyboard Sound Samples

[TimingPoints]
181,416.666666666667,4,2,2,30,1,0
13514,-200,4,2,2,30,0,0
39556,-400,4,2,2,30,0,0
39843,-400,4,2,2,5,0,0
39868,-400,4,2,2,5,0,0
39972,-400,4,2,2,30,0,0
40181,-133.333333333333,4,2,2,40,0,0
41847,-250,4,2,2,40,0,0
42889,-133.333333333333,4,2,2,40,0,0
45181,-250,4,2,2,40,0,0
46014,-133.333333333333,4,2,2,40,0,0
53514,-133.333333333333,4,2,2,50,0,0
65389,-133.333333333333,4,2,2,60,0,0
66431,-133.333333333333,4,2,2,65,0,0
66847,-250,4,2,2,60,0,0
77551,-250,4,2,2,5,0,0
77576,-250,4,2,2,5,0,0
77681,-250,4,2,2,60,0,0
78385,-250,4,2,2,5,0,0
78410,-250,4,2,2,5,0,0
78514,-250,4,2,2,60,0,0
79764,-133.333333333333,4,2,2,70,0,0
80181,-100,4,2,2,85,0,1
80597,-50,4,2,2,85,0,1
81014,-100,4,2,2,85,0,1
81431,-50,4,2,2,85,0,1
81847,-100,4,2,2,85,0,1
82264,-50,4,2,2,85,0,1
82889,-100,4,2,2,85,0,1
83097,-50,4,2,2,85,0,1
83514,-100,4,2,2,85,0,1
83931,-50,4,2,2,85,0,1
84347,-100,4,2,2,85,0,1
84764,-50,4,2,2,85,0,1
85181,-100,4,2,2,85,0,1
85597,-50,4,2,2,85,0,1
86222,-100,4,2,2,85,0,1
86431,-50,4,2,2,85,0,1
86847,-100,4,2,2,85,0,1
87264,-50,4,2,2,85,0,1
87681,-100,4,2,2,85,0,1
88097,-50,4,2,2,85,0,1
88514,-100,4,2,2,85,0,1
88931,-50,4,2,2,85,0,1
89347,-100,4,2,2,85,0,1
89764,-50,4,2,2,85,0,1
90181,-100,4,2,2,85,0,1
90597,-50,4,2,2,85,0,1
91014,-100,4,2,2,85,0,1
91431,-50,4,2,2,85,0,1
91847,-100,4,2,2,85,0,1
92264,-50,4,2,2,85,0,1
92785,-100,4,2,2,85,0,1
93514,-100,4,2,13,85,0,1
93931,-50,4,2,2,85,0,1
94347,-100,4,2,18,85,0,1
94764,-50,4,2,2,85,0,1
95181,-100,4,2,20,85,0,1
95597,-50,4,2,2,85,0,1
96014,-100,4,2,22,85,0,1
96222,-100,4,2,2,85,0,1
96431,-50,4,2,2,85,0,1
96847,-100,4,2,12,85,0,1
97264,-50,4,2,2,85,0,1
97681,-100,4,2,2,85,0,1
98097,-50,4,2,35,85,0,1
98514,-100,4,2,12,85,0,1
98931,-50,4,2,36,85,0,1
99114,-50,4,2,2,85,0,1
99139,-50,4,2,2,85,0,1
99347,-100,4,2,23,85,0,1
99556,-100,4,2,2,85,0,1
99764,-50,4,2,2,85,0,1
100181,-100,4,2,13,85,0,1
100597,-50,4,2,2,85,0,1
101014,-100,4,2,18,85,0,1
101431,-50,4,2,2,85,0,1
101847,-100,4,2,20,85,0,1
102264,-50,4,2,2,85,0,1
102681,-100,4,2,22,85,0,1
102889,-100,4,2,2,85,0,1
103097,-50,4,2,2,85,0,1
103514,-100,4,2,23,85,0,1
103931,-50,4,2,2,85,0,1
104347,-50,4,2,2,75,0,1
104451,-100,4,2,2,75,0,1
104764,-50,4,2,2,70,0,1
105181,-50,4,2,2,65,0,1
105285,-100,4,2,2,65,0,1
105597,-66.6666666666667,4,2,2,85,0,1
105701,-66.6666666666667,4,2,2,85,0,1
105806,-133.333333333333,4,2,2,85,0,1
105858,-133.333333333333,4,2,2,85,0,1
105910,-133.333333333333,4,2,2,85,0,1
106014,-400,4,2,2,60,0,1
106301,-400,4,2,2,5,0,1
106326,-400,4,2,2,5,0,1
106431,-100,4,2,2,60,0,1
106718,-100,4,2,2,5,0,1
106743,-100,4,2,2,5,0,1
106847,-200,4,2,18,60,0,0
119764,-200,4,2,2,30,0,0
131847,-133.333333333333,4,2,2,40,0,0
132264,-200,4,2,2,40,0,0
133097,-200,4,2,2,40,0,0
133514,-133.333333333333,4,2,2,50,0,0
133931,-100,4,2,2,50,0,0
135181,-133.333333333333,4,2,2,50,0,0
135597,-100,4,2,2,50,0,0
136222,-200,4,2,2,50,0,0
136847,-133.333333333333,4,2,2,50,0,0
137264,-100,4,2,2,50,0,0
138514,-133.333333333333,4,2,2,50,0,0
138931,-100,4,2,2,50,0,0
140181,-133.333333333333,4,2,2,50,0,0
140597,-100,4,2,2,50,0,0
141847,-133.333333333333,4,2,2,50,0,0
142264,-100,4,2,2,50,0,0
143514,-133.333333333333,4,2,2,50,0,0
143931,-100,4,2,2,50,0,0
145181,-333.333333333333,4,2,2,50,0,0
145885,-333.333333333333,4,2,2,5,0,0
145910,-333.333333333333,4,2,2,5,0,0
146014,-333.333333333333,4,2,2,50,0,0
146639,-333.333333333333,4,2,10,50,0,0
146743,-333.333333333333,4,2,11,50,0,0
146847,-200,4,2,12,50,0,0
147239,-200,4,2,13,50,0,0
147264,-200,4,2,13,50,0,0
147656,-200,4,2,14,50,0,0
147681,-200,4,2,14,50,0,0
148097,-200,4,2,2,50,0,0
148211,-200,4,2,10,50,0,0
148236,-200,4,2,10,50,0,0
148350,-200,4,2,11,50,0,0
148375,-200,4,2,11,50,0,0
148514,-200,4,2,12,50,0,0
148906,-200,4,2,13,50,0,0
148931,-200,4,2,13,50,0,0
149347,-200,4,2,14,50,0,0
149556,-333.333333333333,4,2,15,50,0,0
149947,-333.333333333333,4,2,10,50,0,0
149972,-333.333333333333,4,2,10,50,0,0
150076,-333.333333333333,4,2,11,50,0,0
150181,-200,4,2,12,50,0,0
150572,-200,4,2,13,50,0,0
150597,-200,4,2,13,50,0,0
150989,-200,4,2,14,50,0,0
151014,-200,4,2,14,50,0,0
151431,-200,4,2,2,50,0,0
151544,-200,4,2,10,50,0,0
151569,-200,4,2,10,50,0,0
151683,-200,4,2,11,50,0,0
151708,-200,4,2,11,50,0,0
151847,-200,4,2,12,50,0,0
152239,-200,4,2,13,50,0,0
152264,-200,4,2,13,50,0,0
152681,-200,4,2,16,50,0,0
153097,-200,4,2,17,50,0,0
153514,-200,4,2,12,50,0,0
154555,-200,4,2,12,50,0,0
154764,-333.333333333333,4,2,13,50,0,0
155076,-333.333333333333,4,2,13,50,0,0
155181,-333.333333333333,4,2,10,50,0,0
155285,-200,4,2,13,50,0,0
155572,-200,4,2,14,50,0,0
155597,-200,4,2,14,50,0,0
156014,-200,4,2,18,60,0,0
156431,-200,4,2,17,50,0,0
156847,-200,4,2,12,50,0,0
157888,-200,4,2,12,50,0,0
158097,-250,4,2,13,50,0,0
158281,-250,4,2,10,50,0,0
158306,-250,4,2,10,50,0,0
158410,-250,4,2,11,50,0,0
158514,-200,4,2,12,50,0,0
158930,-200,4,2,12,50,0,0
159347,-200,4,2,2,30,0,0
159556,-153.846153846154,4,2,2,30,0,0
160181,-153.846153846154,4,2,2,45,0,0
160389,-133.333333333333,4,2,2,45,0,0
162889,-166.666666666667,4,2,2,45,0,0
163514,-133.333333333333,4,2,2,45,0,0
166014,-166.666666666667,4,2,2,45,0,0
167056,-133.333333333333,4,2,2,45,0,0
169347,-166.666666666667,4,2,2,45,0,0
170597,-133.333333333333,4,2,2,45,0,0
172681,-250,4,2,2,45,0,0
173514,-250,4,2,2,60,0,0
184635,-250,4,2,2,5,0,0
184660,-250,4,2,2,5,0,0
184764,-333.333333333333,4,2,2,60,0,0
186014,-333.333333333333,4,2,2,40,0,0
186847,-83.3333333333333,4,2,2,85,0,1
187263,-50,4,2,2,85,0,1
187680,-100,4,2,2,85,0,1
188097,-50,4,2,2,85,0,1
188513,-100,4,2,2,85,0,1
188930,-50,4,2,2,85,0,1
189555,-100,4,2,2,85,0,1
189763,-50,4,2,2,85,0,1
190180,-83.3333333333333,4,2,2,85,0,1
190597,-50,4,2,2,85,0,1
191013,-100,4,2,2,85,0,1
191430,-50,4,2,2,85,0,1
191847,-100,4,2,2,85,0,1
192263,-50,4,2,2,85,0,1
192888,-100,4,2,2,85,0,1
193097,-50,4,2,2,85,0,1
193513,-83.3333333333333,4,2,2,85,0,1
193930,-50,4,2,2,85,0,1
194347,-100,4,2,2,85,0,1
194763,-50,4,2,2,85,0,1
195180,-100,4,2,2,85,0,1
195597,-50,4,2,2,85,0,1
196013,-100,4,2,2,85,0,1
196430,-50,4,2,2,85,0,1
196847,-83.3333333333333,4,2,2,85,0,1
197263,-50,4,2,2,85,0,1
197680,-100,4,2,2,85,0,1
198097,-50,4,2,2,85,0,1
198513,-100,4,2,2,85,0,1
198697,-100,4,2,37,85,0,1
198722,-100,4,2,37,85,0,1
198931,-50,4,2,38,85,0,0
199139,-50,4,2,39,85,0,0
199347,-90.9090909090909,4,2,2,85,0,0
199399,-90.9090909090909,4,2,2,85,0,0
199764,-166.666666666667,4,2,2,85,0,0
199833,-166.666666666667,4,2,2,85,0,0
200181,-100,4,2,13,85,0,0
200597,-50,4,2,2,85,0,1
201013,-100,4,2,18,85,0,1
201430,-50,4,2,2,85,0,1
201847,-100,4,2,20,85,0,1
202263,-50,4,2,2,85,0,1
202680,-100,4,2,22,85,0,1
202889,-100,4,2,2,85,0,1
203097,-50,4,2,2,85,0,1
203514,-66.6666666666667,4,2,12,85,0,1
203930,-50,4,2,2,85,0,1
204347,-100,4,2,2,85,0,1
204763,-50,4,2,35,85,0,1
204947,-50,4,2,2,85,0,1
204972,-50,4,2,2,85,0,1
205180,-100,4,2,12,85,0,1
205597,-50,4,2,36,85,0,1
205781,-50,4,2,2,85,0,1
205806,-50,4,2,2,85,0,1
206013,-100,4,2,23,85,0,1
206222,-100,4,2,2,85,0,1
206430,-50,4,2,2,85,0,1
206847,-100,4,2,13,85,0,1
207263,-50,4,2,2,85,0,1
207680,-100,4,2,18,85,0,1
208097,-50,4,2,2,85,0,1
208513,-100,4,2,20,85,0,1
208930,-50,4,2,2,85,0,1
209347,-100,4,2,22,85,0,1
209556,-100,4,2,2,85,0,1
209763,-50,4,2,2,85,0,1
210180,-83.3333333333333,4,2,2,85,0,1
210597,-50,4,2,2,5,0,0
211489,434.782608695652,4,2,2,30,1,0
213305,416.666666666667,4,2,10,40,1,0
213409,-100,4,2,11,40,0,0
213513,425.531914893617,4,2,2,40,1,0
213513,-200,4,2,2,40,0,0
213913,-200,4,2,13,40,0,0
213938,-200,4,2,13,40,0,0
214364,-200,4,2,2,30,0,0
214906,465.116279069767,4,2,10,40,1,0
215022,-100,4,2,11,40,0,0
215138,526.315789473684,4,2,12,40,1,0
215138,-166.666666666667,4,2,12,40,0,0
215610,400,4,2,2,30,1,0
216010,431.654676258993,4,2,14,40,1,0
216225,-100,4,2,15,40,0,0
216602,458.015267175573,4,2,10,40,1,0
216716,-100,4,2,11,40,0,0
216831,491.803278688525,4,2,12,40,1,0
216831,-166.666666666667,4,2,12,40,0,0
216953,-166.666666666667,4,2,12,40,0,0
217076,413.793103448276,4,2,2,30,1,0
217076,-200,4,2,2,30,0,0
217282,-200,4,2,13,40,0,0
217386,-200,4,2,2,40,0,0
217489,405.405405405405,4,2,2,30,1,0
217489,-200,4,2,2,30,0,0
217691,-200,4,2,14,40,0,0
217894,-200,4,2,15,40,0,0
218097,-200,4,2,2,30,0,0
218299,422.535211267606,4,2,10,40,1,0
218404,-100,4,2,11,40,0,0
218510,419.58041958042,4,2,12,40,1,0
218510,-200,4,2,12,40,0,0
218719,-200,4,2,12,40,0,0
218929,-200,4,2,2,30,0,0
219349,-200,4,2,16,40,0,0
219743,-200,4,2,17,40,0,0
219768,-200,4,2,17,40,0,0
219932,454.545454545455,4,2,10,40,1,0
220045,-100,4,2,11,40,0,0
220159,434.782608695652,4,2,12,40,1,0
220159,-200,4,2,12,40,0,0
220593,402.684563758389,4,2,2,30,1,0
220995,428.571428571429,4,2,19,60,1,0
221423,461.538461538462,4,2,13,40,1,0
221423,-166.666666666667,4,2,13,40,0,0
221769,-166.666666666667,4,2,13,40,0,0
221884,413.793103448276,4,2,10,40,1,0
221987,-200,4,2,13,40,0,0
222282,413.793103448276,4,2,14,35,1,0
222695,-100,4,2,18,55,0,0
223109,-100,4,2,17,40,0,0
223316,-100,4,2,10,40,0,0
223419,-100,4,2,11,40,0,0
223523,422.535211267606,4,2,12,40,1,0
223523,-200,4,2,12,40,0,0
223945,394.736842105263,4,2,2,40,1,0
224142,-100,4,2,12,40,0,0
224339,413.793103448276,4,2,2,40,1,0
224339,-200,4,2,2,40,0,0
224752,-200,4,2,2,30,0,0
224987,361.44578313253,4,2,10,40,1,0
225077,-100,4,2,11,40,0,0
225166,447.761194029851,4,2,12,40,1,0
225166,-166.666666666667,4,2,12,40,0,0
225613,422.535211267606,4,2,2,30,1,0
226035,-100,4,2,2,30,0,0
226246,-200,4,2,2,30,0,0
226458,400,4,2,2,30,1,0
226858,408.163265306122,4,2,20,40,1,0
226858,-200,4,2,20,40,0,0
227470,-200,4,2,2,30,0,0
227674,-200,4,2,24,50,0,0
227878,-200,4,2,24,40,0,0
228296,451.127819548872,4,2,21,40,1,0
228521,434.782608695652,4,2,22,40,1,0
228521,-200,4,2,22,40,0,0
228955,394.736842105263,4,2,2,30,1,0
229349,422.535211267606,4,2,2,40,1,0
229349,-200,4,2,2,40,0,0
229454,-200,4,2,2,30,0,0
229781,410.958904109589,4,2,2,30,1,0
229986,-100,4,2,21,40,0,0
230089,-100,4,2,10,40,0,0
230191,422.535211267606,4,2,13,40,1,0
230191,-200,4,2,13,40,0,0
230613,413.793103448276,4,2,13,40,1,0
230819,-200,4,2,13,40,0,0
231001,-200,4,2,24,50,0,0
231026,-200,4,2,24,50,0,0
231208,-200,4,2,24,40,0,0
231233,-200,4,2,24,40,0,0
231440,-200,4,2,23,35,0,0
231608,461.538461538462,4,2,21,40,1,0
231723,-100,4,2,10,40,0,0
231839,425.531914893617,4,2,23,40,1,0
231839,-200,4,2,23,40,0,0
232264,431.654676258993,4,2,2,30,1,0
232695,-200,4,2,16,40,0,0
233127,413.793103448276,4,2,17,40,1,0
233540,-200,4,2,12,40,0,0
233953,-200,4,2,12,40,0,0
234782,422.535211267606,4,2,13,40,1,0
235204,-200,4,2,13,40,0,0
235415,413.793103448276,4,2,2,40,1,0
236010,-100,4,2,16,40,0,0
236035,-100,4,2,16,40,0,0
236449,-100,4,2,17,40,0,0
236863,413.793103448276,4,2,12,40,1,0
236863,-200,4,2,12,40,0,0
237276,-200,4,2,12,40,0,0
238104,-200,4,2,13,40,0,0
239138,-200,4,2,13,40,0,0
239345,-200,4,2,13,40,0,0
240223,375,4,2,23,40,1,0
240223,-250,4,2,23,40,0,0
240598,422.535211267606,4,2,2,30,1,0
240703,-250,4,2,25,35,0,0
241443,419.58041958042,4,2,25,25,1,0
241862,-250,4,2,25,20,0,0
242177,-250,4,2,25,20,0,0
242282,408.163265306122,4,2,25,25,1,0
242680,425.531914893617,4,2,2,25,1,0
242680,-250,4,2,2,25,0,0
242892,-250,4,2,2,30,0,0
243105,405.405405405405,4,2,2,25,1,0
243105,-250,4,2,2,25,0,0
243307,-250,4,2,2,30,0,0
243501,441.176470588235,4,2,12,40,1,0
243501,-250,4,2,12,40,0,0
243831,-250,4,2,12,5,0,0
243942,410.958904109589,4,2,14,30,1,0
243942,-250,4,2,14,30,0,0
244763,-250,4,2,14,25,0,0
245189,416.666666666667,4,2,14,20,1,0
245189,-250,4,2,14,20,0,0
246022,-250,4,2,2,25,0,0
246230,431.654676258993,4,2,2,25,1,0
246230,-250,4,2,2,25,0,0
246337,-250,4,2,13,30,0,0
246445,405.405405405405,4,2,13,30,1,0
246445,-250,4,2,13,30,0,0
246647,-250,4,2,2,30,0,0
246808,468.75,4,2,26,40,1,0
246808,-250,4,2,26,40,0,0
247276,352.941176470588,4,2,13,30,1,0
247276,-250,4,2,13,30,0,0
247452,-250,4,2,2,30,0,0
247682,416.666666666667,4,2,2,40,1,0
248049,476.190476190476,4,2,15,40,1,0
248049,-250,4,2,15,40,0,0
248406,-250,4,2,15,5,0,0
248525,413.793103448276,4,2,15,20,1,0
248525,-250,4,2,15,20,0,0
249352,-250,4,2,2,25,0,0
249559,425.531914893617,4,2,2,25,1,0
249559,-250,4,2,2,25,0,0
249771,413.793103448276,4,2,2,25,1,0
249771,-250,4,2,2,25,0,0
249977,-250,4,2,2,30,0,0
250081,-250,4,2,25,30,0,0
250184,-250,4,2,14,30,0,0
251012,425.531914893617,4,2,2,30,1,0
251012,-270.27027027027,4,2,2,30,0,0
251437,416.666666666667,4,2,2,20,1,0
251853,-285.714285714284,4,2,2,20,0,0
252269,-285.714285714284,4,2,2,20,0,0
252687,-250,4,2,2,20,0,0
252895,400,4,2,2,20,1,0
252895,-250,4,2,2,20,0,0
253095,416.666666666667,4,2,12,30,1,0
253095,-250,4,2,12,30,0,0
253303,-250,4,2,2,30,0,0
253585,357.142857142857,4,2,23,50,1,0
253585,-250,4,2,23,50,0,0
253942,324.324324324324,4,2,2,50,1,0
253942,-250,4,2,2,50,0,0
254104,-250,4,2,2,30,0,0
254355,394.736842105263,4,2,2,25,1,0
254355,-250,4,2,2,25,0,0
254759,419.58041958042,4,2,2,25,1,0
254759,-250,4,2,2,25,0,0
255178,-250,4,2,2,20,0,0
255956,540.540540540541,4,2,10,30,1,0
256023,413.793103448276,4,2,22,30,1,0
256023,-250,4,2,22,30,0,0
256229,-250,4,2,2,30,0,0
256436,-250,4,2,22,30,0,0
256642,-250,4,2,2,30,0,0
256850,428.571428571429,4,2,26,30,1,0
256850,-250,4,2,26,30,0,0
257278,405.405405405405,4,2,2,30,1,0
257683,-100,4,2,2,30,0,0
258100,413.793103448276,4,2,2,30,1,0
258485,447.761194029851,4,2,14,30,1,0
259369,405.405405405405,4,2,27,30,1,0
259369,-250,4,2,27,30,0,0
259571,-250,4,2,2,30,0,0
259774,413.793103448276,4,2,29,30,1,0
259774,-250,4,2,29,30,0,0
259980,405.405405405405,4,2,2,30,1,0
260081,-100,4,2,28,25,0,0
260182,425.531914893617,4,2,13,40,1,0
260182,-250,4,2,13,40,0,0
260607,422.535211267606,4,2,2,25,1,0
260817,-100,4,2,13,25,0,0
261029,-100,4,2,13,25,0,0
261452,-333.333333333333,4,2,13,30,0,0
261768,-333.333333333333,4,2,13,30,0,0
261845,437.956204379562,4,2,14,40,1,0
261845,-250,4,2,14,40,0,0
262282,413.793103448276,4,2,2,40,1,0
262487,-100,4,2,14,40,0,0
262622,535.714285714286,4,2,10,20,1,0
262689,422.535211267606,4,2,13,40,1,0
262689,-250,4,2,13,40,0,0
263111,-250,4,2,2,30,0,0
263534,-400,4,2,12,50,0,0
265012,-500,4,2,12,50,0,0

[Colours]
Combo1 : 97,142,218
Combo2 : 101,213,233

[HitObjects]
14,302,13514,5,0,0:0:0:0:
102,276,13931,6,0,B|96:250|77:228|77:228|1:202,1,115,2|2,0:0|0:0,0:0:0:0:
115,357,14764,2,0,P|146:253|191:132,1,230,2|2,0:0|0:0,0:0:0:0:
493,355,16431,5,2,0:0:0:0:
508,247,16847,2,0,B|444:225|398:278|422:290|371:357|300:318,1,230,2|2,0:0|0:0,0:0:0:0:
247,241,18097,2,0,P|269:186|287:119,1,115,2|0,0:0|0:0,0:0:0:0:
284,132,19347,1,0,0:0:0:0:
241,357,20181,5,0,0:0:0:0:
154,304,20597,2,0,P|146:230|131:172,1,115,2|2,0:0|0:0,0:0:0:0:
14,171,21431,2,0,P|117:177|134:60,1,230,2|2,0:0|0:0,0:0:0:0:
20,24,23097,6,0,B|121:14|121:14|135:21|135:21|247:10,1,230,2|2,0:0|0:0,0:0:0:0:
359,157,24347,1,2,0:0:0:0:
493,41,24764,1,2,0:0:0:0:
493,41,25181,5,2,0:0:0:0:
484,126,26014,1,2,0:0:0:0:
475,211,26847,5,2,0:0:0:0:
386,252,27264,2,0,P|333:255|307:305,1,115,2|2,0:0|0:0,0:0:0:0:
400,359,28097,2,0,P|453:338|512:325,1,115,2|0,0:0|0:0,0:0:0:0:
306,305,28931,2,0,P|298:259|274:189,1,115,2|0,0:0|0:0,0:0:0:0:
88,116,29764,5,2,0:0:0:0:
88,116,30181,2,0,P|95:170|159:184,1,115,2|0,0:0|0:0,0:0:0:0:
226,79,31014,2,0,P|294:59|349:50,2,115,2|2|0,0:0|0:0|0:0,0:0:0:0:
226,79,32681,6,0,P|284:109|292:169,1,115,2|2,0:0|0:0,0:0:0:0:
489,271,33514,2,0,P|415:288|258:341,1,230,2|2,0:0|0:0,0:0:0:0:
67,354,35181,2,0,P|18:301|135:260,1,230,2|2,0:0|0:0,0:0:0:0:
336,102,36639,5,2,0:0:0:0:
335,102,36847,2,0,P|315:122|296:143,3,57.5,2|0|0|0,0:0|0:0|0:0|0:0,0:0:0:0:
368,237,37681,2,0,P|341:230|313:224,3,57.5
270,336,38514,2,0,P|262:309|253:282,3,57.5
464,348,39347,1,0,0:0:0:0:
464,348,39556,6,0,P|504:359|513:364,1,43.125,2|0,0:0|0:0,0:0:0:0:
505,359,39972,1,2,0:0:0:0:
365,345,40181,6,0,P|386:306|380:257,2,86.2500032901765,2|2|0,0:0|0:0|0:0,0:0:0:0:
276,330,40806,2,0,P|201:303|84:277,1,172.500006580353,2|2,0:0|0:0,0:0:0:0:
63,363,41431,2,0,B|21:344|21:344|10:281,1,86.2500032901765,2|0,0:0|0:0,0:0:0:0:
45,211,41847,6,0,P|37:158|24:105,1,92,2|0,0:0|0:0,0:0:0:0:
87,42,42681,5,0,0:0:0:0:
87,42,42889,2,0,P|135:68|180:68,1,86.2500032901765,2|0,0:0|0:0,0:0:0:0:
286,25,43306,2,0,P|265:81|234:218,1,172.500006580353,2|2,0:0|0:0,0:0:0:0:
444,363,44139,2,0,B|484:316|484:316|442:184,1,172.500006580353,2|2,0:0|0:0,0:0:0:0:
423,122,44764,2,0,P|380:110|324:103,1,86.2500032901765,2|0,0:0|0:0,0:0:0:0:
358,18,45181,6,0,P|401:30|460:36,1,92,2|0,0:0|0:0,0:0:0:0:
338,103,46014,6,0,P|277:106|234:212,1,172.500006580353,2|2,0:0|0:0,0:0:0:0:
251,363,46847,2,2,P|213:238|130:33,1,345.000013160706,2|0,0:0|0:0,0:0:0:0:
132,39,48097,2,0,P|85:59|82:178,1,172.500006580353,2|2,0:0|0:0,0:0:0:0:
26,358,49347,6,0,P|68:306|176:308,1,172.500006580353,2|2,0:0|0:0,0:0:0:0:
349,347,50181,2,2,B|412:355|431:282|431:282|486:46,1,345.000013160706,2|0,0:0|0:0,0:0:0:0:
483,60,51431,1,2,0:0:0:0:
389,114,51639,1,2,0:0:0:0:
291,29,51847,5,0,3:0:0:0:
291,29,52264,1,0,3:0:0:0:
291,29,52681,5,0,3:0:0:0:
234,99,52889,1,2,0:0:0:0:
141,84,53097,1,2,3:0:0:0:
153,75,53306,1,10,3:3:0:0:
263,181,53514,5,2,3:0:0:0:
207,256,53722,2,0,P|163:266|113:288,1,86.2500032901765,2|0,0:0|3:0,0:0:0:0:
263,181,54139,2,0,P|306:170|356:148,1,86.2500032901765,2|0,0:0|3:0,0:0:0:0:
500,58,54556,1,2,0:0:0:0:
500,58,54764,2,0,P|444:64|433:116,1,86.2500032901765,2|0,3:0|0:0,0:0:0:0:
458,254,55181,6,0,P|501:198|540:173,1,86.2500032901765,2|0,3:0|0:0,0:0:0:0:
372,314,55597,2,0,P|345:248|342:202,1,86.2500032901765,0|0,3:0|0:0,0:0:0:0:
475,361,56014,1,0,3:0:0:0:
458,254,56222,6,0,P|501:198|540:173,1,86.2500032901765,2|2,0:0|3:0,0:0:0:0:
342,233,56639,2,0,P|299:289|260:314,1,86.2500032901765,2|0,0:0|3:0,0:0:0:0:
169,355,57056,2,0,P|114:338|92:291,1,86.2500032901765,2|0,0:0|3:0,0:0:0:0:
151,204,57472,2,0,P|207:216|229:263,1,86.2500032901765,2|0,0:0|3:0,0:0:0:0:
35,261,57889,1,2,0:0:0:0:
35,261,58097,2,0,P|21:182|13:146,1,86.2500032901765,2|0,3:0|0:0,0:0:0:0:
86,45,58514,6,0,P|94:101|108:141,1,86.2500032901765,2|0,3:0|0:0,0:0:0:0:
225,110,58931,2,0,P|217:54|203:14,1,86.2500032901765,0|0,3:0|0:0,0:0:0:0:
224,238,59347,6,0,P|271:200|323:208,1,86.2500032901765,2|0,3:0|0:0,0:0:0:0:
385,120,59764,2,0,P|441:141|460:190,1,86.2500032901765,2|0,3:0|0:0,0:0:0:0:
475,361,60181,6,2,P|460:306|446:247,1,86.2500032901765,2|0,3:0|0:0,0:0:0:0:
294,197,60597,2,0,P|279:142|265:83,1,86.2500032901765,0|0,3:0|0:0,0:0:0:0:
185,363,61014,2,0,P|170:308|156:249,1,86.2500032901765,0|0,3:0|0:0,0:0:0:0:
24,187,61431,6,0,P|67:137|102:136,1,86.2500032901765,2|0,3:0|0:0,0:0:0:0:
160,6,61847,2,0,P|195:53|246:69,1,86.2500032901765,0|0,3:0|0:0,0:0:0:0:
406,39,62264,2,0,P|382:92|394:144,1,86.2500032901765,0|0,3:0|0:0,0:0:0:0:
285,283,62681,6,0,P|350:265|405:257,1,86.2500032901765,2|0,3:0|0:0,0:0:0:0:
392,348,63097,2,0,P|327:366|272:374,1,86.2500032901765,2|0,3:0|0:0,0:0:0:0:
122,328,63514,6,2,P|161:292|172:229,1,86.2500032901765,2|0,3:0|0:0,0:0:0:0:
368,261,63931,2,0,P|356:209|307:168,1,86.2500032901765,0|0,3:0|0:0,0:0:0:0:
483,37,64347,2,0,P|432:21|372:43,1,86.2500032901765,0|0,3:0|0:0,0:0:0:0:
210,74,64764,5,2,3:0:0:0:
210,74,64972,1,2,0:0:0:0:
39,246,65181,5,0,3:0:0:0:
132,198,65389,1,8,3:3:0:0:
125,177,65493,1,8,3:3:0:0:
117,155,65597,1,8,3:3:0:0:
213,270,65806,1,8,3:3:0:0:
316,240,66014,5,0,3:0:0:0:
407,317,66222,1,8,3:3:0:0:
401,301,66326,1,0,0:0:0:0:
395,284,66430,1,8,3:3:0:0:
494,361,66639,2,0,B|501:329|510:304,1,43.1250016450883,8|0,3:3|0:0,0:0:0:0:
468,236,66847,5,8,0:0:0:0:
256,366,67056,1,0,3:0:0:0:
256,366,67264,2,0,L|273:309,1,46,2|2,0:0|0:0,0:0:0:0:
342,362,67681,5,8,0:0:0:0:
117,155,67889,1,0,3:0:0:0:
117,155,68097,2,0,L|103:199,1,46,2|2,0:0|0:0,0:0:0:0:
195,202,68514,5,8,0:0:0:0:
20,366,68722,1,0,3:0:0:0:
20,366,68931,1,2,0:0:0:0:
104,365,69139,2,0,P|93:321|46:289,2,92,2|2|2,0:0|0:0|0:0,0:0:0:0:
20,366,70181,5,8,0:0:0:0:
269,321,70389,1,0,3:0:0:0:
269,321,70597,2,0,L|282:276,1,46,2|2,0:0|0:0,0:0:0:0:
192,278,71014,5,8,0:0:0:0:
440,144,71222,1,0,3:0:0:0:
440,144,71431,2,0,L|426:188,1,46,2|2,0:0|0:0,0:0:0:0:
512,194,71847,5,8,0:0:0:0:
342,362,72056,1,0,3:0:0:0:
342,362,72264,1,2,0:0:0:0:
269,321,72472,2,0,B|276:304|278:281|278:281|262:214,2,92,2|2|2,0:0|0:0|0:0,0:0:0:0:
192,278,73514,5,8,0:0:0:0:
307,74,73722,1,0,3:0:0:0:
307,74,73931,2,0,L|293:118,1,46,2|2,0:0|0:0,0:0:0:0:
382,123,74347,5,8,0:0:0:0:
125,202,74556,1,0,3:0:0:0:
125,202,74764,2,0,L|138:157,1,46,2|2,0:0|0:0,0:0:0:0:
47,147,75181,5,8,0:0:0:0:
269,321,75389,1,0,3:0:0:0:
269,321,75597,1,2,0:0:0:0:
343,270,75806,2,0,P|325:211|298:198,2,92,2|2|2,0:0|0:0|0:0,0:0:0:0:
429,226,76847,5,8,0:0:0:0:
216,70,77056,1,0,3:0:0:0:
216,70,77264,2,0,L|239:1,1,69,2|0,0:0|0:0,0:0:0:0:
321,29,77681,5,8,0:0:0:0:
125,202,77889,1,0,3:0:0:0:
125,202,78097,2,0,L|148:133,1,69,2|0,0:0|0:0,0:0:0:0:
84,75,78514,5,8,0:0:0:0:
310,128,78722,1,0,3:0:0:0:
310,128,78931,2,0,P|339:82|322:39,1,92,2|2,0:0|0:0,0:0:0:0:
476,47,79764,5,2,3:3:0:0:
464,49,79833,1,2,3:3:0:0:
454,55,79903,1,2,3:3:0:0:
447,64,79972,1,2,3:3:0:0:
442,74,80042,1,2,3:3:0:0:
442,85,80111,1,2,3:3:0:0:
493,136,80181,6,0,P|415:138|449:243,1,172.5,8|0,0:1|0:0,0:0:0:0:
341,356,80597,6,0,L|307:102,1,230,10|2,0:0|0:0,0:0:0:0:
111,86,80910,5,0,0:0:0:0:
168,38,81014,2,0,P|214:56|224:142,1,115,8|0,0:1|0:0,0:0:0:0:
241,209,81326,5,0,0:0:0:0:
233,219,81431,2,0,B|132:204|132:204|112:214|112:214|-5:201,1,230,10|2,0:0|0:0,0:0:0:0:
13,366,81743,5,0,0:0:0:0:
69,314,81847,2,0,P|114:312|158:367,1,115,8|0,0:1|0:0,0:0:0:0:
304,357,82160,5,0,0:0:0:0:
317,364,82264,2,0,B|356:322|356:322|318:140,1,230,10|2,0:0|0:0,0:0:0:0:
392,31,82576,5,0,0:0:0:0:
464,58,82681,1,8,0:1:0:0:
470,70,82785,1,0,0:0:0:0:
476,81,82889,2,0,P|470:106|464:146,1,57.5,2|0,0:0|0:0,0:0:0:0:
511,220,83097,6,0,P|466:220|427:282,1,115,8|0,0:0|0:0,0:0:0:0:
317,364,83306,5,2,0:0:0:0:
317,364,83410,1,0,0:0:0:0:
317,364,83514,2,0,P|287:253|221:268,1,172.5,8|0,0:1|0:0,0:0:0:0:
157,361,83931,6,0,L|108:98,1,230,10|2,0:0|0:0,0:0:0:0:
11,31,84243,5,0,0:0:0:0:
51,99,84347,2,0,P|116:86|127:24,1,115,8|0,0:1|0:0,0:0:0:0:
236,23,84660,5,0,0:0:0:0:
243,34,84764,2,0,B|229:121|229:121|264:176|264:176|246:283,1,230,10|2,0:0|0:0,0:0:0:0:
433,351,85076,5,0,0:0:0:0:
413,279,85181,2,0,P|362:265|317:323,1,115,8|0,0:1|0:0,0:0:0:0:
236,332,85493,5,0,0:0:0:0:
225,341,85597,2,0,B|126:278|126:278|147:141,1,230,10|2,0:0|0:0,0:0:0:0:
124,31,85910,5,0,0:0:0:0:
52,58,86015,1,8,0:1:0:0:
46,70,86119,1,0,0:0:0:0:
40,81,86223,2,0,P|46:106|52:146,1,57.5,2|0,0:0|0:0,0:0:0:0:
143,166,86431,6,0,P|223:153|241:102,1,115,8|0,0:0|0:0,0:0:0:0:
323,35,86639,5,2,0:0:0:0:
323,35,86743,1,0,0:0:0:0:
323,35,86847,2,0,P|407:49|400:137,1,172.5,8|0,0:1|0:0,0:0:0:0:
455,263,87264,6,0,L|206:341,1,230,10|2,0:0|0:0,0:0:0:0:
71,304,87576,5,0,0:0:0:0:
141,280,87681,2,0,P|176:313|153:397,1,115,8|0,0:1|0:0,0:0:0:0:
13,366,87992,5,0,0:0:0:0:
24,361,88097,2,0,B|41:251|41:251|51:242|51:242|69:126,1,230,10|2,0:0|0:0,0:0:0:0:
190,44,88409,5,0,0:0:0:0:
242,98,88514,2,0,P|287:100|331:45,1,115,8|0,0:1|0:0,0:0:0:0:
434,25,88826,5,0,0:0:0:0:
439,40,88931,2,0,B|416:98|416:98|495:292,1,230,10|2,0:0|0:0,0:0:0:0:
390,355,89243,5,0,0:0:0:0:
315,327,89348,1,8,0:1:0:0:
309,315,89452,1,0,0:0:0:0:
303,304,89556,2,0,P|309:279|315:239,1,57.5,2|0,0:0|0:0,0:0:0:0:
258,202,89764,6,0,P|208:218|193:304,1,115,8|0,0:0|0:0,0:0:0:0:
96,358,89972,5,2,0:0:0:0:
96,358,90076,1,0,0:0:0:0:
96,358,90181,2,0,P|82:271|-20:262,1,172.5,8|0,0:1|0:0,0:0:0:0:
46,166,90597,6,2,P|165:150|286:85,1,230,10|0,0:0|0:0,0:0:0:0:
357,41,90910,5,0,0:0:0:0:
347,45,91014,2,0,P|312:89|332:155,1,115,8|0,0:1|0:0,0:0:0:0:
464,171,91326,5,0,0:0:0:0:
460,183,91431,2,2,P|338:254|283:334,1,230,10|0,0:0|0:0,0:0:0:0:
42,306,91847,5,8,0:1:0:0:
96,358,91951,2,0,P|117:316|115:292,2,57.5
184,272,92264,6,2,P|137:136|120:11,1,230,10|0,0:0|0:0,0:0:0:0:
335,40,92576,5,0,0:0:0:0:
330,57,92681,1,8,0:1:0:0:
276,109,92785,2,0,P|254:67|256:43,2,57.5
372,131,93097,5,2,3:3:0:0:
360,133,93166,1,2,3:3:0:0:
350,139,93236,1,2,3:3:0:0:
343,148,93305,1,2,3:3:0:0:
338,158,93375,1,2,3:3:0:0:
338,169,93444,1,2,3:3:0:0:
283,217,93514,6,0,P|368:216|364:307,1,172.5,10|0,0:1|0:0,0:0:0:0:
512,359,93931,6,0,L|282:305,1,230,10|2,0:0|0:0,0:0:0:0:
101,294,94243,5,0,0:0:0:0:
142,367,94347,2,0,B|183:328|183:328|168:248,1,115,10|0,0:1|0:0,0:0:0:0:
79,197,94660,5,0,0:0:0:0:
89,205,94764,2,0,B|177:185|177:185|201:127|201:127|289:105,1,230,10|2,0:0|0:0,0:0:0:0:
399,12,95076,5,0,0:0:0:0:
463,59,95181,2,0,B|424:100|424:100|346:81,1,115,10|0,0:1|0:0,0:0:0:0:
265,24,95493,5,0,0:0:0:0:
274,34,95597,2,0,L|324:284,1,230,10|2,0:0|0:0,0:0:0:0:
403,352,95910,5,0,0:0:0:0:
475,325,96015,1,10,0:1:0:0:
481,313,96119,1,0,0:0:0:0:
487,302,96223,2,0,P|481:277|487:234,1,57.5,2|0,0:0|0:0,0:0:0:0:
392,190,96431,6,0,P|351:255|264:185,1,115,8|0,0:0|0:0,0:0:0:0:
218,355,96639,5,2,0:0:0:0:
218,355,96743,1,0,0:0:0:0:
218,355,96847,2,0,P|224:285|125:278,1,172.5,10|0,0:1|0:0,0:0:0:0:
40,349,97264,6,0,B|91:321|91:321|130:123,1,230,10|2,0:0|0:0,0:0:0:0:
0,33,97576,5,0,0:0:0:0:
18,110,97681,2,0,B|71:90|71:90|84:11,1,115,8|0,0:1|0:0,0:0:0:0:
172,25,97993,5,0,0:0:0:0:
181,38,98097,2,0,B|268:49|268:49|300:31|300:31|436:48,1,230,10|0,0:0|0:0,0:0:0:0:
512,176,98410,5,0,0:0:0:0:
494,99,98515,2,0,B|440:118|440:118|427:197,1,115,10|0,0:1|0:0,0:0:0:0:
496,273,98826,5,0,0:0:0:0:
481,278,98931,2,0,B|412:295|412:295|349:251|349:251|215:286,1,230,10|2,0:0|0:0,0:0:0:0:
191,357,99243,5,0,0:0:0:0:
119,330,99348,1,10,0:1:0:0:
113,318,99452,1,0,0:0:0:0:
107,307,99556,2,0,P|113:282|107:239,1,57.5,2|0,0:0|0:0,0:0:0:0:
11,201,99764,6,0,P|37:153|123:149,1,115,8|0,0:0|0:0,0:0:0:0:
151,46,99972,5,2,0:0:0:0:
151,46,100076,1,0,0:0:0:0:
151,46,100181,2,0,P|234:73|249:-18,1,172.5,10|0,0:1|0:0,0:0:0:0:
368,43,100597,6,0,L|338:305,1,230,10|2,0:0|0:0,0:0:0:0:
512,327,100910,5,0,0:0:0:0:
457,262,101014,2,0,B|416:308|416:308|442:382,1,115,10|0,0:1|0:0,0:0:0:0:
334,354,101326,5,0,0:0:0:0:
316,342,101431,2,0,B|251:354|251:354|183:290|183:290|122:303|122:303|157:336,1,230,10|2,0:0|0:0,0:0:0:0:
0,362,101743,5,0,0:0:0:0:
42,294,101847,2,0,B|27:235|27:235|71:168,1,115,10|0,0:1|0:0,0:0:0:0:
37,107,102160,5,0,0:0:0:0:
52,100,102264,2,0,B|307:172,1,230,10|2,0:0|0:0,0:0:0:0:
435,82,102576,5,0,0:0:0:0:
363,109,102681,1,10,0:1:0:0:
357,121,102785,1,0,0:0:0:0:
351,132,102889,2,0,P|357:157|351:200,1,57.5,2|0,0:0|0:0,0:0:0:0:
495,217,103097,6,0,P|428:272|474:334,1,115,8|0,0:0|0:0,0:0:0:0:
312,356,103306,5,2,0:0:0:0:
312,356,103410,1,0,0:0:0:0:
312,356,103514,1,10,0:1:0:0:
240,310,103618,6,0,P|206:316|172:329,2,57.5
318,272,103931,6,2,P|194:263|67:207,1,230,10|0,0:0|0:0,0:0:0:0:
0,91,104243,5,0,0:0:0:0:
5,108,104348,1,8,0:1:0:0:
59,160,104452,2,0,P|81:118|79:94,2,57.5
96,225,104764,6,2,P|148:188|199:113,1,115,10|0,0:0|0:0,0:0:0:0:
248,27,104972,5,0,0:0:0:0:
253,44,105077,1,0,0:0:0:0:
258,61,105181,1,8,0:1:0:0:
310,118,105285,2,0,P|332:76|330:52,2,57.5
303,211,105597,6,0,P|370:186|391:137,1,86.2500032901765
411,48,105806,2,0,L|405:24,2,21.5625008225441,0|0|0,3:0|3:0|3:0,3:0:0:0:
464,192,106014,6,0,L|455:238,1,43.125,8|0,0:0|0:0,0:0:0:0:
512,280,106431,6,0,P|453:269|406:362,1,172.5,2|0,0:2|0:0,0:0:0:0:
403,355,106847,1,2,0:0:0:0:
28,359,119764,6,0,P|37:322|43:297,1,57.5,2|0,0:0|0:0,0:0:0:0:
138,300,120181,5,0,0:0:0:0:
138,300,120597,2,0,P|182:288|242:327,1,115,2|2,0:0|0:0,0:0:0:0:
343,356,121431,1,2,0:0:0:0:
343,356,121847,6,0,P|382:281|410:242,1,115,0|2,0:0|0:0,0:0:0:0:
488,162,122681,1,2,0:0:0:0:
358,86,123097,1,2,0:0:0:0:
399,256,123514,5,0,0:0:0:0:
399,256,123931,2,0,P|338:233|266:212,1,115,2|2,0:0|0:0,0:0:0:0:
358,86,124764,2,0,P|419:109|433:113,2,57.5,2|0|0,0:0|0:0|0:0,0:0:0:0:
169,94,126014,1,0,0:0:0:0:
169,94,126847,6,0,P|210:123|209:190,1,115,2|2,0:0|0:0,0:0:0:0:
107,261,127681,1,2,0:0:0:0:
107,261,128097,2,0,P|57:236|-7:217,1,115,2|0,0:0|0:0,0:0:0:0:
169,356,128931,1,2,0:0:0:0:
169,356,129347,2,0,P|219:331|283:312,1,115,2|2,0:0|0:0,0:0:0:0:
438,287,130181,5,0,0:0:0:0:
438,287,131014,2,0,P|425:232|361:230,1,115,2|2,0:0|0:0,0:0:0:0:
26,356,131847,6,0,B|22:315|22:315|61:276,1,86.2500032901765,2|0,3:0|3:0,0:0:0:0:
220,272,132264,6,0,L|291:290,1,57.5,8|0,0:0|3:0,0:0:0:0:
179,207,132576,5,0,3:3:0:0:
314,351,132785,1,0,0:0:0:0:
405,174,133097,5,0,3:3:0:0:
393,176,133166,1,0,3:3:0:0:
383,182,133236,1,0,3:3:0:0:
376,191,133305,1,0,3:3:0:0:
371,201,133375,1,0,3:3:0:0:
371,212,133444,1,0,3:3:0:0:
378,226,133514,6,0,P|429:246|480:271,1,86.2500032901765,8|0,3:0|0:0,0:0:0:0:
457,259,133931,2,0,P|426:310|395:381,1,115,10|0,3:0|0:0,0:0:0:0:
314,351,134243,1,0,3:0:0:0:
305,332,134347,1,2,3:0:0:0:
155,300,134556,5,8,3:3:0:0:
173,262,134660,1,8,3:3:0:0:
157,217,134764,1,10,3:3:0:0:
121,202,134868,1,8,3:3:0:0:
121,202,135181,6,0,P|72:227|25:238,1,86.2500032901765,0|0,3:0|3:0,0:0:0:0:
42,235,135597,2,0,P|62:155|68:106,1,115,10|0,3:0|3:0,0:0:0:0:
17,23,135910,1,0,3:0:0:0:
24,43,136014,1,2,3:0:0:0:
174,79,136222,6,0,P|200:54|236:41,1,57.5,0|2,3:0|3:3,0:0:0:0:
229,25,136535,1,0,3:3:0:0:
324,144,136743,1,0,3:3:0:0:
384,103,136847,6,0,P|449:132|477:153,1,86.2500032901765,0|0,3:3|3:0,0:0:0:0:
461,140,137264,2,0,P|490:71|504:16,1,115,10|0,3:0|3:0,0:0:0:0:
411,0,137576,1,0,3:0:0:0:
404,20,137681,1,2,3:0:0:0:
237,160,137889,5,8,3:3:0:0:
277,135,137994,1,8,3:3:0:0:
324,144,138098,1,10,3:3:0:0:
353,182,138202,1,8,3:3:0:0:
357,238,138306,1,8,3:3:0:0:
357,238,138514,6,0,P|412:253|464:277,1,86.2500032901765,0|0,3:0|3:0,0:0:0:0:
438,264,138931,2,0,P|460:333|486:386,1,115,8|0,3:0|3:0,0:0:0:0:
378,380,139243,1,0,3:0:0:0:
384,360,139347,1,0,3:0:0:0:
274,276,139556,1,8,3:0:0:0:
131,297,139764,5,0,3:0:0:0:
137,286,139833,1,0,3:0:0:0:
139,275,139903,1,0,3:0:0:0:
137,264,139972,1,0,3:0:0:0:
133,253,140042,1,0,3:0:0:0:
125,246,140111,1,0,3:0:0:0:
118,243,140181,6,0,P|69:267|16:288,1,86.2500032901765,2|0,3:0|3:0,0:0:0:0:
40,279,140597,2,0,P|81:326|132:388,1,115,10|0,3:0|3:0,0:0:0:0:
207,362,140910,1,0,3:0:0:0:
227,352,141014,1,2,3:0:0:0:
354,226,141222,5,8,3:3:0:0:
336,188,141326,1,8,3:3:0:0:
352,143,141430,1,10,3:3:0:0:
395,124,141534,1,8,3:3:0:0:
395,124,141847,6,0,P|443:93|475:58,1,86.2500032901765,0|0,3:0|3:0,0:0:0:0:
463,72,142264,2,0,P|377:43|327:21,1,115,10|0,3:0|3:0,0:0:0:0:
266,27,142576,1,0,3:0:0:0:
261,47,142681,1,2,3:0:0:0:
129,85,142889,5,0,3:3:0:0:
96,76,142993,2,0,P|78:52|60:32,1,57.5,0|2,3:3|0:0,0:0:0:0:
39,26,143201,1,0,3:3:0:0:
26,170,143410,1,0,3:3:0:0:
91,206,143514,6,0,P|150:186|199:179,1,86.2500032901765,0|0,3:0|3:0,0:0:0:0:
173,181,143931,2,0,P|160:271|155:317,1,115,8|0,3:0|3:0,0:0:0:0:
243,353,144243,1,0,3:0:0:0:
235,330,144347,1,0,3:0:0:0:
397,166,144556,5,8,3:3:0:0:
455,169,144660,1,8,3:3:0:0:
494,213,144764,1,10,3:3:0:0:
487,272,144868,1,8,3:3:0:0:
487,272,145181,6,0,P|423:303|379:347,1,120.749996315003,0|0,3:0|0:0,0:0:0:0:
387,336,146014,1,0,3:0:0:0:
243,187,146639,5,2,0:0:0:0:
252,187,146743,1,2,0:0:0:0:
260,191,146847,2,0,P|324:222|361:260,2,115,2|2|2,0:0|0:0|0:0,0:0:0:0:
114,116,148097,6,0,P|95:130|60:143,2,38.3333333333333,0|2|2,0:0|0:0|0:0,0:0:0:0:
149,45,148514,2,0,P|192:81|184:147,1,115,2|2,0:0|0:0,0:0:0:0:
117,343,149347,5,2,0:0:0:0:
111,337,149556,2,0,P|123:284|127:255,1,68.9999978942872,2|2,0:0|0:0,0:0:0:0:
62,219,150076,5,2,0:0:0:0:
53,228,150181,2,0,P|45:284|31:342,2,115,2|2|2,0:0|0:0|0:0,0:0:0:0:
227,120,151431,6,0,P|246:134|281:147,2,38.3333333333333,0|2|2,0:0|0:0|0:0,0:0:0:0:
192,49,151848,2,0,P|149:85|157:151,1,115,2|2,0:0|0:0,0:0:0:0:
262,348,152681,5,2,0:0:0:0:
328,315,153097,5,2,0:0:0:0:
395,350,153514,6,0,P|414:246|451:64,1,287.5,2|0,0:0|0:0,0:0:0:0:
455,63,154764,2,0,P|460:91|467:117,1,51.7499984207154,2|0,0:0|0:0,0:0:0:0:
406,158,155181,5,2,0:0:0:0:
397,150,155285,2,0,P|393:120|377:59,1,86.25,2|2,0:0|0:0,0:0:0:0:
126,34,156014,5,2,0:0:0:0:
195,1,156431,5,2,0:0:0:0:
256,45,156847,6,0,P|237:149|200:331,1,287.5,2|0,0:0|0:0,0:0:0:0:
196,332,158097,2,0,P|191:304|185:280,1,46,2|2,0:0|0:0,0:0:0:0:
245,231,158410,5,2,0:0:0:0:
254,239,158514,2,0,P|258:269|280:358,1,115,2|0,0:0|0:0,0:0:0:0:
106,205,159347,5,8,0:0:0:0:
115,194,159556,2,0,P|131:144|144:16,1,149.499993156433,2|0,0:0|0:0,0:0:0:0:
93,0,160180,5,2,3:3:0:0:
212,123,160389,2,0,P|256:113|321:108,1,86.2500032901765,0|0,3:3|3:3,0:0:0:0:
283,36,160806,2,0,P|240:40|198:50,1,86.2500032901765,2|8,0:0|0:0,0:0:0:0:
220,256,161222,5,2,0:0:0:0:
220,256,161430,2,0,P|262:218|241:170,1,86.2500032901765,2|8,3:3|0:0,0:0:0:0:
126,93,161847,5,2,0:0:0:0:
106,163,162056,1,8,0:0:0:0:
118,83,162264,6,0,P|129:173|145:278,1,172.500006580353,0|8,3:3|0:0,0:0:0:0:
51,303,162889,2,0,P|121:323|192:354,1,137.999995788574,2|0,0:0|0:0,0:0:0:0:
303,225,163514,5,2,3:3:0:0:
230,201,163722,2,0,P|228:257|248:279,1,86.2500032901765,0|0,3:3|3:3,0:0:0:0:
383,360,164139,6,0,P|394:296|436:184,1,172.500006580353,2|0,0:0|0:0,0:0:0:0:
321,85,164764,2,0,P|367:93|388:131,1,86.2500032901765,2|8,3:3|0:0,0:0:0:0:
316,292,165181,5,2,0:0:0:0:
310,308,165389,2,0,P|299:244|257:132,1,172.500006580353,0|0,3:3|0:0,0:0:0:0:
199,97,166014,6,0,P|136:91|95:164,1,137.999995788574,10|2,0:0|3:3,0:0:0:0:
94,146,166847,5,2,3:3:0:0:
67,83,167056,1,0,3:3:0:0:
157,196,167264,6,0,P|141:252|133:300,1,86.2500032901765,0|0,3:3|0:0,0:0:0:0:
63,256,167681,2,0,P|71:213|84:172,1,86.2500032901765,8|0,0:0|0:0,0:0:0:0:
238,132,168097,5,2,3:3:0:0:
115,31,168306,5,8,0:0:0:0:
121,29,168410,1,0,0:0:0:0:
126,28,168514,2,0,P|168:34|188:79,1,86.2500032901765,0|8,0:0|0:0,0:0:0:0:
178,279,168931,2,0,P|167:242|156:195,1,86.2500032901765,0|0,3:3|0:0,0:0:0:0:
262,52,169347,6,0,P|319:76|396:98,1,137.999995788574,10|2,0:0|3:3,0:0:0:0:
392,97,170180,5,2,3:3:0:0:
331,136,170389,1,0,3:3:0:0:
501,155,170597,2,0,P|457:168|411:198,1,86.2500032901765,0|0,3:3|0:0,0:0:0:0:
263,240,171014,6,0,P|322:230|378:333,1,172.500006580353,8|2,0:0|3:3,0:0:0:0:
432,368,171639,5,10,0:0:0:0:
424,378,171743,1,0,0:0:0:0:
412,384,171847,1,0,0:0:0:0:
401,384,172264,1,0,0:0:0:0:
391,382,172681,6,0,L|373:288,1,92,2|2,0:0|0:0,0:0:0:0:
206,38,173514,5,8,0:0:0:0:
111,248,173723,1,0,0:0:0:0:
111,248,173931,2,0,L|168:231,1,46,2|2,0:0|0:0,0:0:0:0:
64,183,174764,2,0,L|121:166,1,46,2|2,0:0|0:0,0:0:0:0:
29,116,175181,5,8,0:0:0:0:
267,256,175389,1,0,0:0:0:0:
267,256,175598,1,2,0:0:0:0:
198,312,175806,6,0,P|190:266|179:222,2,92,2|2|2,0:0|0:0|0:0,0:0:0:0:
267,256,176847,5,10,0:0:0:0:
37,341,177056,1,0,0:0:0:0:
37,341,177264,2,0,L|48:276,1,46,2|2,0:0|0:0,0:0:0:0:
110,368,178097,2,0,L|121:303,1,46,2|2,0:0|0:0,0:0:0:0:
190,384,178514,5,8,0:0:0:0:
103,141,178723,1,0,0:0:0:0:
103,141,178931,1,2,0:0:0:0:
50,199,179139,6,0,P|83:227|132:215,2,92,2|2|2,0:0|0:0|0:0,0:0:0:0:
103,141,180181,5,10,0:0:0:0:
329,234,180389,1,0,0:0:0:0:
329,234,180597,2,0,L|265:253,1,46,2|2,0:0|0:0,0:0:0:0:
376,300,181431,2,0,L|312:319,1,46,2|2,0:0|0:0,0:0:0:0:
417,372,181847,5,8,0:0:0:0:
478,128,182056,1,0,0:0:0:0:
478,128,182264,1,2,0:0:0:0:
509,199,182472,6,0,B|480:214|480:214|414:188,2,92,2|2|2,0:0|0:0|0:0,0:0:0:0:
478,128,183514,5,10,0:0:0:0:
252,207,183722,1,0,0:0:0:0:
252,207,183931,2,0,L|272:39,1,161,2|0,0:0|0:0,0:0:0:0:
338,103,184764,6,0,P|334:137|328:187,1,68.9999978942872,2|0,0:0|0:0,0:0:0:0:
42,364,186014,5,2,0:0:0:0:
42,364,186431,1,2,0:0:0:0:
128,162,186847,6,0,P|204:149|198:263,1,206.999993682861,14|0,0:1|0:0,0:0:0:0:
74,274,187264,6,0,B|30:227|30:227|73:50,1,230,10|2,0:0|3:0,0:0:0:0:
298,53,187576,5,0,3:0:0:0:
236,10,187680,2,0,P|186:9|145:85,1,115,8|0,0:1|3:0,0:0:0:0:
199,254,187992,5,0,0:0:0:0:
199,241,188097,2,0,B|218:90|218:90|210:140|156:162,1,230,10|2,0:0|3:0,0:0:0:0:
142,308,188410,5,0,3:0:0:0:
204,351,188514,2,0,P|253:351|294:275,1,115,8|0,0:1|3:0,0:0:0:0:
409,161,188826,5,0,0:0:0:0:
398,167,188931,2,0,B|297:152|297:152|277:167|277:167|160:149,1,230,10|2,0:0|3:0,0:0:0:0:
115,21,189242,5,0,3:0:0:0:
48,58,189347,1,10,0:1:0:0:
42,70,189451,1,0,3:0:0:0:
36,81,189555,2,0,P|42:106|48:146,1,57.5,2|0,3:0|0:0,0:0:0:0:
96,257,189763,6,0,P|51:257|12:195,1,115,10|0,0:0|0:0,0:0:0:0:
183,71,189972,5,2,3:0:0:0:
183,71,190076,1,0,0:0:0:0:
183,71,190181,6,0,B|235:39|270:90|273:96|273:96|315:169|406:101,1,206.999993682861,10|0,0:1|0:0,0:0:0:0:
457,7,190597,6,0,B|411:41|411:41|460:243,1,230,10|2,0:0|3:0,0:0:0:0:
506,357,190909,5,0,3:0:0:0:
466,289,191013,2,0,P|401:302|390:364,1,115,8|0,0:1|3:0,0:0:0:0:
304,384,191326,5,0,0:0:0:0:
297,371,191430,2,0,P|308:257|321:121,1,230,10|2,0:0|3:0,0:0:0:0:
140,56,191742,5,0,3:0:0:0:
201,13,191847,2,0,P|251:29|257:102,1,115,8|0,0:1|3:0,0:0:0:0:
233,234,192159,5,0,0:0:0:0:
222,244,192264,2,0,B|121:259|121:259|101:244|101:244|-16:262,1,230,10|2,0:0|3:0,0:0:0:0:
3,58,192576,5,0,3:0:0:0:
76,93,192681,1,10,0:1:0:0:
82,105,192785,1,0,3:0:0:0:
88,116,192889,2,0,P|82:141|76:181,1,57.5,0|0,3:0|0:0,0:0:0:0:
124,256,193097,6,0,P|79:256|40:318,1,115,10|0,0:0|0:0,0:0:0:0:
256,343,193305,5,2,3:0:0:0:
256,343,193409,1,0,0:0:0:0:
256,343,193513,2,0,L|231:113,1,206.999993682861,10|0,0:1|0:0,0:0:0:0:
199,68,193931,6,0,B|255:33|294:89|296:95|296:95|342:174|440:100,1,230,10|2,0:0|3:0,0:0:0:0:
486,59,194242,5,0,3:0:0:0:
440,0,194347,2,0,P|392:8|366:91,1,115,8|0,0:1|3:0,0:0:0:0:
393,235,194660,5,0,0:0:0:0:
405,242,194764,2,0,B|425:258|434:289|434:289|419:90,1,230,10|2,0:0|3:0,0:0:0:0:
274,36,195075,5,0,3:0:0:0:
205,61,195180,2,0,L|76:25,1,115,8|0,0:1|3:0,0:0:0:0:
104,175,195492,5,0,0:0:0:0:
113,182,195597,2,0,B|218:159|218:159|236:164|236:164|363:135,1,230,10|2,0:0|3:0,0:0:0:0:
404,43,195909,5,0,3:0:0:0:
477,76,196014,1,10,0:1:0:0:
483,88,196118,1,0,3:0:0:0:
489,99,196222,2,0,P|483:124|477:164,1,57.5,2|0,3:0|0:0,0:0:0:0:
377,199,196430,6,0,P|427:215|442:301,1,115,10|0,0:0|0:0,0:0:0:0:
341,364,196638,5,2,3:0:0:0:
341,364,196742,1,0,3:0:0:0:
341,364,196847,6,0,B|289:396|254:345|251:339|251:339|209:266|118:334,1,206.999993682861,10|0,0:1|0:0,0:0:0:0:
190,379,197264,6,0,P|205:267|230:126,1,230,10|0,0:0|3:0,0:0:0:0:
199,4,197576,5,0,3:0:0:0:
188,6,197680,2,0,P|145:42|152:111,1,115,8|0,0:1|3:0,0:0:0:0:
293,193,197992,5,0,0:0:0:0:
298,202,198097,2,0,B|422:145|532:142|532:142|470:153|413:202,1,345,10|0,0:0|0:0,0:0:0:0:
396,319,198513,5,8,0:1:0:0:
443,263,198617,2,0,P|418:248|390:247,2,57.5,0|2|0,3:0|0:0|0:0,0:0:0:0:
491,350,198931,5,2,0:0:0:0:
493,360,199139,1,2,0:0:0:0:
298,202,199347,6,0,P|296:184|292:159,6,31.6250009651184,2|0|0|0|0|0|0,3:0|0:0|0:0|0:0|0:0|0:0|0:0,0:0:0:0:
372,188,199764,6,0,P|369:174|369:152,5,22.9999992980957,2|0|0|0|0|0,3:0|0:0|0:0|0:0|0:0|0:0,0:0:0:0:
255,42,200181,6,0,P|170:41|174:132,1,172.5,2|0,0:0|0:0,0:0:0:0:
20,200,200597,2,0,B|126:186|126:186|140:193|140:193|298:169,1,230,14|2,0:1|3:0,0:0:0:0:
376,265,200910,5,0,3:0:0:0:
314,308,201014,2,0,P|264:309|223:233,1,115,10|0,0:1|3:0,0:0:0:0:
362,52,201326,5,0,0:0:0:0:
369,60,201431,2,0,B|395:46|408:5|408:5|372:227,1,230,10|2,0:0|3:0,0:0:0:0:
418,334,201742,5,0,3:0:0:0:
474,279,201847,2,0,B|427:243|427:243|375:264,1,115,10|0,0:1|3:0,0:0:0:0:
224,380,202159,5,0,0:0:0:0:
233,370,202263,2,0,L|283:120,1,230,10|2,0:0|3:0,0:0:0:0:
209,10,202576,5,0,3:0:0:0:
140,52,202681,1,10,0:1:0:0:
134,64,202785,1,0,3:0:0:0:
128,75,202889,2,0,L|140:140,1,57.5,2|0,3:0|0:0,0:0:0:0:
109,266,203097,6,0,P|152:207|237:271,1,115,10|0,0:0|0:0,0:0:0:0:
317,301,203305,5,2,3:0:0:0:
317,301,203409,1,0,0:0:0:0:
317,301,203514,6,0,B|329:289|344:289|344:289|292:248|250:322|249:323|249:323|248:324|204:398|111:325,1,258.75000987053,10|0,0:1|0:0,0:0:0:0:
80,384,203931,6,0,P|63:289|13:142,1,230,10|2,0:0|3:0,0:0:0:0:
97,23,204242,5,0,3:0:0:0:
133,94,204347,2,0,B|76:108|76:108|36:68,1,115,8|0,0:1|3:0,0:0:0:0:
233,15,204659,5,0,0:0:0:0:
245,23,204764,2,0,B|289:70|289:70|246:247,1,230,10|2,0:0|3:0,0:0:0:0:
150,351,205076,5,0,3:0:0:0:
212,308,205180,2,0,P|262:307|303:383,1,115,10|0,0:1|3:0,0:0:0:0:
447,216,205493,5,0,0:0:0:0:
408,153,205597,2,0,P|331:136|339:263,1,230,10|2,0:0|3:0,0:0:0:0:
496,377,205910,5,0,3:0:0:0:
454,308,206015,1,10,0:1:0:0:
442,302,206119,1,0,3:0:0:0:
431,296,206223,2,0,P|406:302|366:308,1,57.5,2|0,3:0|0:0,0:0:0:0:
268,338,206431,6,0,P|268:293|330:254,1,115,10|0,0:0|0:0,0:0:0:0:
211,384,206638,5,2,3:0:0:0:
211,384,206742,1,0,0:0:0:0:
211,384,206847,6,0,B|126:375|126:375|116:368|116:368|22:360,1,172.5,10|0,0:1|0:0,0:0:0:0:
7,292,207264,6,0,P|-6:216|113:239,1,230,10|2,0:0|3:0,0:0:0:0:
239,228,207576,5,0,3:0:0:0:
268,300,207680,2,0,B|207:309|207:309|159:247,1,115,10|0,0:1|3:0,0:0:0:0:
147,115,207992,5,0,0:0:0:0:
156,104,208097,2,0,B|212:69|251:125|253:131|253:131|299:210|397:136,1,230,10|2,0:0|3:0,0:0:0:0:
383,61,208410,5,0,3:0:0:0:
330,1,208515,2,0,B|295:48|295:48|317:100,1,115,10|0,0:1|3:0,0:0:0:0:
410,224,208826,5,0,0:0:0:0:
417,215,208930,2,0,B|158:168,1,230,10|2,0:0|3:0,0:0:0:0:
126,92,209243,5,0,3:0:0:0:
59,129,209348,1,10,0:1:0:0:
53,141,209452,1,0,3:0:0:0:
47,152,209556,2,0,P|53:177|59:217,1,57.5,2|0,3:0|0:0,0:0:0:0:
70,294,209763,6,0,P|137:239|91:177,1,115,10|0,0:0|0:0,0:0:0:0:
58,51,209972,5,2,3:0:0:0:
58,51,210076,1,0,0:0:0:0:
58,51,210181,2,0,B|34:-11|34:-11|48:96,1,137.999995788574,10|0,0:1|3:0,0:0:0:0:
303,230,213305,5,2,0:0:0:0:
315,232,213409,1,2,0:0:0:0:
325,235,213513,2,0,P|395:220|454:214,2,115,2|2|2,0:0|0:0|0:0,0:0:0:0:
207,134,214906,5,2,0:0:0:0:
195,136,215022,1,2,0:0:0:0:
185,139,215138,2,0,P|115:124|56:118,1,124,2|2,0:0|0:0,0:0:0:0:
202,53,216010,1,2,0:0:0:0:
248,205,216225,5,2,0:0:0:0:
248,205,216602,5,2,0:0:0:0:
246,217,216716,1,2,0:0:0:0:
245,228,216831,2,0,L|252:271,1,34.4999989471436,2|0,0:0|0:0,0:0:0:0:
331,210,217076,2,0,L|320:312,1,86.25,2|0,0:0|0:0,0:0:0:0:
261,341,217489,6,0,B|215:317|183:357|183:357|146:397|96:366,1,172.5,2|2,0:0|0:0,0:0:0:0:
31,247,218299,5,2,0:0:0:0:
29,239,218404,1,2,0:0:0:0:
27,229,218510,2,0,P|33:200|42:162,2,57.5,2|2|2,0:0|0:0|0:0,0:0:0:0:
173,339,219349,6,0,P|166:287|156:214,1,115,2|2,0:0|0:0,0:0:0:0:
279,141,219932,5,2,0:0:0:0:
273,146,220045,1,2,0:0:0:0:
269,152,220159,2,0,P|263:181|248:281,1,115,2|2,0:0|0:0,0:0:0:0:
297,328,220995,5,2,0:0:0:0:
351,152,221423,2,0,P|340:202|332:253,1,103.499996841431,2|0,0:0|0:0,0:0:0:0:
380,325,221884,5,2,0:0:0:0:
384,331,221987,2,0,P|451:325|462:201,1,197.25,2|2,0:0|0:0,0:0:0:0:
371,56,223109,5,2,0:0:0:0:
253,168,223523,6,0,B|207:144|175:184|175:184|138:224|88:193,1,168.5,2|0,0:0|0:0,0:0:0:0:
29,118,224339,6,0,B|22:46|22:46|39:99,1,115,2|2,0:0|0:0,0:0:0:0:
107,117,224987,5,2,0:0:0:0:
106,123,225077,1,2,0:0:0:0:
105,129,225166,2,0,P|99:199|92:286,1,137.999995788574,2|2,0:0|0:0,0:0:0:0:
130,330,226035,5,2,0:0:0:0:
174,264,226246,2,0,P|179:195|185:143,1,112,2|2,0:0|0:0,0:0:0:0:
231,62,226858,6,0,B|279:36|312:78|312:78|351:120|403:88,1,172.5,2|2,0:0|0:0,0:0:0:0:
485,20,227878,5,0,0:0:0:0:
485,20,228082,2,0,P|488:51|498:94,1,60.5
468,149,228408,5,2,0:0:0:0:
465,159,228521,2,0,P|456:218|441:278,1,115,2|2,0:0|0:0,0:0:0:0:
270,358,229349,6,0,L|226:351,1,28.75
281,273,229560,2,0,L|198:288,1,60.5
161,336,229986,5,2,0:0:0:0:
151,337,230089,1,2,0:0:0:0:
138,338,230191,2,0,P|127:273|91:195,1,115,2|0,0:0|0:0,0:0:0:0:
175,178,230819,6,0,P|184:140|207:102,2,57.5,0|2|0,0:0|0:0|0:0,0:0:0:0:
198,249,231440,1,2,0:0:0:0:
102,148,231608,5,2,0:0:0:0:
100,142,231723,1,2,0:0:0:0:
98,137,231839,2,0,P|50:126|-8:92,1,115,2|2,0:0|0:0,0:0:0:0:
234,57,232695,6,0,P|282:46|340:12,1,115,2|2,0:0|0:0,0:0:0:0:
154,0,233540,6,0,P|162:62|170:136,1,115,2|0,0:0|0:0,0:0:0:0:
219,168,234092,6,0,B|243:174|243:174|247:174|247:174|250:175|250:175|270:181|270:181|294:157|294:157|298:154|298:154|301:148|301:148|306:144|306:144|339:117|339:117|404:138,1,192.25,0|2,0:0|0:0,0:0:0:0:
441,332,235204,6,0,P|456:253|331:255,1,226,0|2,0:0|0:0,0:0:0:0:
319,310,236449,1,2,0:0:0:0:
241,180,236863,6,0,B|238:126|238:126|234:120|234:120|228:47,2,115,2|0|0,0:0|0:0|0:0,0:0:0:0:
179,270,238104,5,2,0:0:0:0:
179,270,238311,2,0,B|65:237|11:224|11:224|36:231|69:253,1,230,2|0,0:0|0:0,0:0:0:0:
90,327,239345,5,0,0:0:0:0:
87,317,239552,1,0,0:0:0:0:
22,355,239759,5,0,0:0:0:0:
19,345,239966,1,0,0:0:0:0:
179,270,240223,6,0,P|231:291|241:332,1,92,2|2,0:0|0:0,0:0:0:0:
291,379,240703,2,0,L|306:211,1,161,2|0,0:0|0:0,0:0:0:0:
235,82,241862,6,0,B|232:37|232:37|243:70,1,69
299,127,242282,5,0,0:0:0:0:
299,127,242486,1,0,0:0:0:0:
209,174,242680,6,0,P|184:169|155:163,1,46,0|2,0:0|0:0,0:0:0:0:
126,100,243105,2,0,P|101:105|72:111,1,46,0|2,0:0|0:0,0:0:0:0:
49,218,243501,6,0,P|58:253|63:288,1,69,2|0,0:0|0:0,0:0:0:0:
1,320,243942,2,0,B|52:293|87:337|87:337|128:382|183:347,1,184,2|0,0:0|0:0,0:0:0:0:
337,301,245189,6,0,B|380:293|380:293|331:315,1,92
258,311,246022,6,0,P|253:286|265:249,1,46
286,199,246337,5,2,0:0:0:0:
291,192,246445,2,0,P|296:167|284:130,1,46,2|2,0:0|0:0,0:0:0:0:
255,81,246808,6,0,B|233:59|233:59|185:58|171:120|212:147,1,126.5,2|2,0:0|0:0,0:0:0:0:
370,184,248049,6,0,P|403:175|442:167,1,69,2|0,0:0|0:0,0:0:0:0:
429,93,248525,2,0,P|395:100|326:119,1,92
190,227,249352,6,0,P|184:253|174:288,1,46
254,291,249771,2,0,P|258:270|265:246,1,46,0|2,0:0|0:0,0:0:0:0:
243,175,250081,5,2,0:0:0:0:
240,169,250184,2,0,P|231:134|205:84,1,92,2|0,0:0|0:0,0:0:0:0:
341,226,251012,6,0,P|350:191|376:145,1,85.1000020776368
175,292,251853,6,0,P|166:257|145:212,1,80.499997543335
327,333,252687,6,0,P|346:328|377:318,1,46
434,367,253095,2,0,P|453:372|484:382,1,46,2|2,0:0|0:0,0:0:0:0:
512,187,253585,6,0,B|472:172|448:203|448:203|423:230|380:214,1,134,2|2,0:0|0:0,0:0:0:0:
261,81,254759,1,0,0:0:0:0:
339,47,255178,6,0,P|331:92|326:143,1,92
242,325,255956,5,2,0:0:0:0:
245,318,256023,2,0,P|240:288|234:267,1,46,2|2,0:0|0:0,0:0:0:0:
306,258,256436,2,0,P|311:280|315:303,1,46,0|2,0:0|0:0,0:0:0:0:
173,378,256850,6,0,P|153:297|87:218,1,179,2|2,0:0|0:0,0:0:0:0:
24,206,258485,5,2,0:0:0:0:
155,52,259369,6,0,P|188:61|201:63,1,46,2|2,0:0|0:0,0:0:0:0:
232,133,259774,2,0,P|265:124|278:122,1,46,2|2,0:0|0:0,0:0:0:0:
335,78,260081,5,2,0:0:0:0:
344,80,260182,2,0,P|395:96|429:172,1,137.5,2|0,0:0|0:0,0:0:0:0:
410,236,261029,5,0,0:0:0:0:
242,366,261452,6,0,P|244:337|251:312,1,51.7499984207154
257,242,261845,2,0,B|216:234|196:267|196:267|173:297|131:290,1,135,2|0,0:0|0:0,0:0:0:0:
84,247,262622,5,2,0:0:0:0:
80,242,262689,2,0,P|73:197|58:149,1,92,2|2,0:0|0:0,0:0:0:0:
256,11,263534,5,2,0:0:0:0:
