osu file format v14

[General]
AudioFilename: audio.mp3
AudioLeadIn: 0
PreviewTime: 195020
Countdown: 0
SampleSet: Drum
StackLeniency: 0.3
Mode: 0
LetterboxInBreaks: 1
EpilepsyWarning: 1
WidescreenStoryboard: 1

[Editor]
Bookmarks: 7520,187520,285020
DistanceSpacing: 1.5
BeatDivisor: 8
GridSize: 32
TimelineZoom: 1

[Metadata]
Title:Sea Of Voices
TitleUnicode:Sea Of Voices
Artist:Porter Robinson
ArtistUnicode:Porter Robinson
Creator:fowwo
Version:Fathomless
Source:
Tags:Worlds Breanne Düren
BeatmapID:2189127
BeatmapSetID:916099

[Difficulty]
HPDrainRate:6
CircleSize:6
OverallDifficulty:7
ApproachRate:8
SliderMultiplier:1.5
SliderTickRate:1

[Events]
//Background and Video events
0,0,"sea.jpg",0,0
//Break Periods
//Storyboard Layer 0 (Background)
//Storyboard Layer 1 (Fail)
//Storyboard Layer 2 (Pass)
//Storyboard Layer 3 (Foreground)
//Storyboard Layer 4 (Overlay)
//Storyboard Sound Samples

[TimingPoints]
20,937.5,4,3,1,20,1,0
7520,-133.333333333333,4,3,1,20,0,0
37520,-33.3333333333333,4,3,1,50,0,0
37988,-133.333333333333,4,3,1,20,0,0
45020,-50,4,3,1,40,0,0
46895,-133.333333333333,4,3,1,20,0,0
48770,-50,4,3,1,50,0,0
49238,-50,4,3,1,45,0,0
49707,-50,4,3,1,40,0,0
50176,-50,4,3,1,35,0,0
50645,-50,4,3,1,30,0,0
51113,-50,4,3,1,25,0,0
51582,-50,4,3,1,20,0,0
52520,-33.3333333333333,4,3,1,50,0,0
52988,-117.647058823529,4,3,1,25,0,0
60020,-50,4,3,1,50,0,0
61895,-117.647058823529,4,3,1,30,0,0
63770,-33.3333333333333,4,3,1,50,0,0
64238,-100,4,3,1,35,0,0
66113,-100,4,3,1,50,0,0
67520,-50,4,3,1,50,0,0
69395,-57.1428571428571,4,3,1,45,0,0
71270,-66.6666666666667,4,3,1,40,0,0
73145,-80,4,3,1,35,0,0
75020,-50,4,3,1,50,0,0
78770,-83.3333333333333,4,3,1,40,0,0
82520,-66.6666666666667,4,3,1,50,0,0
84395,-80,4,3,1,45,0,0
86270,-80,4,3,1,40,0,0
88145,-100,4,3,1,35,0,0
90020,-66.6666666666667,4,3,1,50,0,0
97520,-66.6666666666667,4,3,1,50,0,0
99395,-80,4,3,1,50,0,0
103145,-100,4,3,1,50,0,0
105020,-85.1063829787234,4,3,1,50,0,0
110645,-100,4,3,1,50,0,0
112520,-66.6666666666667,4,3,1,50,0,0
114395,-80,4,3,1,50,0,0
120020,-66.6666666666667,4,3,1,50,0,0
123770,-74.0740740740741,4,3,1,50,0,0
142520,-70.4225352112676,4,3,1,50,0,0
157520,-66.6666666666667,4,3,1,50,0,0
187520,-66.6666666666667,4,2,1,5,0,0
195020,-33.3333333333333,4,3,1,100,0,1
195488,-66.6666666666667,4,3,1,80,0,1
195957,-33.3333333333333,4,3,1,100,0,1
196425,-66.6666666666667,4,3,1,80,0,1
196895,-33.3333333333333,4,3,1,100,0,1
197363,-66.6666666666667,4,3,1,80,0,1
197832,-33.3333333333333,4,3,1,100,0,1
198300,-66.6666666666667,4,3,1,80,0,1
198770,-33.3333333333333,4,3,1,100,0,1
199238,-66.6666666666667,4,3,1,80,0,1
199707,-33.3333333333333,4,3,1,100,0,1
200175,-66.6666666666667,4,3,1,80,0,1
200645,-33.3333333333333,4,3,1,100,0,1
201113,-66.6666666666667,4,3,1,80,0,1
201582,-33.3333333333333,4,3,1,100,0,1
202050,-66.6666666666667,4,3,1,80,0,1
202520,-33.3333333333333,4,3,1,100,0,1
202988,-66.6666666666667,4,3,1,80,0,1
203457,-33.3333333333333,4,3,1,100,0,1
203925,-66.6666666666667,4,3,1,80,0,1
204395,-33.3333333333333,4,3,1,100,0,1
204863,-66.6666666666667,4,3,1,80,0,1
205332,-33.3333333333333,4,3,1,100,0,1
205800,-66.6666666666667,4,3,1,80,0,1
206270,-33.3333333333333,4,3,1,100,0,1
206738,-66.6666666666667,4,3,1,80,0,1
207207,-33.3333333333333,4,3,1,100,0,1
207675,-66.6666666666667,4,3,1,80,0,1
208145,-33.3333333333333,4,3,1,100,0,1
209551,-66.6666666666667,4,3,1,100,0,1
210020,-33.3333333333333,4,3,1,100,0,1
210488,-66.6666666666667,4,3,1,80,0,1
210957,-33.3333333333333,4,3,1,100,0,1
211425,-66.6666666666667,4,3,1,80,0,1
211895,-33.3333333333333,4,3,1,100,0,1
212363,-66.6666666666667,4,3,1,80,0,1
212832,-33.3333333333333,4,3,1,100,0,1
213300,-66.6666666666667,4,3,1,80,0,1
213770,-33.3333333333333,4,3,1,100,0,1
214238,-66.6666666666667,4,3,1,80,0,1
214707,-33.3333333333333,4,3,1,100,0,1
215175,-66.6666666666667,4,3,1,80,0,1
215645,-33.3333333333333,4,3,1,100,0,1
216113,-66.6666666666667,4,3,1,80,0,1
216582,-33.3333333333333,4,3,1,100,0,1
217050,-66.6666666666667,4,3,1,80,0,1
217520,-33.3333333333333,4,3,1,100,0,1
217988,-66.6666666666667,4,3,1,80,0,1
218457,-33.3333333333333,4,3,1,100,0,1
218925,-66.6666666666667,4,3,1,80,0,1
219395,-33.3333333333333,4,3,1,100,0,1
219863,-66.6666666666667,4,3,1,80,0,1
220332,-33.3333333333333,4,3,1,100,0,1
220800,-66.6666666666667,4,3,1,80,0,1
221270,-66.6666666666667,4,3,1,80,0,0
222441,-40,4,3,1,80,0,0
223145,-66.6666666666667,4,3,1,80,0,0
225020,-25,4,3,1,100,0,1
227363,-66.6666666666667,4,3,1,80,0,1
227832,-25,4,3,1,100,0,1
228301,-66.6666666666667,4,3,1,80,0,1
228770,-25,4,3,1,100,0,1
229238,-66.6666666666667,4,3,1,80,0,1
229707,-25,4,3,1,100,0,1
230176,-66.6666666666667,4,3,1,80,0,1
230645,-25,4,3,1,100,0,1
231113,-66.6666666666667,4,3,1,80,0,1
231582,-25,4,3,1,100,0,1
232051,-66.6666666666667,4,3,1,80,0,1
232520,-25,4,3,1,100,0,1
234863,-66.6666666666667,4,3,1,80,0,1
235332,-25,4,3,1,100,0,1
235801,-66.6666666666667,4,3,1,80,0,1
236270,-25,4,3,1,100,0,1
236738,-66.6666666666667,4,3,1,80,0,1
237207,-25,4,3,1,100,0,1
237676,-66.6666666666667,4,3,1,80,0,1
238145,-66.6666666666667,4,3,1,100,0,1
240020,-25,4,3,1,100,0,1
242363,-66.6666666666667,4,3,1,80,0,1
242832,-25,4,3,1,100,0,1
243301,-66.6666666666667,4,3,1,80,0,1
243770,-25,4,3,1,100,0,1
244238,-66.6666666666667,4,3,1,80,0,1
244707,-25,4,3,1,100,0,1
245176,-66.6666666666667,4,3,1,80,0,1
245645,-25,4,3,1,100,0,1
246113,-66.6666666666667,4,3,1,80,0,1
246582,-25,4,3,1,100,0,1
247051,-66.6666666666667,4,3,1,80,0,1
247520,-25,4,3,1,100,0,1
249863,-66.6666666666667,4,3,1,80,0,1
250332,-25,4,3,1,100,0,1
250801,-66.6666666666667,4,3,1,80,0,1
251270,-25,4,3,1,100,0,1
251738,-66.6666666666667,4,3,1,80,0,1
252207,-25,4,3,1,100,0,1
252676,-66.6666666666667,4,3,1,80,0,1
253145,-66.6666666666667,4,3,1,100,0,1
255020,-133.333333333333,4,3,1,20,0,0
285020,-133.333333333333,4,2,1,5,0,0

[Colours]
Combo1 : 0,255,200
Combo2 : 50,100,100
Combo3 : 50,50,100
Combo4 : 50,100,50
Combo5 : 100,50,100
Combo6 : 255,200,0
Combo7 : 200,0,255
Combo8 : 200,255,0
SliderBorder : 75,255,200
SliderTrackOverride : 35,35,75

[HitObjects]
235,191,7520,6,0,B|293:284|166:400|68:314|42:210|131:161|131:161|218:116|193:57|154:34|154:34|122:43|111:69,1,618.75002360344,0|0,0:0|2:0,0:0:0:0:
250,341,13145,2,0,P|296:273|294:190,1,168.750006437302,0|0,0:0|2:0,0:0:0:0:
125,44,15020,6,0,B|69:9|0:85|51:144|113:159|143:106|143:106|164:68|205:69|214:157|247:78|284:91,1,393.750015020371,0|0,0:0|2:0,0:0:0:0:
473,271,18770,2,0,B|383:358|277:347|243:139|413:119|457:209|390:244,1,393.750015020371,0|0,0:0|2:0,0:0:0:0:
156,212,22520,6,0,B|185:319|63:383|-71:300|-11:147|95:160|95:160|127:164|109:210|84:199|84:199|34:177|143:135|103:77,1,618.75002360344,0|0,0:0|2:0,0:0:0:0:
312,244,28145,2,0,P|232:223|190:152,1,168.750006437302,0|0,0:0|2:0,0:0:0:0:
304,0,30020,6,0,P|325:79|285:150,1,168.750006437302,0|0,0:0|2:0,0:0:0:0:
386,66,31895,2,0,P|345:137|367:216,1,168.750006437302,0|0,0:0|2:0,0:0:0:0:
512,368,33770,2,0,B|412:414|366:314|366:314|332:330|332:330|286:230|186:277,1,393.750015020371,0|0,0:0|2:0,0:0:0:0:
438,208,37520,6,0,B|371:183|314:226|314:226|298:217|280:213,1,168.750006437302,0|0,0:0|2:0,0:0:0:0:
82,322,37988,54,0,B|110:385|202:386|257:315|214:245|214:245|176:183|229:131|229:131|277:122|314:149|314:149|275:118|285:64,1,562.500021457673,0|0,0:0|2:0,0:0:0:0:
511,31,43145,2,0,P|501:113|443:172,1,168.750006437302,0|0,0:0|2:0,0:0:0:0:
122,76,45020,6,0,P|281:45|151:143,1,450,0|0,0:0|2:0,0:0:0:0:
366,194,46895,2,0,P|299:182|334:239,1,168.750006437302,0|0,0:0|2:0,0:0:0:0:
157,152,48770,6,0,P|483:296|195:85,1,1050,0|0,0:0|2:0,0:0:0:0:
426,285,52520,22,0,P|455:208|430:129,1,168.750006437302,0|0,0:0|2:0,0:0:0:0:
271,282,52988,102,0,B|314:300|364:285|400:247|398:191|398:191|280:69|284:277|162:182|162:182|151:111|216:65|276:88,1,637.500012159348,0|0,0:0|2:0,0:0:0:0:
361,330,58145,2,0,P|307:342|185:270,1,191.250003647804,0|0,0:0|2:0,0:0:0:0:
0,350,60020,70,0,P|190:283|116:96,1,450,0|0,0:0|2:0,0:0:0:0:
180,379,61895,2,0,P|240:305|255:211,1,191.250003647804,0|0,0:0|2:0,0:0:0:0:
2,78,63770,54,0,B|49:132|111:102|111:102|124:119|152:123,1,168.750006437302,0|0,0:0|2:0,0:0:0:0:
333,14,64238,70,0,P|342:190|462:60,1,450,0|0,0:0|2:0,0:0:0:0:
512,280,67520,6,0,B|280:219|325:428|93:368,1,450,0|0,0:0|2:0,0:0:0:0:
257,108,69395,2,0,P|253:284|77:274,1,393.750003755093,0|0,0:0|2:0,0:0:0:0:
167,23,71270,2,0,P|313:93|334:253,1,337.500012874604,0|0,0:0|2:0,0:0:0:0:
120,295,73145,2,0,B|264:256|236:387|381:349,1,281.25,0|0,0:0|2:0,0:0:0:0:
312,65,75020,6,0,P|55:309|353:117,1,1050,0|0,0:0|2:0,0:0:0:0:
85,217,78770,2,0,P|294:143|121:281,1,629.999980773926,0|0,0:0|2:0,0:0:0:0:
361,173,82520,70,0,P|266:45|102:58,1,337.500012874604,0|0,0:0|2:0,0:0:0:0:
294,295,84395,2,0,P|335:169|248:64,1,281.25,0|0,0:0|2:0,0:0:0:0:
145,324,86270,2,0,P|271:286|308:154,1,281.25,0|0,0:0|2:0,0:0:0:0:
50,56,88145,2,0,B|165:24|142:129|258:99,1,225,0|0,0:0|2:0,0:0:0:0:
73,188,90020,6,0,P|347:221|77:281,1,787.500030040742,0|0,0:0|2:0,0:0:0:0:
70,97,93770,2,0,P|344:129|74:189,1,787.500030040742,0|0,0:0|2:0,0:0:0:0:
347,2,97520,6,0,P|401:156|320:298,1,337.500012874604,0|0,0:0|2:0,0:0:0:0:
159,14,99395,2,0,P|90:132|135:261,1,281.25,0|0,0:0|2:0,0:0:0:0:
395,202,101270,2,0,P|369:68|251:0,1,281.25,0|0,0:0|2:0,0:0:0:0:
94,257,103145,2,0,P|58:154|112:59,1,225,0|0,0:0|2:0,0:0:0:0:
407,185,105020,6,0,P|176:272|257:39,1,616.874990587235,0|0,0:0|2:0,0:0:0:0:
466,175,108770,2,0,P|424:297|314:366,1,264.374995965958,0|0,0:0|2:0,0:0:0:0:
115,129,110645,2,0,P|225:131|307:204,1,225,0|0,0:0|2:0,0:0:0:0:
57,256,112520,70,0,B|228:204|200:362|372:311,1,337.500012874604,0|0,0:0|2:0,0:0:0:0:
390,2,114395,2,0,P|294:99|302:236,1,281.25,0|0,0:0|2:0,0:0:0:0:
76,124,116270,2,0,P|171:221|163:358,1,281.25,0|0,0:0|2:0,0:0:0:0:
21,58,118145,2,0,B|163:14|140:146|283:103,1,281.25,0|0,0:0|2:0,0:0:0:0:
497,28,120020,6,0,P|346:11|501:346,1,787.500030040742,0|0,0:0|2:0,0:0:0:0:
270,171,123770,2,0,P|527:139|315:288,1,708.750002703667,0|0,0:0|2:0,0:0:0:0:
30,61,127520,6,0,P|167:39|204:173,1,303.750001158714,0|0,0:0|2:0,0:0:0:0:
465,116,129395,2,0,P|327:94|290:228,1,303.750001158714,0|0,0:0|2:0,0:0:0:0:
512,340,131270,2,0,B|358:387|383:244|228:291,1,303.750001158714,0|0,0:0|2:0,0:0:0:0:
0,370,133145,2,0,P|140:347|157:206,1,303.750001158714,0|0,0:0|2:0,0:0:0:0:
30,0,135020,6,0,P|53:140|194:157,1,303.750001158714,0|0,0:0|2:0,0:0:0:0:
356,2,136895,2,0,B|309:156|452:131|405:286,1,303.750001158714,0|0,0:0|2:0,0:0:0:0:
125,259,138770,2,0,P|148:141|217:239,1,303.750001158714,0|0,0:0|2:0,0:0:0:0:
378,148,140645,2,0,P|354:30|285:128,1,303.750001158714,0|0,0:0|2:0,0:0:0:0:
512,273,142520,70,0,B|349:322|376:172|213:221,1,319.499983911897,0|0,0:0|2:0,0:0:0:0:
0,363,144395,2,0,P|138:307|133:157,1,319.499983911897,0|0,0:0|2:0,0:0:0:0:
0,52,146270,2,0,L|318:85,1,319.499983911897,0|0,0:0|2:0,0:0:0:0:
476,216,148145,2,0,B|313:265|340:115|177:164,1,319.499983911897,0|0,0:0|2:0,0:0:0:0:
11,282,150020,6,0,P|130:379|281:345,1,319.499983911897,0|0,0:0|2:0,0:0:0:0:
318,135,151895,2,0,P|198:37|47:71,1,319.499983911897,0|0,0:0|2:0,0:0:0:0:
129,260,153770,2,0,P|228:182|103:163,1,319.499983911897,0|0,0:0|2:0,0:0:0:0:
382,218,155645,2,0,P|282:140|407:121,1,319.499983911897,0|0,0:0|2:0,0:0:0:0:
439,314,157520,6,0,B|267:365|295:207|123:259,1,337.500012874604,0|0,0:0|2:0,0:0:0:0:
316,148,159395,2,0,B|144:96|172:254|0:202,1,337.500012874604,0|0,0:0|2:0,0:0:0:0:
179,25,161270,2,0,L|143:360,1,337.500012874604,0|0,0:0|2:0,0:0:0:0:
413,252,163145,2,0,P|268:191|171:315,1,337.500012874604,0|0,0:0|2:0,0:0:0:0:
468,349,165020,6,0,B|519:177|361:205|413:33,1,337.500012874604,0|0,0:0|2:0,0:0:0:0:
387,225,166895,2,0,P|225:234|129:103,1,337.500012874604,0|0,0:0|2:0,0:0:0:0:
374,66,168770,2,0,B|202:117|230:-41|58:11,1,337.500012874604,0|0,0:0|2:0,0:0:0:0:
0,199,170645,2,0,B|172:251|144:93|316:144,1,337.500012874604,0|0,0:0|2:0,0:0:0:0:
499,361,172520,70,0,P|336:350|248:213,1,337.500012874604,0|0,0:0|2:0,0:0:0:0:
512,248,174395,2,0,P|424:110|261:99,1,337.500012874604,0|0,0:0|2:0,0:0:0:0:
109,261,176270,2,0,B|281:209|253:367|425:316,1,337.500012874604,0|0,0:0|2:0,0:0:0:0:
335,123,178145,2,0,L|0:159,1,337.500012874604,0|0,0:0|2:0,0:0:0:0:
196,0,180020,6,0,P|175:132|89:29,1,337.500012874604,0|0,0:0|2:0,0:0:0:0:
346,214,181895,2,0,P|259:110|239:243,1,337.500012874604,0|0,0:0|2:0,0:0:0:0:
365,27,183770,6,0,P|122:262|455:204,1,900.000034332277,0|0,0:0|2:0,0:0:0:0:
256,192,191504,12,0,194082,0:0:0:0:
115,324,195020,22,0,P|166:341|263:275,1,168.750006437302,4|0,0:0|2:0,0:0:0:0:
266,266,195488,2,0,L|258:183,1,84.375003218651,2|0,0:0|2:0,0:0:0:0:
71,178,195957,2,0,P|122:195|219:129,1,168.750006437302,10|0,0:0|2:0,0:0:0:0:
222,120,196426,2,0,L|305:128,1,84.375003218651,2|0,0:0|2:0,0:0:0:0:
419,8,196895,6,0,P|367:29|335:74,1,112.500004291535,4|8,0:0|0:0,0:0:0:0:
211,41,197363,2,0,P|205:82|222:120,1,84.3750032186509,2|0,0:0|2:0,0:0:0:0:
411,124,197832,2,0,P|360:107|263:173,1,168.750006437302,10|0,0:0|2:0,0:0:0:0:
260,182,198301,2,0,L|177:174,1,84.375003218651,2|0,0:0|2:0,0:0:0:0:
72,354,198770,6,0,P|123:371|220:305,1,168.750006437302,6|0,0:0|2:0,0:0:0:0:
223,296,199238,2,0,L|215:213,1,84.375003218651,2|0,0:0|2:0,0:0:0:0:
431,309,199707,2,0,P|380:326|283:260,1,168.750006437302,10|0,0:0|2:0,0:0:0:0:
280,251,200175,2,0,L|288:168,1,84.375003218651,2|0,0:0|2:0,0:0:0:0:
487,56,200645,6,0,P|436:39|339:105,1,168.750006437302,4|0,0:0|2:0,0:0:0:0:
336,114,201114,2,0,L|253:106,1,84.375003218651,2|0,0:0|2:0,0:0:0:0:
53,117,201582,2,0,P|104:100|201:166,1,168.750006437302,10|0,0:0|2:0,0:0:0:0:
204,175,202051,2,0,L|287:167,1,84.375003218651,2|0,0:0|2:0,0:0:0:0:
365,352,202520,70,0,P|312:288|326:208,1,168.750006437302,4|0,0:0|2:0,0:0:0:0:
338,191,202988,2,0,P|372:216|387:255,1,84.3750032186509,2|0,0:0|2:0,0:0:0:0:
193,195,203457,2,0,P|221:117|298:89,1,168.750006437302,10|0,0:0|2:0,0:0:0:0:
318,92,203925,2,0,P|313:133|287:166,1,84.3750032186509,2|0,0:0|2:0,0:0:0:0:
74,54,204395,6,0,P|129:47|180:69,1,112.500004291535,4|8,0:0|0:0,0:0:0:0:
41,179,204863,2,0,P|73:153|115:147,1,84.3750032186509,2|0,0:0|2:0,0:0:0:0:
143,360,205332,2,0,P|126:309|192:212,1,168.750006437302,10|0,0:0|2:0,0:0:0:0:
201,209,205800,2,0,L|209:292,1,84.375003218651,2|0,0:0|2:0,0:0:0:0:
388,316,206270,6,0,P|405:265|339:168,1,168.750006437302,6|0,0:0|2:0,0:0:0:0:
330,165,206738,2,0,L|322:248,1,84.375003218651,2|0,0:0|2:0,0:0:0:0:
135,276,207207,2,0,P|118:225|184:128,1,168.750006437302,10|0,0:0|2:0,0:0:0:0:
193,125,207675,2,0,L|201:208,1,84.375003218651,2|0,0:0|2:0,0:0:0:0:
215,342,208145,5,4,0:0:0:0:
188,71,208379,1,8,0:0:0:0:
215,342,208613,1,6,0:0:0:0:
215,342,208848,1,4,0:0:0:0:
314,85,209082,1,10,0:0:0:0:
55,169,209316,1,0,0:0:0:0:
313,85,209551,2,0,P|282:112|242:124,1,84.3750032186509,10|0,0:0|2:0,0:0:0:0:
38,41,210020,70,0,P|89:24|186:90,1,168.750006437302,4|0,0:0|2:0,0:0:0:0:
189,99,210488,2,0,L|181:182,1,84.375003218651,2|0,0:0|2:0,0:0:0:0:
405,106,210957,2,0,P|354:89|257:155,1,168.750006437302,10|0,0:0|2:0,0:0:0:0:
254,164,211425,2,0,L|262:247,1,84.375003218651,2|0,0:0|2:0,0:0:0:0:
25,302,211895,6,0,P|58:258|110:237,1,112.500004291535,4|8,0:0|0:0,0:0:0:0:
84,118,212363,2,0,P|124:111|164:127,1,84.3750032186509,2|0,0:0|2:0,0:0:0:0:
355,236,212832,2,0,P|304:253|207:187,1,168.750006437302,10|0,0:0|2:0,0:0:0:0:
204,178,213300,2,0,L|287:170,1,84.375003218651,2|0,0:0|2:0,0:0:0:0:
447,50,213770,6,0,P|396:33|299:99,1,168.750006437302,6|0,0:0|2:0,0:0:0:0:
294,107,214238,2,0,L|211:115,1,84.375003218651,2|0,0:0|2:0,0:0:0:0:
297,325,214707,2,0,P|314:274|248:177,1,168.750006437302,10|0,0:0|2:0,0:0:0:0:
239,174,215175,2,0,L|156:182,1,84.375003218651,2|0,0:0|2:0,0:0:0:0:
0,83,215645,6,0,P|64:30|144:44,1,168.750006437302,4|0,0:0|2:0,0:0:0:0:
161,56,216113,2,0,P|136:90|97:105,1,84.3750032186509,2|0,0:0|2:0,0:0:0:0:
299,14,216582,2,0,P|312:95|260:158,1,168.750006437302,10|0,0:0|2:0,0:0:0:0:
241,166,217050,2,0,P|224:127|230:86,1,84.3750032186509,2|0,0:0|2:0,0:0:0:0:
297,260,217520,70,0,P|246:277|149:211,1,168.750006437302,4|0,0:0|2:0,0:0:0:0:
143,198,217988,2,0,L|151:281,1,84.375003218651,2|0,0:0|2:0,0:0:0:0:
190,102,218457,2,0,P|139:85|42:151,1,168.750006437302,10|0,0:0|2:0,0:0:0:0:
36,164,218925,2,0,L|44:81,1,84.375003218651,2|0,0:0|2:0,0:0:0:0:
174,284,219395,6,0,P|119:276|75:242,1,112.500004291535,4|8,0:0|0:0,0:0:0:0:
238,170,219863,2,0,P|200:186|158:181,1,84.3750032186509,2|0,0:0|2:0,0:0:0:0:
337,110,220332,2,0,P|357:189|310:256,1,168.750006437302,10|0,0:0|2:0,0:0:0:0:
292,265,220801,2,0,L|208:256,1,84.375003218651,6|0,0:0|2:0,0:0:0:0:
412,384,221270,38,0,P|494:314|486:206,1,225.000008583069,4|0,0:0|2:0,0:0:0:0:
243,161,222441,2,0,L|340:149,1,93.75,8|0,3:2|2:0,0:0:0:0:
136,176,222910,1,8,3:2:0:0:
440,136,223145,1,4,0:0:0:0:
440,136,223848,1,4,0:0:0:0:
136,176,224082,5,8,0:0:0:0:
136,176,224316,1,8,0:0:0:0:
136,176,224551,1,8,0:0:0:0:
440,136,224785,1,4,0:0:0:0:
70,80,225020,38,0,P|20:161|139:294,1,300,6|0,0:0|2:0,0:0:0:0:
229,37,225723,1,2,0:0:0:0:
295,331,225957,1,8,0:0:0:0:
136,178,226191,2,0,B|288:132|263:271|416:227,1,300,2|0,0:0|2:0,0:0:0:0:
414,0,226895,6,0,P|328:44|366:162,1,225,4|0,0:0|2:0,0:0:0:0:
372,167,227363,2,0,L|289:159,1,84.375003218651,2|0,0:0|2:0,0:0:0:0:
117,350,227832,2,0,P|211:300|211:192,1,225,10|0,0:0|2:0,0:0:0:0:
196,173,228301,2,0,L|113:181,1,84.375003218651,2|0,0:0|2:0,0:0:0:0:
0,56,228770,6,0,P|105:31|190:100,1,225,6|0,0:0|2:0,0:0:0:0:
197,122,229238,2,0,L|114:130,1,84.375003218651,2|0,0:0|2:0,0:0:0:0:
274,13,229707,2,0,P|342:97|317:203,1,225,10|0,0:0|2:0,0:0:0:0:
298,217,230176,2,0,L|215:225,1,84.375003218651,2|0,0:0|2:0,0:0:0:0:
445,373,230645,6,0,P|474:282|406:175,1,225,4|0,0:0|2:0,0:0:0:0:
389,168,231113,2,0,P|366:203|359:244,1,84.3750032186509,2|0,0:0|2:0,0:0:0:0:
467,59,231582,2,0,P|376:30|269:98,1,225,10|0,0:0|2:0,0:0:0:0:
262,114,232051,2,0,P|297:137|338:144,1,84.3750032186509,2|0,0:0|2:0,0:0:0:0:
116,14,232520,70,0,P|87:155|185:262,1,300,6|0,0:0|2:0,0:0:0:0:
455,65,233223,1,2,0:0:0:0:
210,123,233457,1,8,0:0:0:0:
376,292,233691,2,0,B|422:140|283:165|327:12,1,300,2|0,0:0|2:0,0:0:0:0:
281,233,234395,6,0,P|173:225|110:135,1,225,4|0,0:0|2:0,0:0:0:0:
106,114,234863,2,0,L|189:122,1,84.375003218651,2|0,0:0|2:0,0:0:0:0:
415,59,235332,2,0,P|306:66|243:156,1,225,10|0,0:0|2:0,0:0:0:0:
239,178,235801,2,0,L|322:170,1,84.375003218651,2|0,0:0|2:0,0:0:0:0:
414,276,236270,6,0,P|309:305|220:243,1,225,6|0,0:0|2:0,0:0:0:0:
207,224,236738,2,0,L|199:307,1,84.375003218651,2|0,0:0|2:0,0:0:0:0:
32,126,237207,2,0,P|136:96|225:158,1,225,10|0,0:0|2:0,0:0:0:0:
239,178,237676,2,0,L|247:95,1,84.375003218651,2|0,0:0|2:0,0:0:0:0:
405,319,238145,5,4,0:0:0:0:
352,22,238379,1,8,0:0:0:0:
405,319,238613,1,6,0:0:0:0:
405,319,238848,1,4,0:0:0:0:
177,91,239082,1,10,0:0:0:0:
492,141,239316,1,0,0:0:0:0:
176,91,239551,2,0,P|216:77|258:78,1,84.3750032186509,10|0,0:0|2:0,0:0:0:0:
396,226,240020,70,0,B|241:270|266:131|114:177,1,300,6|0,0:0|2:0,0:0:0:0:
346,349,240723,1,2,0:0:0:0:
197,52,240957,1,8,0:0:0:0:
163,324,241191,2,0,P|273:234|244:94,1,300,2|0,0:0|2:0,0:0:0:0:
0,135,241895,6,0,P|49:206|179:190,1,225,4|0,0:0|2:0,0:0:0:0:
189,174,242363,2,0,L|106:166,1,84.375003218651,2|0,0:0|2:0,0:0:0:0:
291,378,242832,2,0,P|362:329|346:199,1,225,10|0,0:0|2:0,0:0:0:0:
330,189,243301,2,0,L|247:181,1,84.375003218651,2|0,0:0|2:0,0:0:0:0:
7,177,243770,6,0,P|56:106|186:122,1,225,6|0,0:0|2:0,0:0:0:0:
196,138,244238,2,0,L|188:221,1,84.375003218651,2|0,0:0|2:0,0:0:0:0:
442,227,244707,2,0,P|393:156|263:172,1,225,10|0,0:0|2:0,0:0:0:0:
253,188,245176,2,0,L|261:271,1,84.375003218651,2|0,0:0|2:0,0:0:0:0:
11,271,245645,6,0,P|60:200|190:216,1,225,4|0,0:0|2:0,0:0:0:0:
199,231,246113,2,0,P|165:256|124:261,1,84.3750032186509,2|0,0:0|2:0,0:0:0:0:
124,33,246582,2,0,P|209:39|261:160,1,225,10|0,0:0|2:0,0:0:0:0:
252,175,247051,2,0,P|213:158|188:125,1,84.3750032186509,2|0,0:0|2:0,0:0:0:0:
399,151,247520,70,0,P|346:285|204:310,1,300,6|0,0:0|2:0,0:0:0:0:
111,10,248223,1,2,0:0:0:0:
157,275,248457,1,8,0:0:0:0:
341,107,248691,2,0,B|189:61|214:200|61:156,1,300,2|0,0:0|2:0,0:0:0:0:
283,194,249395,6,0,P|284:302|195:364,1,225,4|0,0:0|2:0,0:0:0:0:
172,361,249863,2,0,P|171:320|184:280,1,84.3750032186509,2|0,0:0|2:0,0:0:0:0:
350,149,250332,2,0,P|444:202|454:309,1,225,10|0,0:0|2:0,0:0:0:0:
440,328,250801,2,0,P|402:308|375:276,1,84.3750032186509,6|0,0:0|2:0,0:0:0:0:
344,35,251270,6,0,P|251:91|248:199,1,225,6|0,0:0|2:0,0:0:0:0:
261,219,251738,2,0,L|344:211,1,84.375003218651,2|0,0:0|2:0,0:0:0:0:
94,156,252207,2,0,P|186:212|189:320,1,225,10|0,0:0|2:0,0:0:0:0:
177,340,252676,2,0,L|94:332,1,84.375003218651,2|0,0:0|2:0,0:0:0:0:
353,356,253145,5,4,0:0:0:0:
32,326,253379,1,8,0:0:0:0:
353,356,253613,1,6,0:0:0:0:
353,356,253848,1,4,0:0:0:0:
192,55,254082,1,10,0:0:0:0:
232,378,254316,1,0,0:0:0:0:
192,55,254551,1,10,0:0:0:0:
192,55,254785,1,8,0:0:0:0:
473,270,255020,6,0,B|398:343|302:273|291:193|357:136|357:136|404:97|387:35|320:15|286:65|286:65|235:44|245:130|168:106,1,618.75002360344,4|0,0:0|0:0,0:0:0:0:
433,41,260645,2,0,P|440:123|390:189,1,168.750006437302
122,31,262520,6,0,B|217:26|239:149|157:181|157:181|130:158|121:125|121:125|112:152|93:172|93:172|72:160|47:170,1,393.750015020371
261,46,266270,2,0,B|292:123|249:191|249:191|275:160|321:163|321:163|336:218|266:282|216:239|216:239,1,393.750015020371
122,36,270020,6,0,B|173:207|15:180|66:351|66:351|145:321|146:240|146:240|170:310|252:312,1,618.75002360344
265,65,275645,2,0,P|228:139|236:222,1,168.750006437302
506,191,277520,6,0,P|431:153|348:161,1,168.750006437302
98,278,279395,2,0,P|172:240|255:248,1,168.750006437302
479,347,281270,2,0,P|373:225|423:378,1,450.000017166138
