osu file format v14

[General]
AudioFilename: audio.mp3
AudioLeadIn: 0
PreviewTime: 111194
Countdown: 0
SampleSet: Soft
StackLeniency: 0.4
Mode: 0
LetterboxInBreaks: 0
WidescreenStoryboard: 1

[Editor]
Bookmarks: 8058,24160,24584,31956,33990,47147,57995,109499,110685,133312,155431,177889,198990,219499,261363,262550,262804,284096,307295
DistanceSpacing: 0.8
BeatDivisor: 4
GridSize: 4
TimelineZoom: 1.7

[Metadata]
Title:Sad Machine
TitleUnicode:Sad Machine
Artist:Porter Robinson
ArtistUnicode:Porter Robinson
Creator:Maq
Version:remap
Source:
Tags:suicidesheep, marathon, worlds, divinity, porterrobinson, galaxy music, proximity
BeatmapID:1199426
BeatmapSetID:454172

[Difficulty]
HPDrainRate:6
CircleSize:3.8
OverallDifficulty:8
ApproachRate:9
SliderMultiplier:1.6
SliderTickRate:1

[Events]
//Background and Video events
0,0,"gray sad.jpg",0,0
//Break Periods
2,47347,56717
2,90737,100785
//Storyboard Layer 0 (Background)
//Storyboard Layer 1 (Fail)
//Storyboard Layer 2 (Pass)
//Storyboard Layer 3 (Foreground)
//Storyboard Sound Samples

[TimingPoints]
3758,338.983050847458,4,1,0,60,1,0
3758,-166.666666666667,4,2,0,60,0,0
14605,-142.857142857143,4,2,0,60,0,0
25452,-100,4,2,0,60,0,0
57317,-200,4,2,0,30,0,0
68842,-166.666666666667,4,2,0,30,0,0
101385,-200,4,2,0,30,0,0
109520,-117.647058823529,4,2,0,30,0,0
111554,-166.666666666667,4,2,0,30,0,0
112232,-100,4,2,0,30,0,0
152910,-111.111111111111,4,2,0,30,0,0
155622,-100,4,2,0,30,0,0

[Colours]
Combo1 : 128,128,255
Combo2 : 0,74,149
Combo3 : 154,222,248

[HitObjects]
264,284,3758,6,0,B|340:260|320:304|416:272,2,143.999995605469
260,280,5452,2,0,P|264:248|260:216,1,47.9999985351563
248,152,5791,1,0,0:0:0:0:
248,152,6130,2,0,P|224:155|200:155,1,47.9999985351563
148,92,6469,6,0,P|116:156|156:224,2,143.999995605469
148,92,8164,2,0,P|171:92|195:88,1,47.9999985351563
276,68,8503,1,0,0:0:0:0:
276,68,8842,2,0,L|280:124,1,47.9999985351563
303,194,9181,6,0,P|372:185|420:235,2,143.999995605469
303,194,10876,2,0,P|279:193|255:187,1,47.9999985351563
178,161,11215,1,0,0:0:0:0:
178,161,11554,2,0,P|177:184|181:208,1,47.9999985351563
173,290,11893,6,0,P|122:337|54:325,2,143.999995605469
173,290,13588,2,0,P|149:283|128:272,1,47.9999985351563
71,214,13927,1,0,0:0:0:0:
71,214,14266,2,0,P|94:207|115:196,1,47.9999985351563
252,108,14605,6,0,B|296:132|296:132|420:108,2,167.999994873047
244,272,15961,1,0,0:0:0:0:
432,296,16300,2,0,L|440:364,2,55.9999982910157
332,132,16978,2,0,L|340:200,1,55.9999982910157
260,88,17317,6,0,P|316:52|412:104,2,167.999994873047
228,224,18673,1,0,0:0:0:0:
100,172,19012,2,0,L|100:112,1,55.9999982910157
20,232,19351,1,0,0:0:0:0:
20,232,19690,2,0,L|20:288,1,55.9999982910157
128,348,20029,6,0,P|200:340|244:256,2,167.999994873047
148,256,21385,1,0,0:0:0:0:
244,262,21724,2,0,L|309:262,2,55.9999982910157
368,165,22402,2,0,L|312:165,1,55.9999982910157
214,100,22741,6,0,P|161:74|93:101,1,111.999996582031
51,147,23249,2,0,P|104:173|172:146,1,111.999996582031
235,192,23758,2,0,L|235:304,1,111.999996582031
260,304,24181,1,0,0:0:0:0:
285,304,24266,1,0,0:0:0:0:
310,304,24351,1,0,0:0:0:0:
335,304,24435,1,0,0:0:0:0:
427,155,24605,1,0,0:0:0:0:
402,155,24690,1,0,0:0:0:0:
377,155,24774,1,0,0:0:0:0:
192,223,24944,1,0,0:0:0:0:
273,68,25113,1,0,0:0:0:0:
335,304,25283,1,0,0:0:0:0:
149,312,25452,6,0,P|96:249|110:165,1,160
152,63,25961,1,0,0:0:0:0:
328,177,26130,2,0,P|265:230|181:216,1,160
240,138,26639,1,0,0:0:0:0:
289,334,26808,1,0,0:0:0:0:
289,334,27147,6,0,B|376:328,1,80
444,178,27486,2,0,P|440:101|380:52,1,160
322,232,27995,1,0,0:0:0:0:
198,136,28164,2,0,B|284:160|264:112|357:143,1,160
244,56,28673,1,0,0:0:0:0:
168,228,28842,2,0,P|112:184|112:92,1,160
198,136,29351,1,0,0:0:0:0:
64,260,29520,1,0,0:0:0:0:
64,260,29859,5,0,0:0:0:0:
232,324,30029,1,0,0:0:0:0:
88,268,30198,1,0,0:0:0:0:
88,268,30537,1,0,0:0:0:0:
256,332,30707,1,0,0:0:0:0:
64,260,30876,6,0,B|16:240|16:240|8:116,1,160
73,47,31385,1,0,0:0:0:0:
153,119,31554,2,0,P|83:153|8:132,1,160
153,119,32232,5,0,0:0:0:0:
153,119,32571,1,0,0:0:0:0:
288,40,32741,1,0,0:0:0:0:
288,192,32910,1,0,0:0:0:0:
288,192,33249,1,0,0:0:0:0:
196,32,33419,1,0,0:0:0:0:
208,240,33588,6,0,P|268:288|364:264,1,160
444,212,34096,1,0,0:0:0:0:
399,106,34266,2,0,P|334:116|291:222,1,160
287,191,34944,6,0,L|293:270,1,80
308,380,35283,1,0,0:0:0:0:
184,272,35452,1,0,0:0:0:0:
384,316,35622,1,0,0:0:0:0:
384,316,35961,1,0,0:0:0:0:
184,356,36130,1,0,0:0:0:0:
340,240,36300,6,0,P|396:228|476:312,1,160
296,364,36808,1,0,0:0:0:0:
232,276,36978,2,0,B|208:240|208:240|204:120,1,160
204,123,37656,5,0,0:0:0:0:
204,123,37995,1,0,0:0:0:0:
272,20,38164,1,0,0:0:0:0:
320,176,38334,1,0,0:0:0:0:
320,176,38673,1,0,0:0:0:0:
188,120,38842,1,0,0:0:0:0:
380,112,39012,6,0,P|408:172|368:252,1,160
288,332,39520,1,0,0:0:0:0:
203,253,39690,2,0,P|233:193|320:176,1,160
204,252,40368,5,0,0:0:0:0:
112,116,40707,1,0,0:0:0:0:
236,140,40876,1,0,0:0:0:0:
96,236,41046,1,0,0:0:0:0:
96,236,41385,1,0,0:0:0:0:
252,128,41554,1,0,0:0:0:0:
16,184,41724,6,0,P|4:256|60:328,1,160
160,376,42232,1,0,0:0:0:0:
239,283,42402,2,0,B|215:251|215:251|91:235,1,160
240,284,43080,5,0,0:0:0:0:
240,284,43419,1,0,0:0:0:0:
324,200,43588,1,0,0:0:0:0:
356,316,43758,1,0,0:0:0:0:
356,316,44096,1,0,0:0:0:0:
224,196,44266,1,0,0:0:0:0:
316,112,44435,6,0,P|384:132|412:220,1,160
224,196,44944,1,0,0:0:0:0:
224,196,45113,2,0,B|188:156|188:156|180:40,1,160
224,198,45791,6,0,L|231:282,1,80
368,200,46130,2,0,L|374:120,1,80
280,0,46469,1,0,0:0:0:0:
284,112,46639,1,0,0:0:0:0:
148,16,46808,1,0,0:0:0:0:
161,127,46978,1,0,0:0:0:0:
368,48,47147,5,0,0:0:0:0:
120,120,57317,6,0,P|168:124|212:120,1,80
248,44,57995,6,0,P|288:120|264:184,1,160
188,232,59012,2,0,P|264:272|328:248,1,160
408,192,60029,1,0,0:0:0:0:
408,192,60368,2,0,P|404:164|408:136,1,40
400,64,60707,6,0,P|360:60|320:68,1,80
248,116,61385,1,0,0:0:0:0:
208,200,61724,2,0,P|160:156|172:60,1,160
260,32,62741,2,0,P|300:32|344:28,1,80
444,0,63419,5,0,0:0:0:0:
464,108,63758,2,0,L|470:187,2,80
368,148,64774,2,0,L|368:228,1,80
272,188,65452,2,0,L|265:267,1,80
164,300,66130,6,0,P|96:280|76:200,1,160
84,108,67147,2,0,P|152:128|172:208,1,160
216,284,68164,2,0,P|252:288|296:284,1,80
392,256,68842,5,0,0:0:0:0:
384,212,69520,1,0,0:0:0:0:
376,168,70198,1,0,0:0:0:0:
292,100,70537,2,0,P|236:108|192:100,1,95.9999970703126
120,40,71215,1,0,0:0:0:0:
76,128,71554,6,0,P|69:175|77:222,1,95.9999970703126
132,288,72232,1,0,0:0:0:0:
292,280,72571,1,0,0:0:0:0:
288,364,72741,1,0,0:0:0:0:
368,340,72910,6,0,P|424:336|468:312,1,95.9999970703126
464,204,73588,2,0,P|420:184|372:182,1,95.9999970703126
292,208,74096,1,0,0:0:0:0:
232,148,74266,6,0,P|212:104|210:56,1,95.9999970703126
232,44,74944,1,0,0:0:0:0:
232,44,75622,1,0,0:0:0:0:
312,104,76300,6,0,P|310:151|290:195,1,95.9999970703126
216,236,76808,1,0,0:0:0:0:
132,232,76978,6,0,P|84:233|40:253,1,95.9999970703126
28,272,77656,1,0,0:0:0:0:
28,272,78334,1,0,0:0:0:0:
56,376,78673,1,0,0:0:0:0:
164,360,79012,2,0,P|212:360|260:352,1,95.9999970703126
344,312,79690,5,0,0:0:0:0:
336,272,80368,1,0,0:0:0:0:
328,232,81046,1,0,0:0:0:0:
224,184,81385,2,0,P|180:196|120:192,1,95.9999970703126
48,160,82063,1,0,0:0:0:0:
32,248,82402,6,0,P|30:295|42:342,1,95.9999970703126
124,384,83080,1,0,0:0:0:0:
240,352,83419,1,0,0:0:0:0:
264,272,83588,1,0,0:0:0:0:
328,328,83758,6,0,P|344:292|344:228,1,95.9999970703126
256,132,84435,2,0,P|211:149|164:149,1,95.9999970703126
92,104,84944,1,0,0:0:0:0:
52,180,85113,2,0,P|51:227|69:271,1,95.9999970703126
96,288,85791,1,0,0:0:0:0:
128,296,86469,5,0,0:0:0:0:
164,304,87147,2,0,P|180:268|180:204,1,95.9999970703126
104,176,87656,1,0,0:0:0:0:
160,112,87825,5,0,0:0:0:0:
196,104,88503,1,0,0:0:0:0:
232,96,89181,1,0,0:0:0:0:
328,136,89520,2,0,P|328:183|310:227,2,95.9999970703126
304,40,90537,5,0,0:0:0:0:
54,107,101385,6,0,P|78:106|102:107,1,40
161,218,101724,2,0,P|137:219|113:218,1,40
210,121,102063,2,0,P|229:120|249:120,1,40
313,236,102402,2,0,P|293:236|273:236,1,40
406,159,102741,6,0,P|425:159|445:158,1,40
337,69,103080,2,0,P|336:45|337:21,1,40
312,196,103419,2,0,P|313:220|312:244,1,40
231,108,103758,2,0,P|211:107|191:108,1,40
50,167,104096,6,0,P|49:186|50:206,1,40
120,324,104435,2,0,P|120:304|119:284,1,40
155,152,104774,2,0,P|154:171|155:191,1,40
232,316,105113,2,0,P|232:296|231:276,1,40
280,176,105452,6,0,P|300:175|320:175,1,40
464,208,105791,2,0,P|444:209|424:209,1,40
440,104,106130,2,0,P|439:84|439:64,1,40
352,4,106469,2,0,P|352:23|351:43,1,40
259,63,106808,6,0,P|239:62|219:63,1,40
120,142,107147,2,0,P|139:141|159:141,1,40
259,219,107486,2,0,P|239:218|219:219,1,40
120,300,107825,2,0,P|139:299|159:299,1,40
290,317,108164,6,0,P|290:336|290:356,1,40
389,273,108503,2,0,P|389:292|389:312,1,40
312,216,108842,2,0,P|311:196|311:176,1,40
411,172,109181,2,0,P|410:152|410:132,1,40
328,72,109520,6,0,L|331:28,3,34.0000006484985
220,112,109859,2,0,L|220:52,3,34.0000006484985
96,124,110198,1,0,0:0:0:0:
84,148,110282,1,0,0:0:0:0:
78,175,110367,1,0,0:0:0:0:
79,202,110452,1,0,0:0:0:0:
85,228,110536,1,0,0:0:0:0:
93,254,110621,1,0,0:0:0:0:
99,281,110706,1,0,0:0:0:0:
98,308,110791,1,0,0:0:0:0:
92,332,111554,6,0,B|128:344|128:344|192:328|192:328|252:344,1,143.999995605469
292,324,112232,6,0,P|324:260|292:172,1,160
220,248,112741,1,0,0:0:0:0:
292,324,112910,2,0,L|371:317,1,80
204,156,113249,2,0,P|144:192|132:272,1,120
112,272,113588,6,0,L|32:278,1,80
56,156,113927,1,0,0:0:0:0:
228,252,114096,1,0,0:0:0:0:
184,64,114266,1,0,0:0:0:0:
184,64,114605,1,0,0:0:0:0:
112,272,114774,1,0,0:0:0:0:
288,140,114944,6,0,B|360:108|368:168|444:128,1,160
344,252,115452,1,0,0:0:0:0:
191,142,115622,2,0,P|181:103|184:62,1,80
288,140,115961,2,0,P|248:220|188:244,1,120
168,236,116300,5,0,0:0:0:0:
160,248,116639,1,0,0:0:0:0:
96,376,116808,1,0,0:0:0:0:
272,332,116978,1,0,0:0:0:0:
280,328,117317,1,0,0:0:0:0:
104,372,117486,1,0,0:0:0:0:
276,236,117656,6,0,P|348:264|364:356,1,160
280,328,118164,1,0,0:0:0:0:
136,248,118334,2,0,L|142:168,1,80
240,64,118673,2,0,L|246:144,1,80
360,216,119012,5,0,0:0:0:0:
360,216,119351,1,0,0:0:0:0:
444,100,119520,1,0,0:0:0:0:
304,80,119690,1,0,0:0:0:0:
304,80,120029,1,0,0:0:0:0:
444,100,120198,1,0,0:0:0:0:
240,136,120368,6,0,P|216:88|264:0,1,160
368,136,120876,1,0,0:0:0:0:
273,236,121046,2,0,B|245:268|245:268|121:276,1,160
36,220,121554,1,0,0:0:0:0:
40,368,121724,5,0,0:0:0:0:
128,276,121893,1,0,0:0:0:0:
0,296,122063,1,0,0:0:0:0:
168,360,122232,1,0,0:0:0:0:
152,176,122402,1,0,0:0:0:0:
152,176,122741,1,0,0:0:0:0:
308,256,122910,1,0,0:0:0:0:
72,216,123080,6,0,P|68:144|144:88,1,160
276,152,123588,1,0,0:0:0:0:
231,305,123758,2,0,B|188:280|188:280|152:176,1,160
120,80,124266,1,0,0:0:0:0:
252,320,124435,5,0,0:0:0:0:
260,316,124774,1,0,0:0:0:0:
408,180,124944,1,0,0:0:0:0:
260,224,125113,1,0,0:0:0:0:
268,228,125452,1,0,0:0:0:0:
464,292,125622,1,0,0:0:0:0:
296,140,125791,6,0,P|224:144|176:216,1,160
180,324,126300,1,0,0:0:0:0:
64,240,126469,2,0,B|32:208|32:208|40:80,1,160
208,72,126978,1,0,0:0:0:0:
48,48,127147,5,0,0:0:0:0:
52,56,127486,1,0,0:0:0:0:
64,240,127656,1,0,0:0:0:0:
208,72,127825,1,0,0:0:0:0:
212,76,128164,1,0,0:0:0:0:
12,152,128334,1,0,0:0:0:0:
244,264,128503,6,0,B|292:280|292:280|412:216,1,160
236,172,129012,1,0,0:0:0:0:
236,172,129181,2,0,P|180:192|160:304,1,160
204,368,129690,1,0,0:0:0:0:
64,240,129859,5,0,0:0:0:0:
68,232,130198,1,0,0:0:0:0:
92,40,130368,1,0,0:0:0:0:
236,172,130537,1,0,0:0:0:0:
236,172,130876,1,0,0:0:0:0:
32,128,131046,1,0,0:0:0:0:
312,116,131215,6,0,P|324:200|272:256,1,160
192,288,131724,1,0,0:0:0:0:
168,100,131893,1,0,0:0:0:0:
168,100,132232,5,0,0:0:0:0:
86,145,132401,1,0,0:0:0:0:
70,237,132571,1,0,0:0:0:0:
268,92,132910,5,0,0:0:0:0:
268,92,133249,6,0,L|263:141,1,40
176,168,133419,2,0,L|181:208,1,40
268,244,133588,2,0,L|263:293,1,40
176,316,133758,2,0,L|181:356,1,40
360,356,133927,6,0,P|432:340|456:252,1,160
428,120,134435,1,0,0:0:0:0:
360,188,134605,2,0,L|367:275,1,80
268,244,134944,2,0,P|221:182|252:117,1,120
252,103,135283,5,0,0:0:0:0:
252,103,135622,1,0,0:0:0:0:
140,16,135791,1,0,0:0:0:0:
124,192,135961,1,0,0:0:0:0:
124,192,136300,1,0,0:0:0:0:
140,16,136470,1,0,0:0:0:0:
36,168,136639,6,0,P|40:240|140:280,1,160
256,236,137147,1,0,0:0:0:0:
234,86,137317,2,0,B|186:90|186:90|122:186,1,160
111,283,137825,1,0,0:0:0:0:
248,84,137995,5,0,0:0:0:0:
248,88,138334,1,0,0:0:0:0:
140,8,138503,1,0,0:0:0:0:
340,32,138673,1,0,0:0:0:0:
344,36,139012,1,0,0:0:0:0:
152,136,139181,1,0,0:0:0:0:
368,184,139351,6,0,P|329:250|252:259,1,160
256,96,139859,1,0,0:0:0:0:
152,244,140029,2,0,B|156:300|156:300|228:380,1,160
396,352,140537,1,0,0:0:0:0:
392,180,140707,6,0,L|388:92,1,80
296,0,141046,1,0,0:0:0:0:
248,216,141215,1,0,0:0:0:0:
176,72,141385,1,0,0:0:0:0:
176,72,141724,1,0,0:0:0:0:
392,180,141893,1,0,0:0:0:0:
148,164,142063,6,0,P|100:140|88:36,1,160
176,72,142571,1,0,0:0:0:0:
236,184,142741,2,0,P|212:232|108:244,1,160
16,192,143249,1,0,0:0:0:0:
20,304,143419,6,0,B|28:400,1,80
114,247,143758,1,0,0:0:0:0:
240,276,143927,1,0,0:0:0:0:
152,368,144096,1,0,0:0:0:0:
188,184,144266,1,0,0:0:0:0:
188,184,144351,1,0,0:0:0:0:
188,184,144435,1,0,0:0:0:0:
288,364,144605,1,0,0:0:0:0:
220,92,144774,6,0,P|124:108|88:180,1,160
316,132,145283,1,0,0:0:0:0:
316,132,145452,2,0,P|300:36|228:0,1,160
88,16,145961,1,0,0:0:0:0:
216,96,146130,5,0,0:0:0:0:
216,96,146469,1,0,0:0:0:0:
160,268,146639,1,0,0:0:0:0:
216,108,146808,1,0,0:0:0:0:
216,108,147147,1,0,0:0:0:0:
52,156,147317,1,0,0:0:0:0:
252,244,147486,6,0,P|252:304|172:360,1,160
22,321,147995,1,0,0:0:0:0:
22,321,148164,2,0,B|44:288|44:288|170:266,1,160
252,244,148673,1,0,0:0:0:0:
216,96,148842,5,0,0:0:0:0:
216,96,149181,1,0,0:0:0:0:
384,172,149351,1,0,0:0:0:0:
328,25,149520,1,0,0:0:0:0:
328,25,149859,1,0,0:0:0:0:
262,198,150029,1,0,0:0:0:0:
466,211,150198,6,0,P|468:139|404:85,1,160
262,198,150707,1,0,0:0:0:0:
317,302,150876,2,0,B|361:280|361:280|386:157,1,160
405,85,151385,1,0,0:0:0:0:
262,198,151554,5,0,0:0:0:0:
260,192,151893,1,0,0:0:0:0:
96,124,152063,1,0,0:0:0:0:
168,284,152232,1,0,0:0:0:0:
172,276,152571,1,0,0:0:0:0:
196,96,152741,1,0,0:0:0:0:
344,256,152910,6,0,P|420:252|488:256,1,143.999995605469
512,152,153419,1,0,0:0:0:0:
448,68,153588,2,0,P|376:64|304:68,1,143.999995605469
256,192,154266,5,0,0:0:0:0:
108,76,155622,6,0,P|64:168|168:248,1,240
204,328,156300,2,0,P|248:236|144:156,1,240
188,64,156978,6,0,B|228:20|228:20|408:28,1,240
476,96,157656,2,0,B|436:140|436:140|256:132,1,240
192,212,158334,6,0,B|216:296|180:368|180:368|236:308,1,240
304,244,159012,2,0,B|358:185|358:185|322:257|346:341,1,240
432,232,159690,6,0,P|444:164|300:124,1,240
236,72,160368,2,0,P|224:140|368:180,1,240
384,292,161046,6,0,B|344:336|344:336|164:328,1,240
72,248,161724,2,0,B|57:190|57:190|165:45,1,240
260,24,162402,6,0,P|384:40|400:136,1,240
452,216,163080,2,0,P|328:200|312:104,1,240
400,136,163758,6,0,L|376:376,1,240,0|0,2:0|2:0,2:0:0:0:
264,336,164435,2,0,L|240:96,1,240,0|0,2:0|2:0,2:0:0:0:
300,0,165113,5,0,0:0:0:0:
136,84,165283,2,0,L|148:252,1,160
152,336,165791,1,0,0:0:0:0:
56,80,165961,2,0,P|80:20|188:12,1,160
