osu file format v14

[General]
AudioFilename: audio.mp3
AudioLeadIn: 0
PreviewTime: 91499
Countdown: 0
SampleSet: Soft
StackLeniency: 0.4
Mode: 0
LetterboxInBreaks: 0
WidescreenStoryboard: 0

[Editor]
DistanceSpacing: 1.9
BeatDivisor: 4
GridSize: 32
TimelineZoom: 2

[Metadata]
Title:Sad Machine (Lexurus Remix)
TitleUnicode:Sad Machine (Lexurus Remix)
Artist:Porter Robinson
ArtistUnicode:Porter Robinson
Creator:JayBone
Version:Dependence
Source:
Tags:dnb drum and n & bass electronic dance edm english vocals vocal avanna vocaloid liquicity records worlds 【=◈︿◈=】
BeatmapID:2844869
BeatmapSetID:1376431

[Difficulty]
HPDrainRate:5.5
CircleSize:4.2
OverallDifficulty:8.3
ApproachRate:9
SliderMultiplier:1.5
SliderTickRate:0.5

[Events]
//Background and Video events
0,0,"sad machine remix.jpg",0,0
//Break Periods
//Storyboard Layer 0 (Background)
//Storyboard Layer 1 (Fail)
//Storyboard Layer 2 (Pass)
//Storyboard Layer 3 (Foreground)
//Storyboard Layer 4 (Overlay)
//Storyboard Sound Samples

[TimingPoints]
-236,344.827586206897,4,2,6,30,1,0
3901,-142.857142857143,4,2,1,60,0,0
5626,-142.857142857143,4,2,2,60,0,0
5798,-142.857142857143,4,2,3,60,0,0
5970,-142.857142857143,4,2,2,60,0,0
6315,-142.857142857143,4,2,3,60,0,0
6488,-142.857142857143,4,2,4,60,0,0
6660,-142.857142857143,4,2,1,60,0,0
8384,-142.857142857143,4,2,2,60,0,0
8557,-142.857142857143,4,2,3,60,0,0
8729,-142.857142857143,4,2,2,60,0,0
9074,-142.857142857143,4,2,3,60,0,0
9246,-142.857142857143,4,2,4,60,0,0
9419,-142.857142857143,4,2,1,60,0,0
11143,-142.857142857143,4,2,2,60,0,0
11315,-142.857142857143,4,2,3,60,0,0
11488,-142.857142857143,4,2,2,60,0,0
11832,-142.857142857143,4,2,3,60,0,0
12005,-142.857142857143,4,2,4,60,0,0
12177,-142.857142857143,4,2,1,60,0,0
13901,-142.857142857143,4,2,2,60,0,0
14074,-142.857142857143,4,2,5,60,0,0
14246,-142.857142857143,4,2,3,60,0,0
14764,-142.857142857143,4,2,4,60,0,0
14936,-142.857142857143,4,2,1,60,0,0
16660,-142.857142857143,4,2,2,60,0,0
16832,-142.857142857143,4,2,3,60,0,0
17005,-142.857142857143,4,2,2,60,0,0
17350,-142.857142857143,4,2,3,60,0,0
17522,-142.857142857143,4,2,4,60,0,0
17695,-142.857142857143,4,2,1,60,0,0
19419,-142.857142857143,4,2,2,60,0,0
19591,-142.857142857143,4,2,3,60,0,0
19764,-142.857142857143,4,2,2,60,0,0
20108,-142.857142857143,4,2,3,60,0,0
20281,-142.857142857143,4,2,4,60,0,0
20453,-142.857142857143,4,2,1,60,0,0
22177,-142.857142857143,4,2,2,60,0,0
22350,-142.857142857143,4,2,3,60,0,0
22522,-142.857142857143,4,2,2,60,0,0
22867,-142.857142857143,4,2,3,60,0,0
23039,-142.857142857143,4,2,4,60,0,0
23212,-142.857142857143,4,2,1,60,0,0
24936,-142.857142857143,4,2,2,60,0,0
25108,-142.857142857143,4,2,5,60,0,0
25281,-142.857142857143,4,2,3,60,0,0
25798,-142.857142857143,4,2,4,60,0,0
25970,-166.666666666667,4,2,6,40,0,0
28667,344.827586206897,4,2,6,40,1,0
28667,-166.666666666667,4,2,6,40,0,0
31487,344.827586206897,4,2,6,40,1,0
31487,-166.666666666667,4,2,6,40,0,0
45969,-166.666666666667,4,2,6,30,0,0
46314,-166.666666666667,4,2,6,20,0,0
47004,-166.666666666667,4,2,6,20,0,0
47349,-166.666666666667,4,2,6,30,0,0
47693,-166.666666666667,4,2,6,40,0,0
48038,-142.857142857143,4,2,6,50,0,0
70107,-166.666666666667,4,2,6,50,0,0
81142,-100,4,2,7,60,0,0
86659,-90.9090909090909,4,2,7,70,0,0
89418,-90.9090909090909,4,2,7,75,0,0
92176,-83.3333333333333,4,2,1,85,0,1
93900,-83.3333333333333,4,2,2,85,0,1
94073,-83.3333333333333,4,2,3,85,0,1
94245,-83.3333333333333,4,2,2,85,0,1
94590,-83.3333333333333,4,2,3,85,0,1
94762,-83.3333333333333,4,2,4,85,0,1
94935,-83.3333333333333,4,2,1,85,0,1
96659,-83.3333333333333,4,2,2,85,0,1
96831,-83.3333333333333,4,2,3,85,0,1
97004,-83.3333333333333,4,2,2,85,0,1
97349,-83.3333333333333,4,2,3,85,0,1
97521,-83.3333333333333,4,2,4,85,0,1
97693,-83.3333333333333,4,2,1,85,0,1
99418,-83.3333333333333,4,2,2,85,0,1
99590,-83.3333333333333,4,2,3,85,0,1
99762,-83.3333333333333,4,2,2,85,0,1
100107,-83.3333333333333,4,2,3,85,0,1
100280,-83.3333333333333,4,2,4,85,0,1
100452,-83.3333333333333,4,2,1,85,0,1
102176,-83.3333333333333,4,2,2,85,0,1
102349,-83.3333333333333,4,2,5,85,0,1
102521,-83.3333333333333,4,2,3,85,0,1
103038,-83.3333333333333,4,2,4,85,0,1
103124,-83.3333333333333,4,2,1,85,0,0
103211,-83.3333333333333,4,2,1,85,0,1
104935,-83.3333333333333,4,2,2,85,0,1
105107,-83.3333333333333,4,2,3,85,0,1
105280,-83.3333333333333,4,2,2,85,0,1
105624,-83.3333333333333,4,2,3,85,0,1
105797,-83.3333333333333,4,2,4,85,0,1
105969,-83.3333333333333,4,2,1,85,0,1
107693,-83.3333333333333,4,2,2,85,0,1
107866,-83.3333333333333,4,2,3,85,0,1
108038,-83.3333333333333,4,2,2,85,0,1
108383,-83.3333333333333,4,2,3,85,0,1
108555,-83.3333333333333,4,2,4,85,0,1
108728,-83.3333333333333,4,2,1,85,0,1
110452,-83.3333333333333,4,2,2,85,0,1
110624,-83.3333333333333,4,2,3,85,0,1
110797,-83.3333333333333,4,2,2,85,0,1
111142,-83.3333333333333,4,2,3,85,0,1
111314,-83.3333333333333,4,2,4,85,0,1
111487,-83.3333333333333,4,2,1,85,0,1
113211,-83.3333333333333,4,2,2,85,0,1
113383,-83.3333333333333,4,2,5,85,0,1
113555,-66.6666666666667,4,2,7,85,0,0
114245,-83.3333333333333,4,2,1,85,0,1
115969,-83.3333333333333,4,2,2,85,0,1
116142,-83.3333333333333,4,2,3,85,0,1
116314,-83.3333333333333,4,2,2,85,0,1
116659,-83.3333333333333,4,2,3,85,0,1
116831,-83.3333333333333,4,2,4,85,0,1
117004,-83.3333333333333,4,2,1,85,0,1
118728,-83.3333333333333,4,2,2,85,0,1
118900,-83.3333333333333,4,2,3,85,0,1
119073,-83.3333333333333,4,2,2,85,0,1
119418,-83.3333333333333,4,2,3,85,0,1
119590,-83.3333333333333,4,2,4,85,0,1
119762,-83.3333333333333,4,2,1,85,0,1
121487,-83.3333333333333,4,2,2,85,0,1
121659,-83.3333333333333,4,2,3,85,0,1
121831,-83.3333333333333,4,2,2,85,0,1
122176,-83.3333333333333,4,2,3,85,0,1
122349,-83.3333333333333,4,2,4,85,0,1
122521,-83.3333333333333,4,2,1,85,0,1
124245,-83.3333333333333,4,2,2,85,0,1
124418,-83.3333333333333,4,2,5,85,0,1
124590,-83.3333333333333,4,2,3,85,0,1
125107,-83.3333333333333,4,2,4,85,0,1
125193,-83.3333333333333,4,2,1,85,0,0
125280,-83.3333333333333,4,2,1,85,0,1
127004,-83.3333333333333,4,2,2,85,0,1
127176,-83.3333333333333,4,2,3,85,0,1
127349,-83.3333333333333,4,2,2,85,0,1
127693,-83.3333333333333,4,2,3,85,0,1
127866,-83.3333333333333,4,2,4,85,0,1
128038,-83.3333333333333,4,2,1,85,0,1
129762,-83.3333333333333,4,2,2,85,0,1
129935,-83.3333333333333,4,2,3,85,0,1
130107,-83.3333333333333,4,2,2,85,0,1
130452,-83.3333333333333,4,2,3,85,0,1
130624,-83.3333333333333,4,2,4,85,0,1
130797,-83.3333333333333,4,2,1,85,0,1
132521,-83.3333333333333,4,2,2,85,0,1
132693,-83.3333333333333,4,2,3,85,0,1
132866,-83.3333333333333,4,2,2,85,0,1
133211,-83.3333333333333,4,2,3,85,0,1
133383,-83.3333333333333,4,2,4,85,0,1
133555,-83.3333333333333,4,2,1,85,0,1
135280,-83.3333333333333,4,2,2,85,0,1
135452,-83.3333333333333,4,2,5,85,0,1
135624,-83.3333333333333,4,2,3,85,0,1
136142,-83.3333333333333,4,2,4,85,0,1
136228,-83.3333333333333,4,2,1,85,0,0
136314,-83.3333333333333,4,2,1,85,0,1
138038,-83.3333333333333,4,2,2,85,0,1
138211,-83.3333333333333,4,2,3,85,0,1
138383,-83.3333333333333,4,2,2,85,0,1
138728,-83.3333333333333,4,2,3,85,0,1
138900,-83.3333333333333,4,2,4,85,0,1
139073,-83.3333333333333,4,2,1,85,0,1
140797,-83.3333333333333,4,2,2,85,0,1
140969,-83.3333333333333,4,2,3,85,0,1
141142,-83.3333333333333,4,2,2,85,0,1
141487,-83.3333333333333,4,2,3,85,0,1
141659,-83.3333333333333,4,2,4,85,0,1
141831,-83.3333333333333,4,2,1,85,0,1
143555,-83.3333333333333,4,2,2,85,0,1
143728,-83.3333333333333,4,2,3,85,0,1
143900,-83.3333333333333,4,2,2,85,0,1
144245,-83.3333333333333,4,2,3,85,0,1
144418,-83.3333333333333,4,2,4,85,0,1
144590,-83.3333333333333,4,2,1,85,0,1
146314,-83.3333333333333,4,2,2,85,0,1
146487,-83.3333333333333,4,2,5,85,0,1
146659,-83.3333333333333,4,2,3,85,0,1
147176,-83.3333333333333,4,2,4,85,0,1
147262,-83.3333333333333,4,2,1,85,0,0
147349,-83.3333333333333,4,2,1,85,0,1
149073,-83.3333333333333,4,2,2,85,0,1
149245,-83.3333333333333,4,2,3,85,0,1
149418,-83.3333333333333,4,2,2,85,0,1
149762,-83.3333333333333,4,2,3,85,0,1
149935,-83.3333333333333,4,2,4,85,0,1
150107,-83.3333333333333,4,2,1,85,0,1
151831,-83.3333333333333,4,2,2,85,0,1
152004,-83.3333333333333,4,2,3,85,0,1
152176,-83.3333333333333,4,2,2,85,0,1
152521,-83.3333333333333,4,2,3,85,0,1
152693,-83.3333333333333,4,2,4,85,0,1
152866,-83.3333333333333,4,2,1,85,0,1
154590,-83.3333333333333,4,2,2,85,0,1
154762,-83.3333333333333,4,2,3,85,0,1
154935,-83.3333333333333,4,2,2,85,0,1
155280,-83.3333333333333,4,2,3,85,0,1
155452,-83.3333333333333,4,2,4,85,0,1
155624,-83.3333333333333,4,2,1,85,0,1
157004,-166.666666666667,4,2,1,60,0,0
157349,-166.666666666667,4,2,2,55,0,0
157521,-166.666666666667,4,2,5,55,0,0
157693,-166.666666666667,4,2,3,55,0,0
158038,-166.666666666667,4,2,3,45,0,0
158211,-166.666666666667,4,2,4,45,0,0
158383,-166.666666666667,4,2,1,40,0,0
158728,-166.666666666667,4,2,1,30,0,0
160107,-166.666666666667,4,2,2,30,0,0
160280,-166.666666666667,4,2,3,30,0,0
160452,-166.666666666667,4,2,2,30,0,0
160797,-166.666666666667,4,2,3,30,0,0
160969,-166.666666666667,4,2,4,30,0,0
161142,-166.666666666667,4,2,10,45,0,0
161831,-166.666666666667,4,2,11,45,0,0
162521,-166.666666666667,4,2,12,45,0,0
163211,-166.666666666667,4,2,10,45,0,0
163900,-166.666666666667,4,2,1,30,0,0
164935,-166.666666666667,4,2,13,45,0,0
165624,-166.666666666667,4,2,2,30,0,0
165797,-166.666666666667,4,2,3,30,0,0
165969,-166.666666666667,4,2,2,30,0,0
166314,-166.666666666667,4,2,14,45,0,0
166487,-166.666666666667,4,2,4,45,0,0
166659,-166.666666666667,4,2,1,30,0,0
168383,-166.666666666667,4,2,2,30,0,0
168555,-166.666666666667,4,2,5,30,0,0
168728,-166.666666666667,4,2,3,30,0,0
169245,-166.666666666667,4,2,4,30,0,0
169418,-166.666666666667,4,2,1,30,0,0
171142,-166.666666666667,4,2,2,45,0,0
171487,-166.666666666667,4,2,15,50,0,0
171831,-166.666666666667,4,2,16,50,0,0
172176,-166.666666666667,4,2,17,50,0,0
172521,-166.666666666667,4,2,16,50,0,0
172866,-166.666666666667,4,2,15,50,0,0
173211,-166.666666666667,4,2,18,50,0,0
174245,-166.666666666667,4,2,19,50,0,0
174590,-166.666666666667,4,2,18,50,0,0
175624,-166.666666666667,4,2,16,50,0,0
176142,-166.666666666667,4,2,15,50,0,0
177004,-166.666666666667,4,2,19,50,0,0
177349,-166.666666666667,4,2,18,50,0,0
178383,-166.666666666667,4,2,16,50,0,0
178900,-166.666666666667,4,2,15,50,0,0
179245,-166.666666666667,4,2,15,35,0,0
179418,-166.666666666667,4,2,6,20,0,0
179762,-166.666666666667,4,2,6,30,0,0
180107,-166.666666666667,4,2,6,40,0,0
180452,-142.857142857143,4,2,6,60,0,0
202521,-125,4,2,1,60,0,0
204245,-125,4,2,2,60,0,0
204418,-125,4,2,3,60,0,0
204590,-125,4,2,2,60,0,0
204935,-125,4,2,3,60,0,0
205107,-125,4,2,4,60,0,0
205280,-125,4,2,1,60,0,0
207004,-125,4,2,2,60,0,0
207176,-125,4,2,3,60,0,0
207349,-125,4,2,2,60,0,0
207693,-125,4,2,3,60,0,0
207866,-125,4,2,4,60,0,0
208038,-125,4,2,1,60,0,0
209762,-125,4,2,2,60,0,0
209935,-125,4,2,3,60,0,0
210107,-125,4,2,2,60,0,0
210452,-125,4,2,3,60,0,0
210624,-125,4,2,4,60,0,0
210797,-125,4,2,1,60,0,0
212521,-125,4,2,2,60,0,0
212693,-125,4,2,5,60,0,0
212866,-125,4,2,3,60,0,0
213383,-125,4,2,4,60,0,0
213555,-100,4,2,1,60,0,0
215280,-100,4,2,2,60,0,0
215452,-100,4,2,3,60,0,0
215624,-100,4,2,2,60,0,0
215969,-100,4,2,3,60,0,0
216142,-100,4,2,4,60,0,0
216314,-100,4,2,1,60,0,0
218038,-100,4,2,2,60,0,0
218211,-100,4,2,3,60,0,0
218383,-100,4,2,2,60,0,0
218728,-100,4,2,3,60,0,0
218900,-100,4,2,4,60,0,0
219073,-90.9090909090909,4,2,1,70,0,0
221142,-90.9090909090909,4,2,7,70,0,0
221831,-90.9090909090909,4,2,7,75,0,0
224590,-83.3333333333333,4,2,1,85,0,1
226314,-83.3333333333333,4,2,2,85,0,1
226487,-83.3333333333333,4,2,3,85,0,1
226659,-83.3333333333333,4,2,2,85,0,1
227004,-83.3333333333333,4,2,3,85,0,1
227176,-83.3333333333333,4,2,4,85,0,1
227349,-83.3333333333333,4,2,1,85,0,1
229073,-83.3333333333333,4,2,2,85,0,1
229245,-83.3333333333333,4,2,3,85,0,1
229418,-83.3333333333333,4,2,2,85,0,1
229762,-83.3333333333333,4,2,3,85,0,1
229935,-83.3333333333333,4,2,4,85,0,1
230107,-83.3333333333333,4,2,1,85,0,1
231831,-83.3333333333333,4,2,2,85,0,1
232004,-83.3333333333333,4,2,3,85,0,1
232176,-83.3333333333333,4,2,2,85,0,1
232521,-83.3333333333333,4,2,3,85,0,1
232693,-83.3333333333333,4,2,4,85,0,1
232866,-83.3333333333333,4,2,1,85,0,1
234590,-83.3333333333333,4,2,2,85,0,1
234762,-83.3333333333333,4,2,5,85,0,1
234935,-83.3333333333333,4,2,3,85,0,1
235452,-83.3333333333333,4,2,4,85,0,1
235538,-83.3333333333333,4,2,1,85,0,0
235624,-83.3333333333333,4,2,1,85,0,1
237349,-83.3333333333333,4,2,2,85,0,1
237521,-83.3333333333333,4,2,3,85,0,1
237693,-83.3333333333333,4,2,2,85,0,1
238038,-83.3333333333333,4,2,3,85,0,1
238211,-83.3333333333333,4,2,4,85,0,1
238383,-83.3333333333333,4,2,1,85,0,1
240107,-83.3333333333333,4,2,2,85,0,1
240280,-83.3333333333333,4,2,3,85,0,1
240452,-83.3333333333333,4,2,2,85,0,1
240797,-83.3333333333333,4,2,3,85,0,1
240969,-83.3333333333333,4,2,4,85,0,1
241142,-83.3333333333333,4,2,1,85,0,1
242866,-83.3333333333333,4,2,2,85,0,1
243038,-83.3333333333333,4,2,3,85,0,1
243211,-83.3333333333333,4,2,2,85,0,1
243555,-83.3333333333333,4,2,3,85,0,1
243728,-83.3333333333333,4,2,4,85,0,1
243900,-83.3333333333333,4,2,1,85,0,1
245624,-83.3333333333333,4,2,2,85,0,1
245797,-83.3333333333333,4,2,5,85,0,1
245969,-66.6666666666667,4,2,7,85,0,0
246659,-83.3333333333333,4,2,1,85,0,1
248383,-83.3333333333333,4,2,2,85,0,1
248555,-83.3333333333333,4,2,3,85,0,1
248728,-83.3333333333333,4,2,2,85,0,1
249073,-83.3333333333333,4,2,3,85,0,1
249245,-83.3333333333333,4,2,4,85,0,1
249418,-83.3333333333333,4,2,1,85,0,1
251142,-83.3333333333333,4,2,2,85,0,1
251314,-83.3333333333333,4,2,3,85,0,1
251487,-83.3333333333333,4,2,2,85,0,1
251831,-83.3333333333333,4,2,3,85,0,1
252004,-83.3333333333333,4,2,4,85,0,1
252176,-83.3333333333333,4,2,1,85,0,1
253900,-83.3333333333333,4,2,2,85,0,1
254073,-83.3333333333333,4,2,3,85,0,1
254245,-83.3333333333333,4,2,2,85,0,1
254590,-83.3333333333333,4,2,3,85,0,1
254762,-83.3333333333333,4,2,4,85,0,1
254935,-83.3333333333333,4,2,1,85,0,1
256659,-83.3333333333333,4,2,2,85,0,1
256831,-83.3333333333333,4,2,5,85,0,1
257004,-83.3333333333333,4,2,3,85,0,1
257521,-83.3333333333333,4,2,4,85,0,1
257607,-83.3333333333333,4,2,1,85,0,0
257693,-83.3333333333333,4,2,1,85,0,1
259418,-83.3333333333333,4,2,2,85,0,1
259590,-83.3333333333333,4,2,3,85,0,1
259762,-83.3333333333333,4,2,2,85,0,1
260107,-83.3333333333333,4,2,3,85,0,1
260280,-83.3333333333333,4,2,4,85,0,1
260452,-83.3333333333333,4,2,1,85,0,1
262176,-83.3333333333333,4,2,2,85,0,1
262349,-83.3333333333333,4,2,3,85,0,1
262521,-83.3333333333333,4,2,2,85,0,1
262866,-83.3333333333333,4,2,3,85,0,1
263038,-83.3333333333333,4,2,4,85,0,1
263211,-83.3333333333333,4,2,1,85,0,1
264935,-83.3333333333333,4,2,2,85,0,1
265107,-83.3333333333333,4,2,3,85,0,1
265280,-83.3333333333333,4,2,2,85,0,1
265624,-83.3333333333333,4,2,3,85,0,1
265797,-83.3333333333333,4,2,4,85,0,1
265969,-83.3333333333333,4,2,1,85,0,1
267693,-83.3333333333333,4,2,2,85,0,1
267866,-83.3333333333333,4,2,5,85,0,1
268038,-83.3333333333333,4,2,3,85,0,1
268555,-83.3333333333333,4,2,4,85,0,1
268642,-83.3333333333333,4,2,1,85,0,0
268728,-83.3333333333333,4,2,1,85,0,1
270452,-83.3333333333333,4,2,2,85,0,1
270624,-83.3333333333333,4,2,3,85,0,1
270797,-83.3333333333333,4,2,2,85,0,1
271142,-83.3333333333333,4,2,3,85,0,1
271314,-83.3333333333333,4,2,4,85,0,1
271487,-83.3333333333333,4,2,1,85,0,1
273211,-83.3333333333333,4,2,2,85,0,1
273383,-83.3333333333333,4,2,3,85,0,1
273555,-83.3333333333333,4,2,2,85,0,1
273900,-83.3333333333333,4,2,3,85,0,1
274073,-83.3333333333333,4,2,4,85,0,1
274245,-83.3333333333333,4,2,1,85,0,1
275969,-83.3333333333333,4,2,2,85,0,1
276142,-83.3333333333333,4,2,3,85,0,1
276314,-83.3333333333333,4,2,2,85,0,1
276659,-83.3333333333333,4,2,3,85,0,1
276831,-83.3333333333333,4,2,4,85,0,1
277004,-83.3333333333333,4,2,1,85,0,1
278728,-83.3333333333333,4,2,2,85,0,1
278900,-83.3333333333333,4,2,5,85,0,1
279073,-83.3333333333333,4,2,3,85,0,1
279590,-83.3333333333333,4,2,4,85,0,1
279676,-83.3333333333333,4,2,1,85,0,0
279762,-83.3333333333333,4,2,1,85,0,1
281487,-83.3333333333333,4,2,2,85,0,1
281659,-83.3333333333333,4,2,3,85,0,1
281831,-83.3333333333333,4,2,2,85,0,1
282176,-83.3333333333333,4,2,3,85,0,1
282349,-83.3333333333333,4,2,4,85,0,1
282521,-83.3333333333333,4,2,1,85,0,1
284245,-83.3333333333333,4,2,2,85,0,1
284418,-83.3333333333333,4,2,3,85,0,1
284590,-83.3333333333333,4,2,2,85,0,1
284935,-83.3333333333333,4,2,3,85,0,1
285107,-83.3333333333333,4,2,4,85,0,1
285280,-83.3333333333333,4,2,1,85,0,1
287004,-83.3333333333333,4,2,2,85,0,1
287176,-83.3333333333333,4,2,3,85,0,1
287349,-83.3333333333333,4,2,2,85,0,1
287693,-83.3333333333333,4,2,3,85,0,1
287866,-83.3333333333333,4,2,4,85,0,1
288038,-166.666666666667,4,2,1,60,0,0
288555,-166.666666666667,4,2,1,55,0,0
289073,-166.666666666667,4,2,1,50,0,0
289762,-166.666666666667,4,2,2,45,0,0
289935,-166.666666666667,4,2,5,45,0,0
290107,-166.666666666667,4,2,3,45,0,0
290624,-166.666666666667,4,2,4,45,0,0
290797,-166.666666666667,4,2,1,40,0,0
292521,-166.666666666667,4,2,2,40,0,0
292693,-166.666666666667,4,2,3,40,0,0
292866,-166.666666666667,4,2,2,40,0,0
293211,-166.666666666667,4,2,3,40,0,0
293383,-166.666666666667,4,2,4,40,0,0
293555,-166.666666666667,4,2,1,40,0,0
295280,-166.666666666667,4,2,2,40,0,0
295452,-166.666666666667,4,2,3,40,0,0
295624,-166.666666666667,4,2,2,40,0,0
295969,-166.666666666667,4,2,3,40,0,0
296142,-166.666666666667,4,2,4,40,0,0
296314,-166.666666666667,4,2,1,40,0,0
298038,-166.666666666667,4,2,2,40,0,0
298211,-166.666666666667,4,2,3,40,0,0
298383,-166.666666666667,4,2,2,40,0,0
298728,-166.666666666667,4,2,3,40,0,0
298900,-166.666666666667,4,2,4,40,0,0
299073,-166.666666666667,4,2,1,40,0,0
300797,-166.666666666667,4,2,2,40,0,0
300969,-166.666666666667,4,2,5,40,0,0
301142,-166.666666666667,4,2,3,40,0,0
301659,-166.666666666667,4,2,4,40,0,0
301831,-166.666666666667,4,2,1,40,0,0
303555,-166.666666666667,4,2,2,40,0,0
303728,-166.666666666667,4,2,3,40,0,0
303900,-166.666666666667,4,2,2,40,0,0
304245,-166.666666666667,4,2,3,40,0,0
304418,-166.666666666667,4,2,4,40,0,0
304590,-166.666666666667,4,2,10,50,0,0
305280,-166.666666666667,4,2,11,50,0,0
305969,-166.666666666667,4,2,12,50,0,0
306659,-166.666666666667,4,2,10,50,0,0
307349,-166.666666666667,4,2,1,40,0,0
308383,-166.666666666667,4,2,13,50,0,0
309073,-166.666666666667,4,2,2,40,0,0
309245,-166.666666666667,4,2,3,40,0,0
309418,-166.666666666667,4,2,2,40,0,0
309762,-166.666666666667,4,2,14,50,0,0
309935,-166.666666666667,4,2,4,40,0,0
310107,-166.666666666667,4,2,1,40,0,0
311831,-166.666666666667,4,2,2,40,0,0
312004,-166.666666666667,4,2,5,40,0,0
312176,-166.666666666667,4,2,3,40,0,0
312693,-166.666666666667,4,2,4,40,0,0
312866,-166.666666666667,4,2,1,40,0,0
314590,-166.666666666667,4,2,2,40,0,0
314762,-166.666666666667,4,2,3,40,0,0
314935,-166.666666666667,4,2,2,40,0,0
315280,-166.666666666667,4,2,3,40,0,0
315452,-166.666666666667,4,2,4,40,0,0
315624,-166.666666666667,4,2,10,50,0,0
316314,-166.666666666667,4,2,11,50,0,0
317004,-166.666666666667,4,2,12,50,0,0
317693,-166.666666666667,4,2,10,50,0,0
318383,-166.666666666667,4,2,1,40,0,0
319418,-166.666666666667,4,2,13,50,0,0
320107,-166.666666666667,4,2,2,40,0,0
320280,-166.666666666667,4,2,3,40,0,0
320452,-166.666666666667,4,2,2,40,0,0
320797,-166.666666666667,4,2,14,50,0,0
320969,-166.666666666667,4,2,4,40,0,0
321142,-166.666666666667,4,2,1,40,0,0
322866,-166.666666666667,4,2,2,40,0,0
323038,-166.666666666667,4,2,5,40,0,0
323211,-166.666666666667,4,2,3,40,0,0
323900,-200,4,2,1,30,0,0
325624,-200,4,2,2,30,0,0
325797,-200,4,2,3,30,0,0
325969,-200,4,2,2,30,0,0
326314,-200,4,2,3,30,0,0
326487,-200,4,2,4,30,0,0
326659,-200,4,2,1,30,0,0
328383,-200,4,2,2,30,0,0
328555,-200,4,2,3,30,0,0
328728,-200,4,2,2,30,0,0
329073,-200,4,2,3,30,0,0
329245,-200,4,2,4,30,0,0
329418,-200,4,2,1,30,0,0
331142,-200,4,2,2,30,0,0
331314,-200,4,2,3,30,0,0
331487,-200,4,2,2,30,0,0
331831,-200,4,2,3,30,0,0
332004,-200,4,2,4,30,0,0
332176,-200,4,2,1,30,0,0

[Colours]
Combo1 : 175,255,95
Combo2 : 55,155,255
Combo3 : 130,220,40
Combo4 : 165,210,255

[HitObjects]
256,192,281,12,2,3384,0:0:0:0:
282,71,3901,6,0,L|177:61,1,104.999996795654,2|0,0:0|0:0,0:0:0:0:
126,115,4419,2,0,L|116:219,1,104.999996795654,2|0,0:0|0:0,0:0:0:0:
170,271,4936,2,0,L|274:280,1,104.999996795654,2|0,0:0|0:0,0:0:0:0:
417,133,5626,1,2,0:0:0:0:
351,164,5798,1,2,0:0:0:0:
411,206,5970,1,2,0:0:0:0:
478,38,6315,2,0,L|425:33,1,52.4999983978272,2|2,0:0|0:0,0:0:0:0:
360,66,6660,6,0,P|339:113|351:164,1,104.999996795654,2|0,0:0|0:0,0:0:0:0:
411,206,7178,2,0,P|431:253|419:304,1,104.999996795654,2|0,0:0|0:0,0:0:0:0:
360,346,7695,2,0,L|255:355,1,104.999996795654,2|0,0:0|0:0,0:0:0:0:
46,329,8384,1,2,0:0:0:0:
119,322,8556,1,2,0:0:0:0:
192,316,8728,1,2,0:0:0:0:
35,144,9074,2,0,P|28:169|30:195,1,52.4999983978272,2|2,0:0|0:0,0:0:0:0:
79,251,9419,6,0,L|183:241,1,104.999996795654,2|0,0:0|0:0,0:0:0:0:
235,189,9936,2,0,L|339:198,1,104.999996795654,2|0,0:0|0:0,0:0:0:0:
391,251,10453,2,0,L|495:241,1,104.999996795654,2|0,0:0|0:0,0:0:0:0:
300,53,11143,1,2,0:0:0:0:
258,113,11315,1,2,0:0:0:0:
331,119,11488,1,2,0:0:0:0:
280,310,11832,2,0,L|285:258,1,52.4999983978272,2|2,0:0|0:0,0:0:0:0:
352,226,12177,6,0,B|402:213|402:213|450:234,1,104.999996795654,2|0,0:0|0:0,0:0:0:0:
445,309,12695,2,0,B|394:321|394:321|346:300,1,104.999996795654,2|0,0:0|0:0,0:0:0:0:
285,258,13212,2,0,L|180:248,1,104.999996795654,2|0,0:0|0:0,0:0:0:0:
94,24,13901,1,2,0:0:0:0:
199,33,14073,1,2,0:0:0:0:
190,138,14246,1,2,0:0:0:0:
346,46,14592,1,2,0:0:0:0:
272,39,14764,1,2,0:0:0:0:
199,33,14936,6,0,L|189:137,1,104.999996795654,2|0,0:0|0:0,0:0:0:0:
142,194,15453,2,0,L|151:298,1,104.999996795654,2|0,0:0|0:0,0:0:0:0:
199,355,15970,2,0,P|249:366|296:346,1,104.999996795654,2|0,0:0|0:0,0:0:0:0:
289,182,16660,1,2,0:0:0:0:
215,188,16832,1,2,0:0:0:0:
142,194,17004,1,2,0:0:0:0:
78,383,17350,2,0,P|104:385|129:378,1,52.4999983978272,2|2,0:0|0:0,0:0:0:0:
199,355,17695,6,0,L|190:251,1,104.999996795654,2|0,0:0|0:0,0:0:0:0:
142,194,18212,2,0,L|151:90,1,104.999996795654,2|0,0:0|0:0,0:0:0:0:
199,33,18729,2,0,B|249:21|249:21|297:42,1,104.999996795654,2|0,0:0|0:0,0:0:0:0:
269,218,19419,1,2,0:0:0:0:
196,211,19591,1,2,0:0:0:0:
238,151,19764,1,2,0:0:0:0:
398,227,20108,2,0,L|402:279,1,52.4999983978272,2|2,0:0|0:0,0:0:0:0:
362,341,20453,6,0,P|314:361|264:350,1,104.999996795654,2|0,0:0|0:0,0:0:0:0:
205,308,20970,2,0,P|184:260|195:210,1,104.999996795654,2|0,0:0|0:0,0:0:0:0:
238,151,21488,2,0,P|285:130|335:141,1,104.999996795654,2|0,0:0|0:0,0:0:0:0:
412,327,22178,1,2,0:0:0:0:
405,253,22350,1,2,0:0:0:0:
399,180,22522,1,2,0:0:0:0:
343,16,22867,2,0,L|347:68,1,52.4999983978272,2|2,0:0|0:0,0:0:0:0:
336,141,23212,6,0,P|288:161|238:150,1,104.999996795654,2|0,0:0|0:0,0:0:0:0:
188,97,23729,2,0,P|140:76|90:87,1,104.999996795654,2|0,0:0|0:0,0:0:0:0:
40,141,24246,2,0,L|30:245,1,104.999996795654,2|0,0:0|0:0,0:0:0:0:
240,265,24936,1,2,0:0:0:0:
135,255,25108,1,2,0:0:0:0:
125,360,25281,1,2,0:0:0:0:
339,349,25626,1,2,0:0:0:0:
345,275,25798,1,2,0:0:0:0:
351,202,25970,6,0,L|343:112,1,89.9999972534181,2|2,1:2|0:0,0:0:0:0:
268,47,26660,1,2,0:0:0:0:
190,109,27005,2,0,B|167:213|228:179|201:286|201:286|201:233|159:197,1,269.999991760254,2|0,0:0|0:0,0:0:0:0:
169,206,28667,2,0,L|78:213,2,89.9999972534181,2|2|2,0:0|0:0|0:0,0:0:0:0:
259,168,29701,2,0,P|370:201|309:296,1,258.749992103577,2|0,0:0|0:0,0:0:0:0:
315,295,31487,6,0,P|271:284|226:286,1,89.9999972534181,2|2,0:0|0:0,0:0:0:0:
131,315,32176,1,2,0:0:0:0:
49,260,32521,2,0,B|19:218|31:165|67:170|33:182|11:131|33:86,1,179.999994506836,2|0,0:0|0:0,0:0:0:0:
89,5,33555,1,2,0:0:0:0:
157,76,33900,2,0,B|316:187|352:-80|558:77|412:219|329:91,1,449.99998626709,2|0,0:0|0:0,0:0:0:0:
187,230,36314,1,2,0:0:0:0:
116,299,36659,1,2,0:0:0:0:
204,346,37004,6,0,L|295:337,1,89.9999972534181,2|0,0:0|0:0,0:0:0:0:
372,276,37693,1,2,0:0:0:0:
315,194,38038,2,0,B|210:18|383:0|367:100,1,269.999991760254,2|0,0:0|0:0,0:0:0:0:
419,185,39418,1,2,0:0:0:0:
419,185,39590,1,2,0:0:0:0:
419,185,39762,1,2,0:0:0:0:
367,100,40107,2,0,P|323:89|278:91,1,89.9999972534181,2|0,0:0|0:0,0:0:0:0:
191,140,40797,2,0,B|83:127|81:22|81:22|146:104|68:191,1,359.999989013672,2|0,0:0|0:0,0:0:0:0:
42,279,42521,5,0,0:0:0:0:
125,331,42866,1,2,0:0:0:0:
211,285,43211,2,0,B|221:241|221:241|219:196,1,89.9999972534181,2|2,0:0|0:0,0:0:0:0:
271,112,43900,2,0,B|227:101|227:101|182:103,1,89.9999972534181,2|2,0:0|0:0,0:0:0:0:
87,134,44590,1,2,0:0:0:0:
109,36,44935,1,2,0:0:0:0:
203,6,45280,2,0,B|292:-1|292:-1|379:21,1,179.999994506836,2|2,0:0|0:0,0:0:0:0:
468,64,46314,1,2,0:0:0:0:
282,132,47004,2,0,L|273:223,2,89.9999972534181,2|2|2,0:0|0:0|0:0,0:0:0:0:
183,63,48038,6,0,L|164:273,2,209.999993591309,2|0|0,1:2|1:0|1:0,0:0:0:0:
74,114,49762,1,2,0:0:0:0:
118,209,50107,2,0,P|168:221|221:218,1,104.999996795654,2|2,1:2|0:0,0:0:0:0:
308,278,50797,2,0,P|320:227|317:174,1,104.999996795654,2|2,1:2|0:0,0:0:0:0:
231,114,51487,1,2,1:2:0:0:
221,218,51831,1,2,0:0:0:0:
221,218,52004,1,2,0:0:0:0:
221,218,52176,2,0,P|208:268|211:321,1,104.999996795654,0|0,1:0|0:0,0:0:0:0:
395,335,52866,2,0,P|408:285|405:232,1,104.999996795654,2|2,1:2|0:0,0:0:0:0:
369,168,53383,5,2,0:0:0:0:
369,168,53555,2,0,L|264:158,1,104.999996795654,0|0,1:0|0:0,0:0:0:0:
133,213,54245,2,0,P|111:140|153:77,1,157.499995193482,2|2,1:2|0:0,0:0:0:0:
225,60,54935,2,0,L|330:70,1,104.999996795654,0|0,1:0|0:0,0:0:0:0:
491,13,55624,2,0,L|386:23,1,104.999996795654,2|2,1:2|0:0,0:0:0:0:
329,69,56142,1,2,0:0:0:0:
329,69,56314,2,0,B|317:120|317:120|337:167,1,104.999996795654,0|0,1:0|0:0,0:0:0:0:
446,270,57004,2,0,B|394:258|394:258|347:278|347:278|294:266,1,157.499995193482,2|2,1:2|0:0,0:0:0:0:
234,226,57693,1,0,1:0:0:0:
142,277,58038,1,2,0:0:0:0:
104,98,58383,2,0,P|154:85|207:88,1,104.999996795654,2|2,1:2|0:0,0:0:0:0:
270,127,58900,1,2,0:0:0:0:
233,226,59073,6,0,P|290:307|386:286,2,209.999993591309,4|0|0,1:3|1:0|1:0,0:0:0:0:
270,127,60797,1,2,0:0:0:0:
183,68,61142,2,0,P|134:49|83:59,1,104.999996795654,2|2,1:2|0:0,0:0:0:0:
76,164,61831,2,0,P|124:182|175:172,1,104.999996795654,2|2,1:2|0:0,0:0:0:0:
270,127,62521,1,2,1:2:0:0:
369,163,62866,1,2,0:0:0:0:
369,163,63038,1,2,0:0:0:0:
369,163,63211,2,0,L|378:267,1,104.999996795654,0|0,1:0|0:0,0:0:0:0:
184,277,63900,2,0,L|174:172,1,104.999996795654,2|2,1:2|0:0,0:0:0:0:
221,115,64418,5,2,0:0:0:0:
221,115,64590,2,0,P|271:102|324:105,1,104.999996795654,0|0,1:0|0:0,0:0:0:0:
471,79,65280,2,0,B|434:115|434:115|443:220,1,157.499995193482,2|2,1:2|0:0,0:0:0:0:
487,278,65969,2,0,P|496:328|477:377,1,104.999996795654,0|0,1:0|0:0,0:0:0:0:
348,257,66659,2,0,P|338:206|357:157,1,104.999996795654,2|2,1:2|0:0,0:0:0:0:
412,88,67176,1,2,0:0:0:0:
412,88,67349,2,0,L|307:78,1,104.999996795654,0|0,1:0|0:0,0:0:0:0:
163,129,68038,2,0,B|152:251|152:251|181:208,1,157.499995193482,2|2,1:2|0:0,0:0:0:0:
232,181,68728,1,0,1:0:0:0:
255,78,69073,1,2,0:0:0:0:
165,24,69418,1,2,1:2:0:0:
73,74,69762,1,2,0:0:0:0:
232,181,70107,6,0,L|411:165,2,179.999994506836,6|0|0,1:2|3:0|3:0,0:0:0:0:
138,149,71831,1,2,0:0:0:0:
106,243,72176,2,0,P|103:287|114:331,1,89.9999972534181,2|2,3:2|0:0,0:0:0:0:
198,383,72866,2,0,P|242:385|286:374,1,89.9999972534181,2|2,3:2|0:0,0:0:0:0:
339,291,73555,1,2,3:2:0:0:
438,294,73900,1,2,0:0:0:0:
438,294,74073,1,2,0:0:0:0:
438,294,74245,2,0,L|445:204,1,89.9999972534181,0|0,3:0|0:0,0:0:0:0:
470,51,74935,2,0,L|477:141,1,89.9999972534181,2|2,3:2|0:0,0:0:0:0:
444,204,75452,5,2,0:0:0:0:
444,204,75624,2,0,B|399:211|399:211|357:196,1,89.9999972534181,0|0,3:0|0:0,0:0:0:0:
248,102,76314,2,0,P|305:78|352:125,1,134.999995880127,2|2,3:2|0:0,0:0:0:0:
357,196,77004,2,0,B|312:203|312:203|270:188,1,89.9999972534181,0|0,3:0|0:0,0:0:0:0:
123,156,77693,2,0,B|164:141|164:141|209:148,1,89.9999972534181,2|2,3:2|0:0,0:0:0:0:
270,188,78211,1,2,0:0:0:0:
270,188,78383,2,0,L|277:277,1,89.9999972534181,0|0,3:0|0:0,0:0:0:0:
137,311,79073,2,0,B|115:272|115:272|205:280,1,134.999995880127,2|2,3:2|0:0,0:0:0:0:
277,277,79762,1,0,3:0:0:0:
368,238,80107,1,2,0:0:0:0:
260,113,80452,2,0,P|218:98|174:105,1,89.9999972534181,2|2,3:2|0:0,0:0:0:0:
121,155,80969,1,2,0:0:0:0:
202,283,81142,6,0,L|276:276,1,75,4|0,1:0|0:0,0:0:0:0:
442,244,81487,2,0,L|368:238,1,75,0|0,1:0|0:0,0:0:0:0:
296,137,81831,2,0,L|302:211,1,75,0|0,1:0|0:0,0:0:0:0:
336,378,82176,2,0,L|342:303,1,75,0|0,1:0|0:0,0:0:0:0:
371,131,82521,2,0,L|296:137,1,75,0|0,1:0|0:0,0:0:0:0:
129,150,82866,2,0,P|116:115|123:78,1,75,2|0,1:2|0:0,0:0:0:0:
217,218,83211,2,0,P|193:246|158:258,1,75,2|0,1:2|0:0,0:0:0:0:
231,106,83555,2,0,P|267:112|295:136,1,75,2|0,1:2|0:0,0:0:0:0:
224,293,83900,6,0,L|217:218,1,75,2|0,1:2|0:0,0:0:0:0:
292,63,84245,2,0,L|230:106,1,75,2|0,1:2|0:0,0:0:0:0:
61,118,84590,2,0,L|128:149,1,75,2|0,1:2|0:0,0:0:0:0:
287,169,84935,1,2,1:2:0:0:
154,69,85107,1,2,0:0:0:0:
135,235,85280,2,0,L|141:309,1,75,0|0,1:0|0:0,0:0:0:0:
310,327,85624,2,0,L|303:252,1,75,0|0,1:0|0:0,0:0:0:0:
216,125,85969,2,0,B|203:159|203:159|210:196,1,75,2|0,1:2|0:0,0:0:0:0:
303,252,86314,1,2,1:2:0:0:
303,252,86487,1,2,0:0:0:0:
400,123,86659,5,0,1:0:0:0:
417,245,86831,1,0,1:0:0:0:
397,104,87004,1,0,1:0:0:0:
479,197,87176,1,0,1:0:0:0:
321,125,87349,1,2,1:2:0:0:
476,102,87521,1,0,1:0:0:0:
302,128,87693,1,0,1:0:0:0:
434,35,87866,1,2,1:2:0:0:
327,217,88038,5,0,1:0:0:0:
296,36,88211,1,0,1:0:0:0:
330,236,88383,1,0,1:0:0:0:
293,17,88555,1,0,1:0:0:0:
251,236,88728,1,2,1:2:0:0:
372,17,88900,1,0,1:0:0:0:
406,217,89073,1,2,1:2:0:0:
217,36,89245,1,2,1:2:0:0:
174,254,89418,5,0,3:0:0:0:
188,283,89504,1,0,3:0:0:0:
212,304,89590,1,0,3:0:0:0:
244,314,89676,1,0,3:0:0:0:
276,310,89762,1,0,3:0:0:0:
307,290,89849,1,0,3:0:0:0:
326,258,89935,1,0,3:0:0:0:
328,222,90021,1,0,3:0:0:0:
314,188,90107,5,2,1:2:0:0:
298,150,90193,1,0,1:0:0:0:
303,109,90279,1,0,1:0:0:0:
328,77,90365,1,0,1:0:0:0:
366,61,90452,1,2,1:2:0:0:
410,68,90538,1,0,1:0:0:0:
443,98,90624,1,2,1:2:0:0:
455,141,90710,1,0,1:0:0:0:
442,183,90796,5,0,1:0:0:0:
442,183,91659,1,0,1:0:0:0:
300,88,91831,5,8,3:2:0:0:
258,91,91918,1,0,3:0:0:0:
223,94,92004,1,0,1:0:0:0:
193,97,92090,1,0,1:0:0:0:
167,99,92176,6,0,L|77:91,1,89.9999972534181,6|0,1:2|0:0,0:0:0:0:
234,16,92521,1,8,0:0:0:0:
362,136,92693,2,0,B|389:225|319:219|346:309,1,179.999994506836,2|0,0:0|1:0,0:0:0:0:
511,169,93211,2,0,P|444:113|361:136,1,179.999994506836,10|0,0:0|0:0,0:0:0:0:
238,196,93728,1,0,1:0:0:0:
425,200,93900,5,10,0:0:0:0:
307,35,94073,1,2,0:0:0:0:
436,216,94245,2,0,L|428:305,1,89.9999972534181,2|0,0:0|1:0,0:0:0:0:
244,289,94590,1,10,0:0:0:0:
374,123,94762,1,2,0:0:0:0:
428,305,94935,6,0,P|384:316|340:312,1,89.9999972534181,2|0,1:2|0:0,0:0:0:0:
123,239,95280,1,8,0:0:0:0:
237,379,95452,2,0,L|244:289,1,89.9999972534181,2|0,0:0|0:0,0:0:0:0:
263,75,95797,1,0,1:0:0:0:
62,92,95969,2,0,B|53:181|53:181|122:238,1,179.999994506836,10|0,0:0|0:0,0:0:0:0:
302,262,96487,1,0,1:0:0:0:
348,40,96659,5,10,0:0:0:0:
479,192,96831,1,2,0:0:0:0:
335,25,97004,2,0,P|293:10|249:16,1,89.9999972534181,2|0,0:0|1:0,0:0:0:0:
129,186,97349,1,10,0:0:0:0:
282,102,97521,1,2,0:0:0:0:
81,22,97693,6,0,L|73:111,1,89.9999972534181,2|0,1:2|0:0,0:0:0:0:
103,277,98038,1,8,0:0:0:0:
285,181,98211,2,0,B|356:187|356:187|384:209|384:209|456:215,1,179.999994506836,2|0,0:0|1:0,0:0:0:0:
317,354,98728,2,0,L|324:264,2,89.9999972534181,10|0|0,0:0|0:0|0:0,0:0:0:0:
285,181,99245,1,0,1:0:0:0:
98,251,99418,5,10,0:0:0:0:
193,71,99590,1,2,0:0:0:0:
89,268,99762,2,0,B|74:310|74:310|80:354,1,89.9999972534181,2|0,0:0|1:0,0:0:0:0:
204,250,100107,1,10,0:0:0:0:
93,108,100280,1,2,0:0:0:0:
299,76,100452,6,0,P|373:121|387:208,1,179.999994506836,2|8,1:2|0:0,0:0:0:0:
204,250,100969,2,0,P|205:170|285:181,1,179.999994506836,2|0,0:0|1:0,0:0:0:0:
440,300,101487,2,0,B|401:325|354:309|354:309|313:336|261:316,1,179.999994506836,10|0,0:0|0:0,0:0:0:0:
95,194,102004,1,0,1:0:0:0:
301,234,102176,5,10,0:0:0:0:
46,350,102349,1,2,0:0:0:0:
208,157,102521,2,0,P|211:112|201:68,1,89.9999972534181,2|0,0:0|1:0,0:0:0:0:
31,128,102866,1,10,0:0:0:0:
208,249,103038,1,2,0:0:0:0:
119,26,103211,6,0,L|23:34,1,89.9999972534181,6|0,1:2|0:0,0:0:0:0:
95,194,103555,1,8,0:0:0:0:
220,58,103728,2,0,L|399:73,1,179.999994506836,2|0,0:0|1:0,0:0:0:0:
381,277,104245,2,0,L|201:261,1,179.999994506836,10|0,0:0|0:0,0:0:0:0:
102,105,104762,1,0,1:0:0:0:
299,168,104935,5,10,0:0:0:0:
99,268,105107,1,2,0:0:0:0:
315,159,105280,2,0,L|404:166,1,89.9999972534181,2|0,0:0|1:0,0:0:0:0:
512,305,105624,1,10,0:0:0:0:
321,361,105797,1,2,0:0:0:0:
480,218,105969,6,0,P|490:132|424:75,1,179.999994506836,2|8,1:2|0:0,0:0:0:0:
229,150,106487,2,0,P|271:165|315:159,1,89.9999972534181,2|0,0:0|0:0,0:0:0:0:
289,0,106831,1,0,1:0:0:0:
135,147,107004,2,0,L|127:236,2,89.9999972534181,10|0|0,0:0|0:0|0:0,0:0:0:0:
275,13,107521,1,0,1:0:0:0:
267,194,107693,5,10,0:0:0:0:
139,27,107866,1,2,0:0:0:0:
279,210,108038,2,0,P|288:253|285:298,1,89.9999972534181,2|0,0:0|1:0,0:0:0:0:
266,91,108383,1,10,0:0:0:0:
143,234,108555,1,2,0:0:0:0:
334,154,108728,6,0,L|423:161,2,89.9999972534181,2|0|8,1:2|0:0|0:0,0:0:0:0:
221,282,109245,2,0,L|213:371,2,89.9999972534181,2|0|0,0:0|0:0|1:0,0:0:0:0:
93,169,109762,2,0,L|3:161,2,89.9999972534181,10|0|0,0:0|0:0|0:0,0:0:0:0:
206,41,110280,1,0,1:0:0:0:
157,225,110452,5,10,0:0:0:0:
334,96,110624,1,2,0:0:0:0:
140,236,110797,2,0,B|125:278|125:278|131:322,1,89.9999972534181,2|0,0:0|1:0,0:0:0:0:
305,294,111142,1,10,0:0:0:0:
205,146,111314,1,2,0:0:0:0:
131,322,111487,6,0,L|220:329,1,89.9999972534181,2|0,1:2|0:0,0:0:0:0:
384,223,111831,1,8,0:0:0:0:
205,146,112004,2,0,P|190:188|196:232,1,89.9999972534181,2|0,0:0|0:0,0:0:0:0:
293,384,112349,1,0,1:0:0:0:
384,223,112521,2,8,L|294:215,2,89.9999972534181,10|0|0,0:0|0:0|0:0,0:0:0:0:
512,126,113038,1,0,1:0:0:0:
434,317,113211,5,10,0:0:0:0:
351,73,113383,1,2,0:0:0:0:
217,232,113555,6,0,B|215:260|215:260|233:282,1,56.2500021457673,2|0,0:3|0:0,0:0:0:0:
231,74,113728,2,0,B|233:45|233:45|255:28,1,56.2500021457673,2|0,0:3|0:0,0:0:0:0:
402,168,113900,5,0,3:0:0:0:
361,165,113987,1,0,3:0:0:0:
327,162,114073,1,0,1:0:0:0:
297,159,114159,1,0,1:0:0:0:
270,157,114245,6,0,L|180:149,1,89.9999972534181,6|0,1:2|0:0,0:0:0:0:
336,254,114590,1,8,0:0:0:0:
442,85,114762,2,0,B|406:2|406:2|351:73,1,179.999994506836,2|0,0:0|1:0,0:0:0:0:
429,248,115280,2,0,L|518:240,2,89.9999972534181,10|0|0,0:0|0:0|0:0,0:0:0:0:
250,219,115797,1,0,1:0:0:0:
407,340,115969,5,10,0:0:0:0:
192,308,116142,1,2,0:0:0:0:
428,343,116314,2,0,L|517:335,1,89.9999972534181,2|0,0:0|1:0,0:0:0:0:
347,179,116659,1,10,0:0:0:0:
292,374,116831,1,2,0:0:0:0:
447,213,117004,6,0,P|453:168|439:126,1,89.9999972534181,2|0,1:2|0:0,0:0:0:0:
329,0,117349,1,8,0:0:0:0:
247,145,117521,2,0,P|240:189|254:231,1,89.9999972534181,2|0,0:0|0:0,0:0:0:0:
348,373,117866,1,0,1:0:0:0:
347,179,118038,2,0,L|339:89,2,89.9999972534181,10|0|0,0:0|0:0|0:0,0:0:0:0:
348,353,118555,1,0,1:0:0:0:
155,287,118728,5,10,0:0:0:0:
328,189,118900,1,2,0:0:0:0:
136,297,119073,2,0,P|91:303|49:289,1,89.9999972534181,2|0,0:0|1:0,0:0:0:0:
270,279,119418,1,10,0:0:0:0:
101,197,119590,1,2,0:0:0:0:
310,98,119762,6,0,P|393:122|419:205,1,179.999994506836,2|8,1:2|0:0,0:0:0:0:
224,132,120280,2,0,P|217:87|232:45,2,89.9999972534181,2|0|0,0:0|0:0|1:0,0:0:0:0:
386,291,120797,2,0,P|430:297|472:282,2,89.9999972534181,10|0|0,0:0|0:0|0:0,0:0:0:0:
218,233,121314,1,0,1:0:0:0:
394,123,121487,5,10,0:0:0:0:
285,297,121659,1,2,0:0:0:0:
404,106,121831,2,0,B|410:62|410:62|395:20,1,89.9999972534181,2|0,0:0|1:0,0:0:0:0:
243,116,122176,1,10,0:0:0:0:
362,226,122349,1,2,0:0:0:0:
394,19,122521,6,0,B|333:13|333:13|278:39|278:39|219:34,1,179.999994506836,2|8,1:2|0:0,0:0:0:0:
107,176,123038,2,0,B|167:170|167:170|222:196|222:196|281:191,1,179.999994506836,2|0,0:0|1:0,0:0:0:0:
394,333,123555,2,0,B|333:327|333:327|278:353|278:353|219:348,1,179.999994506836,10|0,0:0|0:0,0:0:0:0:
43,243,124073,1,0,1:0:0:0:
270,270,124245,5,10,0:0:0:0:
0,368,124418,1,2,0:0:0:0:
124,154,124590,2,0,L|213:161,1,89.9999972534181,2|0,0:0|1:0,0:0:0:0:
387,244,124935,1,10,0:0:0:0:
288,66,125107,1,2,0:0:0:0:
157,250,125280,6,0,L|149:339,1,89.9999972534181,6|0,1:2|0:0,0:0:0:0:
352,359,125624,1,8,0:0:0:0:
303,168,125797,2,0,L|213:160,1,89.9999972534181,2|0,0:0|0:0,0:0:0:0:
68,225,126142,1,0,1:0:0:0:
239,346,126314,2,0,L|247:257,2,89.9999972534181,10|0|0,0:0|0:0|0:0,0:0:0:0:
410,264,126831,1,0,1:0:0:0:
261,151,127004,5,10,0:0:0:0:
467,158,127176,1,2,0:0:0:0:
242,150,127349,2,0,L|152:158,1,89.9999972534181,2|0,0:0|1:0,0:0:0:0:
303,263,127693,1,10,0:0:0:0:
375,92,127866,1,2,0:0:0:0:
502,275,128038,6,0,P|453:346|366:345,1,179.999994506836,2|8,1:2|0:0,0:0:0:0:
253,185,128555,2,0,B|280:167|312:166|339:178|339:178|339:178|339:178|369:190|401:186|425:170,1,179.999994506836,2|0,0:0|1:0,0:0:0:0:
243,9,129073,2,0,P|228:51|235:95,2,89.9999972534181,10|0|0,0:0|0:0|0:0,0:0:0:0:
401,69,129590,1,0,1:0:0:0:
253,185,129762,5,10,0:0:0:0:
461,238,129935,1,2,0:0:0:0:
234,180,130107,2,0,P|189:174|147:188,1,89.9999972534181,2|0,0:0|1:0,0:0:0:0:
0,317,130452,1,10,0:0:0:0:
61,157,130624,1,2,0:0:0:0:
162,335,130797,6,0,P|207:341|249:327,1,89.9999972534181,2|0,1:2|0:0,0:0:0:0:
375,172,131142,1,8,0:0:0:0:
462,332,131314,2,0,P|417:338|375:324,1,89.9999972534181,2|0,0:0|0:0,0:0:0:0:
249,169,131659,1,0,1:0:0:0:
466,120,131831,2,0,P|481:162|474:206,2,89.9999972534181,10|0|0,0:0|0:0|0:0,0:0:0:0:
270,65,132349,1,0,1:0:0:0:
310,255,132521,5,10,0:0:0:0:
357,67,132693,1,2,0:0:0:0:
304,274,132866,2,0,L|311:363,1,89.9999972534181,2|0,0:0|1:0,0:0:0:0:
416,238,133211,1,10,0:0:0:0:
205,235,133383,1,2,0:0:0:0:
409,138,133555,6,0,B|487:181|487:181|417:237,1,179.999994506836,2|8,1:2|0:0,0:0:0:0:
212,335,134073,2,0,B|134:292|134:292|205:235,1,179.999994506836,2|0,0:0|1:0,0:0:0:0:
305,40,134590,2,0,B|311:111|311:111|297:144|297:144|303:215,1,179.999994506836,10|0,0:0|0:0,0:0:0:0:
189,92,135107,1,0,1:0:0:0:
420,164,135280,5,10,0:0:0:0:
149,204,135452,1,2,0:0:0:0:
356,342,135624,1,2,0:0:0:0:
297,144,135796,1,0,1:0:0:0:
300,180,135883,1,0,1:0:0:0:
303,216,135969,1,10,0:0:0:0:
460,52,136142,1,2,1:2:0:0:
186,100,136314,6,0,L|194:191,1,89.9999972534181,6|0,1:2|0:0,0:0:0:0:
230,374,136659,1,8,0:0:0:0:
431,306,136831,2,0,B|392:224|392:224|302:216,1,179.999994506836,2|0,0:0|1:0,0:0:0:0:
102,285,137349,2,0,B|140:366|140:366|230:374,1,179.999994506836,10|0,0:0|0:0,0:0:0:0:
382,384,137866,1,0,1:0:0:0:
303,216,138038,5,10,0:0:0:0:
230,374,138211,1,2,0:0:0:0:
311,198,138383,2,0,B|317:154|317:154|302:112,1,89.9999972534181,2|0,0:0|1:0,0:0:0:0:
121,21,138728,1,10,0:0:0:0:
266,11,138900,1,2,0:0:0:0:
103,126,139073,6,0,B|95:169|95:169|109:212,1,89.9999972534181,2|0,1:2|0:0,0:0:0:0:
211,353,139418,1,8,0:0:0:0:
195,124,139590,2,0,B|187:167|187:167|201:210,1,89.9999972534181,2|0,0:0|0:0,0:0:0:0:
303,351,139935,1,0,1:0:0:0:
368,153,140107,2,0,B|324:147|324:147|282:162,2,89.9999972534181,10|0|0,0:0|0:0|0:0,0:0:0:0:
395,349,140624,1,0,1:0:0:0:
245,263,140797,5,10,0:0:0:0:
417,231,140969,1,2,0:0:0:0:
225,267,141142,2,0,P|180:270|136:260,1,89.9999972534181,2|0,0:0|1:0,0:0:0:0:
198,84,141487,1,10,0:0:0:0:
325,218,141659,1,2,0:0:0:0:
118,155,141831,6,0,P|46:204|35:291,1,179.999994506836,2|8,1:2|0:0,0:0:0:0:
225,267,142349,2,0,P|181:256|136:260,2,89.9999972534181,2|0|0,0:0|0:0|1:0,0:0:0:0:
415,373,142866,2,0,P|458:383|503:379,2,89.9999972534181,10|0|0,0:0|0:0|0:0,0:0:0:0:
240,373,143383,1,0,1:0:0:0:
262,167,143555,5,10,0:0:0:0:
400,267,143728,1,2,0:0:0:0:
246,156,143900,2,0,P|201:149|159:164,1,89.9999972534181,2|0,0:0|1:0,0:0:0:0:
367,165,144245,1,10,0:0:0:0:
223,44,144418,1,2,0:0:0:0:
208,240,144590,6,0,P|281:289|361:258,1,179.999994506836,2|8,1:2|0:0,0:0:0:0:
459,42,145107,2,0,P|381:80|367:165,1,179.999994506836,2|0,0:0|1:0,0:0:0:0:
506,357,145624,2,0,P|511:271|444:217,1,179.999994506836,10|0,0:0|0:0,0:0:0:0:
235,189,146142,1,0,1:0:0:0:
427,309,146314,5,10,0:0:0:0:
459,42,146487,1,2,0:0:0:0:
330,248,146659,2,0,L|321:340,1,89.9999972534181,2|0,0:0|1:0,0:0:0:0:
307,130,147004,1,10,0:0:0:0:
447,219,147176,1,2,0:0:0:0:
233,284,147349,6,0,L|53:268,1,179.999994506836,6|8,1:2|0:0,0:0:0:0:
109,138,147866,2,0,L|198:145,2,89.9999972534181,2|0|0,0:0|0:0|1:0,0:0:0:0:
76,0,148383,2,0,L|255:15,1,179.999994506836,10|0,0:0|0:0,0:0:0:0:
361,158,148900,1,0,1:0:0:0:
194,240,149073,5,10,0:0:0:0:
208,52,149245,1,2,0:0:0:0:
192,259,149418,2,0,L|199:348,1,89.9999972534181,2|0,0:0|1:0,0:0:0:0:
380,290,149762,1,10,0:0:0:0:
270,138,149935,1,2,0:0:0:0:
200,348,150107,6,0,P|245:354|287:340,1,89.9999972534181,2|0,1:2|0:0,0:0:0:0:
366,184,150452,1,8,0:0:0:0:
163,143,150624,2,0,P|135:178|126:222,1,89.9999972534181,2|0,0:0|0:0,0:0:0:0:
298,248,150969,1,0,1:0:0:0:
354,71,151142,2,0,P|336:29|303:0,2,89.9999972534181,10|0|0,0:0|0:0|0:0,0:0:0:0:
304,228,151659,1,0,1:0:0:0:
214,56,151831,5,10,0:0:0:0:
369,162,152004,1,2,0:0:0:0:
197,45,152176,2,0,B|153:30|153:30|110:38,1,89.9999972534181,2|0,0:0|1:0,0:0:0:0:
33,215,152521,1,10,0:0:0:0:
219,187,152693,1,2,0:0:0:0:
110,37,152866,6,0,B|104:96|104:96|130:151|130:151|125:210,1,179.999994506836,2|8,1:2|0:0,0:0:0:0:
0,359,153383,2,0,B|59:364|59:364|114:338|114:338|173:343,1,179.999994506836,2|0,0:0|1:0,0:0:0:0:
285,224,153900,2,0,B|200:257|200:257|124:210,1,179.999994506836,10|0,0:0|0:0,0:0:0:0:
108,0,154418,1,0,1:0:0:0:
221,152,154590,5,10,0:0:0:0:
341,5,154762,1,2,0:0:0:0:
209,167,154935,2,0,L|201:256,1,89.9999972534181,2|0,0:0|1:0,0:0:0:0:
299,103,155280,1,10,0:0:0:0:
116,160,155452,1,2,0:0:0:0:
298,220,155624,6,0,L|387:227,1,89.9999972534181,2|0,1:2|0:0,0:0:0:0:
512,138,155969,1,8,0:0:0:0:
373,20,156142,2,0,B|288:-13|288:-13|212:34,1,179.999994506836,2|0,0:0|1:0,0:0:0:0:
119,205,156659,2,0,L|298:220,1,179.999994506836,10|0,0:0|0:0,0:0:0:0:
298,220,157349,5,2,0:0:0:0:
340,279,157521,1,2,0:0:0:0:
308,345,157693,1,2,0:0:0:0:
105,301,158039,1,2,0:0:0:0:
134,234,158211,1,2,0:0:0:0:
208,228,158383,6,0,L|297:220,1,89.9999972534181,6|0,0:0|0:0,0:0:0:0:
355,173,158901,2,0,L|444:180,1,89.9999972534181,2|0,0:0|0:0,0:0:0:0:
501,226,159418,2,0,P|518:185|509:142,1,89.9999972534181,2|0,0:0|0:0,0:0:0:0:
382,29,160107,1,2,0:0:0:0:
323,71,160279,1,2,0:0:0:0:
257,39,160451,1,2,0:0:0:0:
189,170,160798,1,2,0:0:0:0:
254,200,160970,1,2,0:0:0:0:
260,273,161142,6,0,B|250:376|250:376|237:348,1,134.999995880127,2|0,0:0|0:0,0:0:0:0:
183,299,161831,2,0,B|120:321|120:321|58:293,1,134.999995880127,2|0,0:0|0:0,0:0:0:0:
17,232,162521,2,0,L|28:97,1,134.999995880127,2|0,0:0|0:0,0:0:0:0:
86,51,163211,2,0,L|175:58,1,89.9999972534181,2|0,0:0|0:0,0:0:0:0:
235,103,163728,5,2,0:0:0:0:
235,103,163900,2,0,L|324:95,1,89.9999972534181,2|0,0:0|0:0,0:0:0:0:
382,142,164418,2,0,L|389:231,1,89.9999972534181,2|0,0:0|0:0,0:0:0:0:
436,288,164935,2,0,P|395:304|352:295,1,89.9999972534181,2|0,0:0|0:0,0:0:0:0:
234,190,165624,1,2,0:0:0:0:
161,184,165796,1,2,0:0:0:0:
88,177,165968,1,2,0:0:0:0:
72,357,166314,1,2,0:0:0:0:
145,364,166486,1,2,0:0:0:0:
218,370,166659,6,0,L|307:362,1,89.9999972534181,2|0,0:0|0:0,0:0:0:0:
358,308,167176,2,0,L|350:218,1,89.9999972534181,2|0,0:0|0:0,0:0:0:0:
290,175,167693,2,0,L|297:85,1,89.9999972534181,2|0,0:0|0:0,0:0:0:0:
119,72,168383,1,2,0:0:0:0:
156,154,168555,1,2,0:0:0:0:
208,80,168728,1,2,0:0:0:0:
30,64,169073,1,2,0:0:0:0:
24,137,169245,1,2,0:0:0:0:
17,210,169418,6,0,L|24:299,1,89.9999972534181,2|0,0:0|0:0,0:0:0:0:
79,349,169935,2,0,L|168:341,1,89.9999972534181,2|0,0:0|0:0,0:0:0:0:
218,287,170452,2,0,L|307:294,1,89.9999972534181,2|0,0:0|0:0,0:0:0:0:
439,228,171142,1,2,0:0:0:0:
448,81,171487,1,2,0:0:0:0:
325,0,171831,1,2,0:0:0:0:
294,253,172176,5,2,0:0:0:0:
439,228,172521,1,2,0:0:0:0:
344,114,172866,1,2,0:0:0:0:
199,139,173211,1,2,0:0:0:0:
199,139,173383,2,0,P|113:159|32:124,1,179.999994506836,2|0,0:0|0:0,0:0:0:0:
9,54,174245,1,2,0:0:0:0:
150,10,174590,5,2,0:0:0:0:
150,10,174762,2,0,P|235:-10|316:24,1,179.999994506836,2|0,0:0|0:0,0:0:0:0:
351,90,175624,2,0,L|343:179,1,89.9999972534181,2|0,0:0|0:0,0:0:0:0:
305,244,176142,2,0,B|313:346|313:346|333:309,1,134.999995880127,2|0,0:0|0:0,0:0:0:0:
269,179,177004,1,2,0:0:0:0:
81,153,177349,5,2,0:0:0:0:
81,153,177521,2,0,B|108:242|38:236|65:326,1,179.999994506836,2|0,0:0|0:0,0:0:0:0:
129,362,178383,2,0,P|172:370|213:354,1,89.9999972534181,2|0,0:0|0:0,0:0:0:0:
264,301,178900,2,0,P|305:285|348:293,1,89.9999972534181,2|0,0:0|0:0,0:0:0:0:
424,298,179418,2,0,L|416:208,2,89.9999972534181,2|2|2,0:0|0:0|0:0,0:0:0:0:
491,212,180452,5,2,1:2:0:0:
371,117,180797,1,8,0:0:0:0:
289,183,181142,1,8,1:2:0:0:
387,222,181487,2,0,L|491:212,1,104.999996795654,8|0,0:0|1:0,0:0:0:0:
476,108,182176,1,2,0:0:0:0:
415,21,182521,2,0,B|364:9|364:9|311:12,1,104.999996795654,2|2,1:2|0:0,0:0:0:0:
228,77,183211,2,0,B|216:128|216:128|219:181,1,104.999996795654,2|10,1:2|0:0,0:0:0:0:
284,264,183900,1,10,1:2:0:0:
217,345,184245,1,10,0:0:0:0:
217,345,184418,1,2,0:0:0:0:
217,345,184590,2,0,L|112:335,1,104.999996795654,0|0,1:0|0:0,0:0:0:0:
30,192,185280,2,0,L|134:182,1,104.999996795654,2|2,1:2|0:0,0:0:0:0:
199,146,185797,5,2,0:0:0:0:
199,146,185969,1,0,1:0:0:0:
313,52,186315,1,8,0:0:0:0:
396,116,186659,2,0,P|405:166|386:215,1,104.999996795654,10|8,1:2|0:0,0:0:0:0:
330,263,187176,1,2,0:0:0:0:
330,263,187349,2,0,P|320:313|339:362,1,104.999996795654,0|0,1:2|0:0,0:0:0:0:
489,224,188038,2,0,P|439:212|386:215,1,104.999996795654,2|2,1:2|0:0,0:0:0:0:
330,263,188555,1,2,0:0:0:0:
330,263,188728,1,0,1:0:0:0:
295,164,189073,1,8,0:0:0:0:
192,144,189418,2,0,L|87:153,1,104.999996795654,10|8,1:2|0:0,0:0:0:0:
25,193,189935,1,2,0:0:0:0:
25,193,190107,1,0,1:0:0:0:
91,274,190452,2,0,L|100:378,2,104.999996795654,2|2|2,0:0|1:2|0:0,0:0:0:0:
192,144,191487,5,4,1:3:0:0:
228,278,191831,1,8,0:0:0:0:
333,268,192176,1,8,1:2:0:0:
376,172,192521,2,0,P|385:121|366:72,1,104.999996795654,8|0,0:0|1:0,0:0:0:0:
291,0,193211,1,2,0:0:0:0:
248,95,193555,2,0,P|238:145|257:194,1,104.999996795654,2|2,1:2|0:0,0:0:0:0:
333,268,194245,2,0,P|383:277|432:258,1,104.999996795654,2|10,1:2|0:0,0:0:0:0:
479,164,194935,1,10,1:2:0:0:
396,99,195280,1,10,0:0:0:0:
396,99,195452,1,2,0:0:0:0:
396,99,195624,2,0,B|347:79|347:79|295:89,1,104.999996795654,0|0,1:0|0:0,0:0:0:0:
102,149,196314,2,0,B|151:130|151:130|203:140,1,104.999996795654,2|2,1:2|0:0,0:0:0:0:
275,162,196831,5,2,0:0:0:0:
275,162,197004,1,0,1:0:0:0:
211,331,197349,1,8,0:0:0:0:
302,381,197693,2,0,L|406:371,1,104.999996795654,10|10,1:2|0:0,0:0:0:0:
488,305,198383,2,0,L|478:200,1,104.999996795654,0|0,1:0|0:0,0:0:0:0:
445,0,199073,2,0,L|435:104,1,104.999996795654,2|2,1:2|0:0,0:0:0:0:
409,174,199590,1,2,0:0:0:0:
409,174,199762,1,0,1:0:0:0:
263,107,200107,1,8,0:0:0:0:
170,157,200452,2,0,P|158:207|161:260,1,104.999996795654,10|10,1:2|0:0,0:0:0:0:
225,343,201142,1,0,1:0:0:0:
312,284,201487,2,0,P|364:280|415:292,2,104.999996795654,2|2|2,0:0|1:2|0:0,0:0:0:0:
55,384,202521,6,0,L|44:264,1,120,6|0,1:2|0:0,0:0:0:0:
0,200,203038,2,0,L|11:80,1,120,2|0,0:0|0:0,0:0:0:0:
54,15,203555,2,0,L|174:26,1,120,2|0,0:0|3:0,0:0:0:0:
394,83,204246,1,2,0:0:0:0:
316,76,204418,1,2,0:0:0:0:
239,69,204590,1,2,3:2:0:0:
438,20,204935,1,2,0:0:0:0:
471,90,205107,1,2,0:0:0:0:
426,153,205280,6,0,P|402:207|416:264,1,120,2|0,3:2|0:0,0:0:0:0:
416,354,205797,2,0,P|361:330|304:344,1,120,2|0,0:0|0:0,0:0:0:0:
215,344,206314,2,0,P|238:289|224:232,1,120,2|0,0:0|3:0,0:0:0:0:
28,233,207004,1,2,0:0:0:0:
22,311,207176,1,2,0:0:0:0:
93,278,207349,1,2,3:2:0:0:
40,77,207693,1,2,0:0:0:0:
34,155,207866,1,2,0:0:0:0:
99,200,208038,6,0,B|156:214|156:214|211:190,1,120,2|0,3:2|0:0,0:0:0:0:
304,127,208555,2,0,B|290:184|290:184|314:239,1,120,2|0,0:0|0:0,0:0:0:0:
377,332,209073,2,0,B|320:318|320:318|265:342,1,120,2|0,0:0|3:0,0:0:0:0:
448,366,209762,1,2,0:0:0:0:
442,288,209934,1,2,0:0:0:0:
436,210,210107,1,2,3:2:0:0:
269,36,210451,1,2,0:0:0:0:
263,114,210624,1,2,0:0:0:0:
257,192,210797,6,0,L|267:311,1,120,2|0,3:2|0:0,0:0:0:0:
331,357,211314,2,0,L|429:288,1,120,2|0,0:0|0:0,0:0:0:0:
436,210,211831,2,0,L|327:159,1,120,2|0,0:0|3:0,0:0:0:0:
154,315,212521,1,2,0:0:0:0:
267,306,212693,1,2,0:0:0:0:
257,192,212866,1,2,3:2:0:0:
35,246,213210,1,2,0:0:0:0:
41,324,213383,1,2,0:0:0:0:
144,201,213555,6,0,L|137:126,1,75,6|0,1:2|0:0,0:0:0:0:
69,0,213900,1,0,1:0:0:0:
31,139,214073,2,0,L|37:213,1,75,2|0,0:0|1:0,0:0:0:0:
106,340,214418,1,0,0:0:0:0:
229,266,214590,2,0,P|264:253|300:259,1,75,2|0,1:2|0:0,0:0:0:0:
411,353,214935,2,0,P|375:365|339:359,1,75,0|0,1:0|0:0,0:0:0:0:
183,329,215280,1,2,1:2:0:0:
312,250,215452,1,2,0:0:0:0:
171,337,215624,2,0,B|135:349|135:349|99:343,1,75,2|0,1:2|0:0,0:0:0:0:
218,199,215969,1,2,1:2:0:0:
286,355,216142,1,2,0:0:0:0:
128,254,216314,6,0,B|115:218|115:218|121:182,1,75,2|0,1:2|0:0,0:0:0:0:
185,89,216659,1,0,1:0:0:0:
308,144,216831,2,0,B|321:180|321:180|315:216,1,75,2|0,0:0|1:0,0:0:0:0:
251,309,217176,1,0,0:0:0:0:
128,254,217349,1,2,1:2:0:0:
197,384,217521,1,0,0:0:0:0:
218,199,217693,2,0,L|211:124,1,75,0|0,1:0|0:0,0:0:0:0:
31,183,218038,1,2,1:2:0:0:
121,45,218211,1,2,0:0:0:0:
22,195,218383,2,0,L|28:269,1,75,2|0,1:2|0:0,0:0:0:0:
187,306,218728,1,2,1:2:0:0:
149,163,218900,1,2,0:0:0:0:
109,296,219073,5,2,1:2:0:0:
250,259,219245,1,0,1:0:0:0:
90,301,219418,1,0,1:0:0:0:
224,185,219590,1,2,1:2:0:0:
192,323,219763,1,0,1:0:0:0:
145,145,219935,1,0,1:0:0:0:
197,340,220107,1,2,1:2:0:0:
94,205,220280,1,0,1:0:0:0:
269,254,220452,5,0,1:0:0:0:
220,97,220624,1,0,1:0:0:0:
408,207,220797,1,0,1:0:0:0:
359,50,220969,1,0,1:0:0:0:
347,257,221142,1,2,1:2:0:0:
281,47,221314,1,0,1:0:0:0:
353,275,221487,1,2,1:2:0:0:
276,28,221659,1,2,1:2:0:0:
460,147,221831,5,0,3:0:0:0:
480,174,221918,1,0,3:0:0:0:
487,206,222004,1,0,3:0:0:0:
480,238,222090,1,0,3:0:0:0:
460,265,222176,1,0,3:0:0:0:
428,282,222262,1,0,3:0:0:0:
391,284,222348,1,0,3:0:0:0:
358,268,222434,1,0,3:0:0:0:
336,239,222520,5,2,1:2:0:0:
312,203,222608,1,0,1:0:0:0:
276,184,222694,1,0,1:0:0:0:
236,185,222780,1,0,1:0:0:0:
200,209,222867,1,2,1:2:0:0:
181,249,222953,1,0,1:0:0:0:
187,292,223039,1,2,1:2:0:0:
215,326,223125,1,0,1:0:0:0:
257,340,223211,5,0,1:0:0:0:
257,340,224073,1,0,1:0:0:0:
379,222,224245,5,8,3:2:0:0:
376,180,224332,1,0,3:0:0:0:
373,145,224418,1,0,1:0:0:0:
370,115,224504,1,0,1:0:0:0:
368,89,224590,6,0,L|376:-1,1,89.9999972534181,6|0,1:2|0:0,0:0:0:0:
467,194,224935,1,8,0:0:0:0:
270,170,225107,2,0,B|198:176|198:176|168:197|168:197|97:203,1,179.999994506836,2|0,0:0|1:0,0:0:0:0:
240,356,225624,2,0,L|232:266,2,89.9999972534181,10|0|0,0:0|0:0|0:0,0:0:0:0:
111,218,226142,1,0,1:0:0:0:
322,247,226314,5,10,0:0:0:0:
206,74,226487,1,2,0:0:0:0:
333,263,226659,2,0,B|348:305|348:305|342:349,1,89.9999972534181,2|0,0:0|1:0,0:0:0:0:
215,193,227004,1,10,0:0:0:0:
403,203,227176,1,2,0:0:0:0:
240,356,227349,6,0,B|155:389|155:389|79:342,1,179.999994506836,2|8,1:2|0:0,0:0:0:0:
173,165,227866,2,0,L|166:255,1,89.9999972534181,2|0,0:0|0:0,0:0:0:0:
0,193,228211,1,0,1:0:0:0:
140,37,228383,2,0,B|184:31|184:31|226:46,2,89.9999972534181,10|0|0,0:0|0:0|0:0,0:0:0:0:
0,101,228900,1,0,1:0:0:0:
192,170,229073,5,10,0:0:0:0:
0,285,229245,1,2,0:0:0:0:
210,159,229418,2,0,L|300:166,1,89.9999972534181,2|0,0:0|1:0,0:0:0:0:
482,327,229762,1,10,0:0:0:0:
283,307,229935,1,2,0:0:0:0:
402,109,230107,6,0,B|429:198|359:192|386:282,1,179.999994506836,2|8,1:2|0:0,0:0:0:0:
454,32,230624,2,0,P|412:17|368:23,1,89.9999972534181,2|0,0:0|0:0,0:0:0:0:
207,75,230969,1,0,1:0:0:0:
320,241,231142,2,0,P|394:196|402:110,1,179.999994506836,10|0,0:0|0:0,0:0:0:0:
275,13,231659,1,0,1:0:0:0:
222,194,231831,5,10,0:0:0:0:
402,109,232004,1,2,0:0:0:0:
203,202,232176,2,0,P|158:207|115:195,1,89.9999972534181,2|0,0:0|1:0,0:0:0:0:
299,246,232521,1,10,0:0:0:0:
166,102,232693,1,2,0:0:0:0:
154,296,232866,6,0,P|164:339|191:374,1,89.9999972534181,2|0,1:2|0:0,0:0:0:0:
368,327,233211,1,8,0:0:0:0:
203,202,233383,2,0,P|160:189|115:195,1,89.9999972534181,2|0,0:0|0:0,0:0:0:0:
81,379,233728,1,0,1:0:0:0:
258,290,233900,2,0,P|308:219|286:135,1,179.999994506836,10|0,0:0|0:0,0:0:0:0:
91,126,234418,1,0,1:0:0:0:
277,29,234590,5,10,0:0:0:0:
16,0,234762,1,2,0:0:0:0:
196,143,234935,2,0,L|285:135,1,89.9999972534181,2|0,0:0|1:0,0:0:0:0:
512,53,235280,1,10,0:0:0:0:
409,205,235452,1,2,0:0:0:0:
277,29,235624,6,0,L|97:44,1,179.999994506836,6|8,1:2|0:0,0:0:0:0:
115,256,236142,2,0,L|295:241,1,179.999994506836,2|0,0:0|1:0,0:0:0:0:
370,84,236659,2,0,L|377:173,2,89.9999972534181,10|0|0,0:0|0:0|0:0,0:0:0:0:
184,143,237176,1,0,1:0:0:0:
347,261,237349,5,10,0:0:0:0:
263,71,237521,1,2,0:0:0:0:
356,280,237693,2,0,L|363:369,1,89.9999972534181,2|0,0:0|1:0,0:0:0:0:
216,229,238038,1,10,0:0:0:0:
377,173,238211,1,2,0:0:0:0:
239,348,238383,6,0,P|153:331|100:261,1,179.999994506836,2|8,1:2|0:0,0:0:0:0:
209,142,238900,2,0,P|221:184|216:229,1,89.9999972534181,2|0,0:0|0:0,0:0:0:0:
39,175,239245,1,0,1:0:0:0:
185,22,239418,2,0,P|271:38|324:108,1,179.999994506836,10|0,0:0|0:0,0:0:0:0:
293,280,239935,1,0,1:0:0:0:
423,146,240107,5,10,0:0:0:0:
473,347,240280,1,2,0:0:0:0:
418,125,240452,2,0,L|410:36,1,89.9999972534181,2|0,0:0|1:0,0:0:0:0:
318,177,240797,1,10,0:0:0:0:
471,241,240969,1,2,0:0:0:0:
320,70,241142,6,0,B|249:76|249:76|218:95|218:95|148:102,1,179.999994506836,2|8,1:2|0:0,0:0:0:0:
229,305,241659,2,0,B|311:266|311:266|318:177,1,179.999994506836,2|0,0:0|1:0,0:0:0:0:
98,198,242176,2,0,L|82:377,1,179.999994506836,10|0,0:0|0:0,0:0:0:0:
223,206,242693,1,0,1:0:0:0:
125,53,242866,5,10,0:0:0:0:
3,219,243038,1,2,0:0:0:0:
136,36,243211,2,0,B|178:21|178:21|222:28,1,89.9999972534181,2|0,0:0|1:0,0:0:0:0:
385,185,243554,1,10,0:0:0:0:
358,0,243727,1,2,0:0:0:0:
236,148,243900,6,0,L|146:155,2,89.9999972534181,2|0|8,1:2|0:0|0:0,0:0:0:0:
442,99,244418,2,0,B|489:175|489:175|456:260,1,179.999994506836,2|0,0:0|1:0,0:0:0:0:
245,247,244935,2,0,L|155:254,2,89.9999972534181,10|0|0,0:0|0:0|0:0,0:0:0:0:
436,258,245452,1,0,1:0:0:0:
192,159,245624,5,10,0:0:0:0:
442,99,245797,1,2,0:0:0:0:
237,184,245969,6,0,B|209:182|209:182|193:160,1,56.2500021457673,2|0,0:3|0:0,0:0:0:0:
392,196,246142,2,0,B|420:197|420:197|442:180,1,56.2500021457673,2|0,0:3|0:0,0:0:0:0:
326,12,246314,5,0,3:0:0:0:
323,53,246401,1,0,3:0:0:0:
320,87,246487,1,0,1:0:0:0:
317,117,246573,1,0,1:0:0:0:
315,144,246659,6,0,L|307:234,1,89.9999972534181,6|0,1:2|0:0,0:0:0:0:
442,99,247004,1,8,0:0:0:0:
248,27,247176,2,0,P|165:51|139:134,1,179.999994506836,2|0,0:0|1:0,0:0:0:0:
307,233,247693,2,0,P|321:191|315:146,2,89.9999972534181,10|0|0,0:0|0:0|0:0,0:0:0:0:
222,384,248211,1,0,1:0:0:0:
214,181,248383,5,10,0:0:0:0:
319,339,248555,1,2,0:0:0:0:
203,165,248728,2,0,P|197:120|211:78,1,89.9999972534181,2|0,0:0|1:0,0:0:0:0:
392,138,249073,1,10,0:0:0:0:
247,262,249245,1,2,0:0:0:0:
210,78,249418,6,0,L|299:85,1,89.9999972534181,2|0,1:2|0:0,0:0:0:0:
494,115,249762,1,8,0:0:0:0:
434,287,249935,2,0,L|441:197,1,89.9999972534181,2|0,0:0|0:0,0:0:0:0:
405,0,250280,1,0,1:0:0:0:
331,188,250452,2,0,L|324:278,2,89.9999972534181,10|0|0,0:0|0:0|0:0,0:0:0:0:
397,18,250969,1,0,1:0:0:0:
246,155,251142,5,10,0:0:0:0:
441,197,251314,1,2,0:0:0:0:
228,151,251487,2,0,L|138:158,1,89.9999972534181,2|0,0:0|1:0,0:0:0:0:
335,213,251831,1,10,0:0:0:0:
279,41,252004,1,2,0:0:0:0:
223,244,252176,6,0,P|216:288|231:330,1,89.9999972534181,2|0,1:2|0:0,0:0:0:0:
412,264,252521,1,8,0:0:0:0:
257,158,252693,2,0,P|212:151|170:166,1,89.9999972534181,2|0,0:0|0:0,0:0:0:0:
236,347,253038,1,0,1:0:0:0:
343,192,253211,2,0,P|349:147|334:105,2,89.9999972534181,10|0|0,0:0|0:0|0:0,0:0:0:0:
321,382,253728,1,0,1:0:0:0:
257,158,253900,5,10,0:0:0:0:
376,308,254073,1,2,0:0:0:0:
244,142,254245,2,0,P|229:100|235:55,1,89.9999972534181,2|0,0:0|1:0,0:0:0:0:
254,258,254590,1,10,0:0:0:0:
128,136,254762,1,2,0:0:0:0:
320,91,254935,6,0,P|398:128|421:213,1,179.999994506836,2|8,1:2|0:0,0:0:0:0:
261,345,255452,2,0,P|254:258|315:196,1,179.999994506836,2|0,0:0|1:0,0:0:0:0:
511,268,255969,2,0,P|439:317|354:294,1,179.999994506836,10|0,0:0|0:0,0:0:0:0:
180,232,256487,1,0,1:0:0:0:
421,212,256659,5,10,0:0:0:0:
211,384,256831,1,2,0:0:0:0:
296,163,257004,2,0,P|301:118|288:75,1,89.9999972534181,2|0,0:0|1:0,0:0:0:0:
123,159,257349,1,10,0:0:0:0:
305,279,257521,1,2,0:0:0:0:
212,58,257693,6,0,L|122:65,1,89.9999972534181,6|0,1:2|0:0,0:0:0:0:
38,245,258038,1,8,0:0:0:0:
215,156,258211,2,0,L|394:171,1,179.999994506836,2|0,0:0|1:0,0:0:0:0:
230,264,258728,2,0,L|140:271,2,89.9999972534181,10|0|0,0:0|0:0|0:0,0:0:0:0:
386,371,259245,1,0,1:0:0:0:
394,171,259418,5,10,0:0:0:0:
291,342,259590,1,2,0:0:0:0:
404,154,259762,2,0,B|410:110|410:110|395:68,1,89.9999972534181,2|0,0:0|1:0,0:0:0:0:
303,227,260107,1,10,0:0:0:0:
479,209,260280,1,2,0:0:0:0:
301,121,260452,6,0,B|257:115|257:115|215:130,1,89.9999972534181,2|0,1:2|0:0,0:0:0:0:
39,199,260797,1,8,0:0:0:0:
213,307,260969,2,0,B|207:234|207:234|220:200|220:200|214:130,1,179.999994506836,2|0,0:0|1:0,0:0:0:0:
41,22,261487,2,0,B|46:94|46:94|33:128|33:128|39:198,1,179.999994506836,10|0,0:0|0:0,0:0:0:0:
122,318,262004,1,0,1:0:0:0:
214,130,262176,5,10,0:0:0:0:
39,199,262349,1,2,0:0:0:0:
231,123,262521,2,0,L|320:130,1,89.9999972534181,2|0,0:0|1:0,0:0:0:0:
499,239,262866,1,10,0:0:0:0:
372,340,263038,1,2,0:0:0:0:
321,130,263211,6,0,L|500:145,1,179.999994506836,2|8,1:2|0:0,0:0:0:0:
298,312,263728,2,0,L|305:222,1,89.9999972534181,2|0,0:0|0:0,0:0:0:0:
373,42,264073,1,0,1:0:0:0:
403,231,264245,2,0,L|395:320,2,89.9999972534181,10|0|0,0:0|0:0|0:0,0:0:0:0:
471,51,264762,1,0,1:0:0:0:
299,127,264935,5,10,0:0:0:0:
500,145,265107,1,2,0:0:0:0:
280,126,265280,2,0,L|190:133,1,89.9999972534181,2|0,0:0|1:0,0:0:0:0:
330,235,265624,1,10,0:0:0:0:
228,51,265797,1,2,0:0:0:0:
166,251,265969,6,0,P|250:274|329:236,1,179.999994506836,2|8,1:2|0:0,0:0:0:0:
151,78,266487,2,0,B|133:121|158:164|158:164|139:209|169:256,1,179.999994506836,2|0,0:0|1:0,0:0:0:0:
315,64,267004,2,0,P|230:40|151:78,1,179.999994506836,10|0,0:0|0:0,0:0:0:0:
18,175,267521,1,0,1:0:0:0:
252,156,267693,5,10,0:0:0:0:
8,281,267866,1,2,0:0:0:0:
28,69,268038,1,2,0:0:0:0:
176,238,268211,1,0,1:0:0:0:
140,241,268297,1,0,1:0:0:0:
104,244,268383,1,10,0:0:0:0:
167,40,268555,1,2,1:2:0:0:
352,241,268728,6,0,B|262:248,1,89.9999972534181,6|0,1:2|0:0,0:0:0:0:
149,384,269073,1,8,0:0:0:0:
360,341,269245,2,0,B|430:282|430:282|351:241,1,179.999994506836,2|0,0:0|1:0,0:0:0:0:
168,139,269762,2,0,B|97:197|97:197|176:238,1,179.999994506836,10|0,0:0|0:0,0:0:0:0:
343,141,270280,1,0,1:0:0:0:
161,47,270452,5,10,0:0:0:0:
347,16,270624,1,2,0:0:0:0:
143,50,270797,2,0,L|53:42,1,89.9999972534181,2|0,0:0|1:0,0:0:0:0:
223,150,271142,1,10,0:0:0:0:
248,0,271314,1,2,0:0:0:0:
412,121,271487,6,0,P|417:166|405:209,1,89.9999972534181,2|0,1:2|0:0,0:0:0:0:
252,339,271831,1,8,0:0:0:0:
223,150,272004,2,0,P|267:144|310:156,1,89.9999972534181,2|0,0:0|0:0,0:0:0:0:
441,310,272349,1,0,1:0:0:0:
252,339,272521,2,0,P|246:294|258:251,2,89.9999972534181,10|0|0,0:0|0:0|0:0,0:0:0:0:
421,313,273038,1,0,1:0:0:0:
310,157,273211,5,10,0:0:0:0:
252,339,273383,1,2,0:0:0:0:
316,137,273555,2,0,P|321:93|309:50,1,89.9999972534181,2|0,0:0|1:0,0:0:0:0:
212,222,273900,1,10,0:0:0:0:
416,174,274073,1,2,0:0:0:0:
216,101,274245,6,0,L|126:108,1,89.9999972534181,2|0,1:2|0:0,0:0:0:0:
300,249,274590,1,8,0:0:0:0:
396,86,274762,2,0,L|216:101,1,179.999994506836,2|0,0:0|1:0,0:0:0:0:
121,265,275280,2,0,L|300:249,1,179.999994506836,10|0,0:0|0:0,0:0:0:0:
440,179,275797,1,0,1:0:0:0:
256,175,275969,5,10,0:0:0:0:
402,279,276142,1,2,0:0:0:0:
240,164,276314,2,0,L|150:171,1,89.9999972534181,2|0,0:0|1:0,0:0:0:0:
157,340,276659,1,10,0:0:0:0:
327,304,276831,1,2,0:0:0:0:
150,170,277004,6,0,B|158:261,1,89.9999972534181,2|0,1:2|0:0,0:0:0:0:
256,384,277349,1,8,0:0:0:0:
342,226,277521,2,0,B|336:155|336:155|317:124|317:124|310:51,1,179.999994506836,2|0,0:0|1:0,0:0:0:0:
489,166,278038,2,0,B|431:235|431:235|342:226,1,179.999994506836,10|0,0:0|0:0,0:0:0:0:
194,99,278555,1,0,1:0:0:0:
285,317,278727,5,10,0:0:0:0:
420,82,278900,1,2,0:0:0:0:
209,190,279073,2,0,L|201:279,1,89.9999972534181,2|0,0:0|1:0,0:0:0:0:
285,84,279418,1,10,0:0:0:0:
122,158,279590,1,2,0:0:0:0:
344,246,279762,6,0,P|429:230|473:154,1,179.999994506836,6|8,1:2|0:0,0:0:0:0:
258,208,280280,2,0,B|231:297|301:291|274:381,1,179.999994506836,2|0,0:0|1:0,0:0:0:0:
153,196,280797,2,0,P|196:120|282:104,1,179.999994506836,10|0,0:0|0:0,0:0:0:0:
443,166,281314,1,0,1:0:0:0:
258,208,281487,5,10,0:0:0:0:
343,35,281659,1,2,0:0:0:0:
250,225,281831,2,0,P|238:268|243:312,1,89.9999972534181,2|0,0:0|1:0,0:0:0:0:
415,278,282176,1,10,0:0:0:0:
342,142,282349,1,2,0:0:0:0:
243,312,282521,6,0,L|332:319,2,89.9999972534181,2|0|8,1:2|0:0|0:0,0:0:0:0:
50,295,283038,2,0,L|0:368,2,89.9999972534181,2|0|0,0:0|0:0|1:0,0:0:0:0:
161,136,283555,2,0,L|122:55,2,89.9999972534181,10|0|0,0:0|0:0|0:0,0:0:0:0:
243,312,284073,1,0,1:0:0:0:
59,183,284245,5,10,0:0:0:0:
141,359,284418,1,2,0:0:0:0:
51,166,284590,2,0,L|58:76,1,89.9999972534181,2|0,0:0|1:0,0:0:0:0:
247,140,284935,1,10,0:0:0:0:
151,247,285107,1,2,0:0:0:0:
58,76,285280,6,0,L|147:83,1,89.9999972534181,2|0,1:2|0:0,0:0:0:0:
353,102,285624,1,8,0:0:0:0:
138,175,285797,2,0,B|94:181|94:181|52:166,1,89.9999972534181,2|0,0:0|0:0,0:0:0:0:
110,2,286142,1,0,1:0:0:0:
247,140,286314,2,0,B|253:184|253:184|238:226,2,89.9999972534181,10|0|0,0:0|0:0|0:0,0:0:0:0:
123,17,286831,1,0,1:0:0:0:
308,71,287004,5,10,0:0:0:0:
138,175,287176,1,2,0:0:0:0:
324,61,287349,2,0,L|413:68,1,89.9999972534181,2|0,0:0|1:0,0:0:0:0:
228,0,287693,1,10,0:0:0:0:
260,166,287866,1,2,0:0:0:0:
413,69,288038,5,2,1:2:0:0:
426,84,288555,1,2,0:0:0:0:
439,99,289073,1,2,0:0:0:0:
310,300,289762,1,2,0:0:0:0:
348,218,289935,1,2,0:0:0:0:
399,292,290107,1,2,0:0:0:0:
210,212,290452,1,2,0:0:0:0:
278,235,290624,1,2,0:0:0:0:
348,218,290797,6,0,L|437:210,1,89.9999972534181,2|0,0:0|0:0,0:0:0:0:
479,151,291314,2,0,L|471:61,1,89.9999972534181,2|0,0:0|0:0,0:0:0:0:
412,20,291831,2,0,L|322:27,1,89.9999972534181,2|0,0:0|0:0,0:0:0:0:
209,179,292521,1,2,0:0:0:0:
267,137,292693,1,2,0:0:0:0:
202,107,292866,1,2,0:0:0:0:
29,84,293211,1,2,0:0:0:0:
35,155,293383,1,2,0:0:0:0:
41,227,293555,6,0,L|48:316,1,89.9999972534181,2|0,0:0|0:0,0:0:0:0:
96,372,294073,2,0,P|139:381|179:363,1,89.9999972534181,2|0,0:0|0:0,0:0:0:0:
215,301,294590,2,0,L|207:211,1,89.9999972534181,2|0,0:0|0:0,0:0:0:0:
107,31,295280,1,2,0:0:0:0:
76,96,295453,1,2,0:0:0:0:
118,155,295625,1,2,0:0:0:0:
291,76,295969,1,2,0:0:0:0:
249,17,296142,1,2,0:0:0:0:
219,83,296314,6,0,P|209:126|227:166,1,89.9999972534181,2|0,0:0|0:0,0:0:0:0:
288,206,296831,2,0,P|331:215|371:197,1,89.9999972534181,2|0,0:0|0:0,0:0:0:0:
411,137,297349,2,0,P|420:93|402:53,1,89.9999972534181,2|0,0:0|0:0,0:0:0:0:
288,206,298038,1,2,0:0:0:0:
336,260,298211,1,2,0:0:0:0:
372,198,298383,1,2,0:0:0:0:
498,267,298728,1,2,0:0:0:0:
462,329,298900,1,2,0:0:0:0:
392,313,299073,6,0,L|302:305,1,89.9999972534181,2|0,0:0|0:0,0:0:0:0:
243,264,299590,2,0,L|153:271,1,89.9999972534181,2|0,0:0|0:0,0:0:0:0:
94,313,300107,2,0,L|4:305,1,89.9999972534181,2|0,0:0|0:0,0:0:0:0:
0,130,300797,1,2,0:0:0:0:
68,72,300969,1,2,0:0:0:0:
126,141,301142,1,2,0:0:0:0:
308,65,301487,1,2,0:0:0:0:
286,133,301659,1,2,0:0:0:0:
216,149,301831,6,0,L|126:141,1,89.9999972534181,2|0,0:0|0:0,0:0:0:0:
68,184,302349,2,0,B|49:224|49:224|58:268,1,89.9999972534181,2|0,0:0|0:0,0:0:0:0:
110,321,302866,2,0,L|199:328,1,89.9999972534181,2|0,0:0|0:0,0:0:0:0:
406,256,303555,1,2,0:0:0:0:
334,250,303728,1,2,0:0:0:0:
263,244,303900,1,2,0:0:0:0:
436,321,304245,1,2,0:0:0:0:
478,262,304417,1,2,0:0:0:0:
447,197,304590,6,0,B|425:134|425:134|453:72,1,134.999995880127,2|0,0:0|0:0,0:0:0:0:
446,0,305280,2,0,L|311:-11,1,134.999995880127,2|0,0:0|0:0,0:0:0:0:
247,21,305969,2,0,B|219:83|219:83|241:146,1,134.999995880127,2|0,0:0|0:0,0:0:0:0:
227,217,306659,2,0,L|137:209,1,89.9999972534181,2|0,0:0|0:0,0:0:0:0:
83,161,307176,5,2,0:0:0:0:
83,161,307349,2,0,P|64:201|74:244,1,89.9999972534181,2|0,0:0|0:0,0:0:0:0:
137,281,307866,2,0,P|177:299|220:289,1,89.9999972534181,2|0,0:0|0:0,0:0:0:0:
227,217,308383,2,0,L|137:209,1,89.9999972534181,2|0,0:0|0:0,0:0:0:0:
131,45,309073,1,2,0:0:0:0:
196,14,309246,1,2,0:0:0:0:
255,56,309418,1,2,0:0:0:0:
371,157,309762,1,2,0:0:0:0:
306,188,309935,1,2,0:0:0:0:
247,146,310107,6,0,L|254:56,1,89.9999972534181,2|0,0:0|0:0,0:0:0:0:
310,10,310624,2,0,L|399:17,1,89.9999972534181,2|0,0:0|0:0,0:0:0:0:
447,73,311142,2,0,L|439:162,1,89.9999972534181,2|0,0:0|0:0,0:0:0:0:
247,218,311831,1,2,0:0:0:0:
336,225,312003,1,2,0:0:0:0:
426,233,312176,1,2,0:0:0:0:
397,374,312521,1,2,0:0:0:0:
325,367,312694,1,2,0:0:0:0:
253,362,312866,6,0,L|163:354,1,89.9999972534181,2|0,0:0|0:0,0:0:0:0:
108,308,313383,2,0,L|115:218,1,89.9999972534181,2|0,0:0|0:0,0:0:0:0:
162,163,313900,2,0,L|251:170,1,89.9999972534181,2|0,0:0|0:0,0:0:0:0:
380,294,314590,1,2,0:0:0:0:
445,264,314763,1,2,0:0:0:0:
387,222,314935,1,2,0:0:0:0:
466,48,315279,1,2,0:0:0:0:
459,120,315451,1,2,0:0:0:0:
394,150,315624,6,0,L|259:138,1,134.999995880127,2|0,0:0|0:0,0:0:0:0:
191,161,316314,2,0,B|160:221|160:221|180:285,1,134.999995880127,2|0,0:0|0:0,0:0:0:0:
244,319,317004,2,0,L|378:330,1,134.999995880127,2|0,0:0|0:0,0:0:0:0:
436,287,317693,2,0,B|456:245|456:245|443:202,1,89.9999972534181,2|0,0:0|0:0,0:0:0:0:
394,150,318211,5,2,0:0:0:0:
394,150,318383,2,0,L|304:142,1,89.9999972534181,2|0,0:0|0:0,0:0:0:0:
238,113,318900,2,0,L|148:120,1,89.9999972534181,2|0,0:0|0:0,0:0:0:0:
85,85,319418,2,0,P|75:128|93:168,1,89.9999972534181,2|0,0:0|0:0,0:0:0:0:
253,237,320107,1,2,0:0:0:0:
198,190,320280,1,2,0:0:0:0:
151,246,320452,1,2,0:0:0:0:
333,304,320797,1,2,0:0:0:0:
326,232,320970,1,2,0:0:0:0:
321,160,321142,6,0,L|314:71,1,89.9999972534181,2|0,0:0|0:0,0:0:0:0:
263,19,321659,2,0,B|219:9|219:9|178:28,1,89.9999972534181,2|0,0:0|0:0,0:0:0:0:
134,87,322176,2,0,L|142:177,1,89.9999972534181,2|0,0:0|0:0,0:0:0:0:
321,232,322866,1,2,0:0:0:0:
247,283,323039,1,2,0:0:0:0:
165,245,323211,1,2,0:0:0:0:
229,82,323900,6,0,L|238:194,2,112.5,2|2|2,0:0|0:0|0:0,0:0:0:0:
229,82,325624,2,0,L|225:44,2,37.5,2|2|2,0:0|0:0|0:0,0:0:0:0:
337,174,326314,2,0,L|340:211,1,37.5,2|2,0:0|0:0,0:0:0:0:
299,270,326659,6,0,P|244:283|188:279,2,112.5,2|2|2,0:0|0:0|0:0,0:0:0:0:
299,270,328383,2,0,P|317:265|335:267,2,37.5,2|2|2,0:0|0:0|0:0,0:0:0:0:
167,325,329073,2,0,P|148:329|130:327,1,37.5,2|2,0:0|0:0,0:0:0:0:
73,284,329418,6,0,B|59:229|59:229|63:173,2,112.5,2|2|2,0:0|0:0|0:0,0:0:0:0:
73,284,331142,2,0,B|77:301|77:301|76:320,2,37.5,2|2|2,0:0|0:0|0:0,0:0:0:0:
10,155,331831,2,0,B|5:137|5:137|6:118,1,37.5,2|2,0:0|0:0,0:0:0:0:
57,67,332176,6,0,L|169:57,2,112.5,2|2|2,0:0|0:0|0:0,0:0:0:0:
