osu file format v14

[General]
AudioFilename: Porter Robinson - Sad Machine (KYLI - Flip)==.mp3
AudioLeadIn: 0
PreviewTime: 49150
Countdown: 0
SampleSet: Soft
StackLeniency: 0.7
Mode: 0
LetterboxInBreaks: 1
WidescreenStoryboard: 1

[Editor]
DistanceSpacing: 1
BeatDivisor: 4
GridSize: 32
TimelineZoom: 1

[Metadata]
Title:Sad Machine (KYLI - Flip)
TitleUnicode:Sad Machine (KYLI - Flip)
Artist:Porter Robinson
ArtistUnicode:Porter Robinson
Creator:LamboSan5545
Version:Hard
Source:
Tags:Sad Machine Porter Robinson
BeatmapID:1299433
BeatmapSetID:616112

[Difficulty]
HPDrainRate:8
CircleSize:5
OverallDifficulty:7
ApproachRate:7
SliderMultiplier:0.8
SliderTickRate:1

[Events]
//Background and Video events
0,0,"book2.jpg",0,0
//Break Periods
2,102921,112928
//Storyboard Layer 0 (Background)
//Storyboard Layer 1 (Fail)
//Storyboard Layer 2 (Pass)
//Storyboard Layer 3 (Foreground)
//Storyboard Layer 4 (Overlay)
//Storyboard Sound Samples

[TimingPoints]
4150,142.857142857143,4,2,0,100,1,0

[Colours]
Combo1 : 64,128,128
Combo2 : 194,132,255
Combo3 : 128,255,255
Combo4 : 128,255,128

[HitObjects]
408,51,5257,5,0,0:0:0:0:
302,156,5828,1,0,0:0:0:0:
303,187,5971,1,0,0:0:0:0:
139,224,6400,1,0,0:0:0:0:
176,195,6971,1,0,0:0:0:0:
199,167,7114,1,0,0:0:0:0:
393,228,7542,1,0,0:0:0:0:
315,74,8114,1,0,0:0:0:0:
312,112,8257,1,0,0:0:0:0:
187,150,8685,1,0,0:0:0:0:
232,157,9257,1,0,0:0:0:0:
268,133,9400,1,0,0:0:0:0:
444,190,9828,1,0,0:0:0:0:
286,112,10400,1,0,0:0:0:0:
294,150,10542,1,0,0:0:0:0:
147,247,10971,1,0,0:0:0:0:
180,104,11542,1,0,0:0:0:0:
207,128,11685,1,0,0:0:0:0:
282,26,12114,1,0,0:0:0:0:
42,12,12721,1,0,0:0:0:0:
74,26,12971,1,0,0:0:0:0:
86,34,13114,1,0,0:0:0:0:
100,42,13257,1,0,0:0:0:0:
112,49,13400,1,0,0:0:0:0:
123,55,13542,1,0,0:0:0:0:
263,95,14400,1,0,0:0:0:0:
328,96,15542,1,0,0:0:0:0:
175,175,15828,1,0,0:0:0:0:
74,270,16685,1,0,0:0:0:0:
414,271,17864,1,0,0:0:0:0:
239,192,18435,1,0,0:0:0:0:
358,143,19007,1,0,0:0:0:0:
144,152,19578,1,0,0:0:0:0:
297,249,20150,1,0,0:0:0:0:
325,77,20721,1,0,0:0:0:0:
226,155,21292,1,0,0:0:0:0:
147,149,21864,2,0,P|223:117|379:174,2,240
245,165,23578,1,0,0:0:0:0:
229,198,24150,2,0,P|220:112|354:88,2,240
288,134,25828,1,0,0:0:0:0:
216,176,26435,2,0,B|217:72|217:72|353:75,2,240
292,126,28114,1,0,0:0:0:0:
165,163,28721,2,0,B|218:101|218:101|261:166|261:166|327:94,2,240
214,185,30400,1,0,0:0:0:0:
133,67,30971,2,0,B|61:179|61:179|196:259|196:259|279:140|279:140|312:156|312:156|332:169,1,480
178,150,32721,1,0,0:0:0:0:
129,192,33257,5,0,0:0:0:0:
166,189,33685,1,0,0:0:0:0:
209,180,34114,1,0,0:0:0:0:
341,85,34971,1,0,0:0:0:0:
173,124,35542,1,0,0:0:0:0:
180,183,35971,1,0,0:0:0:0:
186,250,36400,1,0,0:0:0:0:
397,163,37257,1,0,0:0:0:0:
186,127,37828,1,0,0:0:0:0:
225,169,38257,1,0,0:0:0:0:
268,180,38685,1,0,0:0:0:0:
410,94,39578,1,0,0:0:0:0:
67,107,40150,1,0,0:0:0:0:
234,148,40721,1,0,0:0:0:0:
126,289,41292,1,0,0:0:0:0:
376,146,41864,1,0,0:0:0:0:
184,118,42435,1,0,0:0:0:0:
260,267,43007,1,0,0:0:0:0:
304,103,43578,1,0,0:0:0:0:
137,198,44150,1,0,0:0:0:0:
350,83,44721,1,0,0:0:0:0:
383,261,45292,1,0,0:0:0:0:
220,141,45864,1,0,0:0:0:0:
111,226,46435,1,0,0:0:0:0:
369,107,47007,1,0,0:0:0:0:
298,75,47578,1,0,0:0:0:0:
243,56,48150,1,0,0:0:0:0:
181,49,48721,1,0,0:0:0:0:
32,352,49292,6,0,L|160:256,1,160
160,256,49864,6,0,L|288:352,1,160
288,352,50435,6,0,L|384:224,1,160
384,224,51007,6,0,L|224:160,1,160
233,163,51578,6,0,L|66:161,1,160
72,157,52150,6,0,L|222:95,1,160
221,92,52721,6,0,L|383:93,1,160
382,96,53292,6,0,L|211:93,1,160
203,55,53864,5,0,0:0:0:0:
241,60,54007,1,0,0:0:0:0:
274,82,54150,1,0,0:0:0:0:
295,116,54292,1,0,0:0:0:0:
294,157,54435,1,0,0:0:0:0:
269,184,54578,1,0,0:0:0:0:
229,193,54721,1,0,0:0:0:0:
196,184,54864,1,0,0:0:0:0:
183,164,55007,1,0,0:0:0:0:
180,142,55150,1,0,0:0:0:0:
180,132,55292,1,0,0:0:0:0:
186,123,55435,1,0,0:0:0:0:
191,119,55578,1,0,0:0:0:0:
197,116,55721,1,0,0:0:0:0:
202,115,55864,1,0,0:0:0:0:
207,114,56007,1,0,0:0:0:0:
174,11,56150,2,0,P|104:118|437:219,1,640
248,185,57542,1,0,0:0:0:0:
162,126,58114,5,0,0:0:0:0:
170,133,58400,2,0,L|363:305,2,240
248,197,60150,1,0,0:0:0:0:
349,129,60721,2,0,L|149:274,2,240
254,193,62435,1,0,0:0:0:0:
165,144,63007,2,0,P|123:218|249:271,2,240
207,200,64721,1,0,0:0:0:0:
201,133,65292,2,0,P|301:135|270:250,2,240
136,93,66685,1,0,0:0:0:0:
177,137,66828,1,0,0:0:0:0:
215,102,66971,1,0,0:0:0:0:
379,130,67542,6,0,B|228:173|546:266|324:268,2,240
324,139,69257,1,0,0:0:0:0:
94,232,69864,2,0,B|161:235|161:235|187:302|187:302|223:228|223:228|260:228,2,240
123,123,71542,1,0,0:0:0:0:
108,255,72150,2,0,P|153:164|439:270,1,480
213,155,73828,1,0,0:0:0:0:
179,55,74435,2,0,B|304:162|304:162|151:162|151:162|280:288,1,480
256,150,76114,1,0,0:0:0:0:
252,254,77828,6,0,B|416:192|448:32|-32:32|224:352|374:345|438:68|288:128|263:138,1,500
158,200,79578,1,0,0:0:0:0:
230,169,80721,1,0,0:0:0:0:
331,223,81256,2,0,L|401:291,1,80
387,223,81685,2,0,L|326:278,1,80
331,223,82114,2,0,L|402:291,1,80
362,114,83007,1,0,0:0:0:0:
161,130,83578,2,0,B|159:292|159:292|321:294|321:294|320:128,1,480
95,177,85007,2,0,P|111:120|124:182,1,160
186,101,85846,5,0,0:0:0:0:
200,115,85990,1,0,0:0:0:0:
200,115,86132,1,0,0:0:0:0:
200,115,86239,1,0,0:0:0:0:
246,107,86721,1,0,0:0:0:0:
200,75,88114,1,0,0:0:0:0:
64,160,88542,1,0,0:0:0:0:
197,165,88971,5,0,0:0:0:0:
297,116,89864,1,0,0:0:0:0:
388,74,90400,1,0,0:0:0:0:
349,117,90829,1,0,0:0:0:0:
389,166,91257,1,0,0:0:0:0:
154,283,92150,1,0,0:0:0:0:
313,186,92721,1,0,0:0:0:0:
243,108,93150,1,0,0:0:0:0:
193,193,93578,1,0,0:0:0:0:
493,80,95007,1,0,0:0:0:0:
247,82,95435,1,0,0:0:0:0:
32,84,95864,1,0,0:0:0:0:
255,15,97292,1,0,0:0:0:0:
256,191,97721,1,0,0:0:0:0:
256,362,98150,1,0,0:0:0:0:
64,96,99578,1,0,0:0:0:0:
192,192,100007,1,0,0:0:0:0:
64,288,100435,1,0,0:0:0:0:
352,96,101864,1,0,0:0:0:0:
224,192,102292,1,0,0:0:0:0:
352,288,102721,1,0,0:0:0:0:
258,185,113828,5,0,0:0:0:0:
224,128,114399,1,0,0:0:0:0:
224,128,114685,1,0,0:0:0:0:
224,128,114971,1,0,0:0:0:0:
218,130,115542,1,0,0:0:0:0:
218,130,115828,1,0,0:0:0:0:
218,130,116114,1,0,0:0:0:0:
218,130,116685,1,0,0:0:0:0:
218,130,116971,1,0,0:0:0:0:
218,130,117257,1,0,0:0:0:0:
218,130,117828,1,0,0:0:0:0:
218,130,118114,1,0,0:0:0:0:
218,130,118400,1,0,0:0:0:0:
206,134,118972,1,0,0:0:0:0:
206,134,119257,1,0,0:0:0:0:
206,134,119542,1,0,0:0:0:0:
206,134,120115,1,0,0:0:0:0:
206,134,120400,1,0,0:0:0:0:
206,134,120685,1,0,0:0:0:0:
206,134,121256,1,0,0:0:0:0:
206,134,121542,1,0,0:0:0:0:
206,134,121828,1,0,0:0:0:0:
147,134,122400,1,0,0:0:0:0:
141,127,122686,1,0,0:0:0:0:
147,134,122829,1,0,0:0:0:0:
147,134,122972,1,0,0:0:0:0:
147,134,123115,1,0,0:0:0:0:
147,134,123257,1,0,0:0:0:0:
256,160,124114,1,0,0:0:0:0:
160,288,125257,1,0,0:0:0:0:
256,192,125864,12,0,130400,0:0:0:0:
168,38,131578,6,0,B|365:109|365:109|254:228|254:228|452:224|452:224|453:298,1,640
251,215,133292,1,0,0:0:0:0:
402,309,133864,6,0,B|195:277|195:277|281:139|281:139|88:180|88:180|87:91,1,640
279,135,135578,1,0,0:0:0:0:
123,353,136150,2,0,P|129:41|363:111,1,640
205,193,137864,1,0,0:0:0:0:
32,165,138435,2,0,P|314:295|343:51,1,640
249,63,139864,5,0,0:0:0:0:
287,62,140114,1,0,0:0:0:0:
320,64,140256,1,0,0:0:0:0:
352,64,140399,1,0,0:0:0:0:
384,64,140542,1,0,0:0:0:0:
384,64,140721,6,0,P|452:139|148:216,1,640
211,173,142115,1,0,0:0:0:0:
268,97,142257,1,0,0:0:0:0:
322,176,142400,1,0,0:0:0:0:
321,228,142686,1,0,0:0:0:0:
270,301,142829,1,0,0:0:0:0:
215,223,142972,2,0,P|440:310|361:43,1,640
119,209,144685,1,0,0:0:0:0:
185,150,144971,1,0,0:0:0:0:
249,208,145114,1,0,0:0:0:0:
328,139,145257,2,0,P|333:281|120:104,1,640
256,192,147578,12,0,148721,0:0:0:0:
194,127,149864,5,0,0:0:0:0:
335,135,150435,1,0,0:0:0:0:
212,215,151007,1,0,0:0:0:0:
338,247,151578,1,0,0:0:0:0:
407,145,152150,1,0,0:0:0:0:
310,104,152721,1,0,0:0:0:0:
248,42,153292,1,0,0:0:0:0:
144,146,153864,1,0,0:0:0:0:
362,153,154435,1,0,0:0:0:0:
201,238,154971,1,0,0:0:0:0:
301,273,155578,1,0,0:0:0:0:
191,314,156150,1,0,0:0:0:0:
293,265,156721,1,0,0:0:0:0:
192,213,157292,1,0,0:0:0:0:
324,155,157864,1,0,0:0:0:0:
223,116,158435,1,0,0:0:0:0:
96,32,159007,6,0,L|224:128,1,160
224,128,159578,6,0,L|256:288,1,160
256,288,160150,6,0,L|416:288,1,160
416,288,160721,6,0,L|320:160,1,160
320,160,161292,6,0,L|357:0,1,160
352,0,161828,6,0,L|192:0,1,160
192,0,162400,6,0,L|64:96,1,160
64,96,162971,6,0,L|192:192,1,160
294,144,163542,5,0,0:0:0:0:
289,179,163685,1,0,0:0:0:0:
263,202,163828,1,0,0:0:0:0:
233,215,163971,1,0,0:0:0:0:
200,205,164114,1,0,0:0:0:0:
174,182,164256,1,0,0:0:0:0:
153,156,164399,1,0,0:0:0:0:
146,124,164542,1,0,0:0:0:0:
166,99,164685,1,0,0:0:0:0:
194,80,164828,1,0,0:0:0:0:
217,73,164971,1,0,0:0:0:0:
250,72,165114,1,0,0:0:0:0:
275,93,165256,1,0,0:0:0:0:
292,122,165399,1,0,0:0:0:0:
286,161,165542,1,0,0:0:0:0:
267,189,165685,1,0,0:0:0:0:
256,192,165828,12,0,167578,0:0:0:0:
121,64,168150,6,0,P|201:137|342:161,2,240
246,81,169864,1,0,0:0:0:0:
246,83,170435,2,0,B|166:113|166:113|243:149|243:149|162:182,2,240
213,114,172150,1,0,0:0:0:0:
282,181,172721,2,0,B|252:101|252:101|216:178|216:178|184:99,2,240
281,235,174435,1,0,0:0:0:0:
109,82,175007,2,0,B|257:192|257:192|291:146,2,240
158,220,176721,5,0,0:0:0:0:
191,200,177257,1,0,0:0:0:0:
191,200,177435,1,0,0:0:0:0:
194,205,177578,1,0,0:0:0:0:
194,205,177721,2,0,L|384:352,1,240
322,219,179007,1,0,0:0:0:0:
152,87,179578,2,0,L|248:87,1,80
238,92,180007,2,0,L|238:189,1,80
238,172,180435,2,0,L|319:172,1,80
257,141,181292,1,0,0:0:0:0:
145,82,181864,2,0,P|191:67|247:98,1,100
237,87,182292,2,0,P|221:132|245:183,1,100
240,178,182721,2,0,P|286:187|327:163,1,80
265,216,183578,1,0,0:0:0:0:
131,75,184150,2,0,P|196:135|119:107,2,240
121,191,186435,2,0,P|137:111|185:200,3,240
252,190,188150,1,0,0:0:0:0:
130,86,188721,2,0,B|197:146|197:145|125:172|125:172|127:271,2,240
118,130,190435,1,0,0:0:0:0:
86,169,191007,2,0,B|152:169|152:169|185:110|185:110|233:179|233:179|273:179,2,240
289,224,192721,1,0,0:0:0:0:
225,177,193292,1,0,0:0:0:0:
224,133,193435,1,0,0:0:0:0:
297,176,193721,1,0,0:0:0:0:
296,139,193864,1,0,0:0:0:0:
243,236,194150,2,0,L|333:236,1,80
160,177,194721,2,0,P|163:120|171:178,1,160
127,220,195578,1,0,0:0:0:0:
199,152,196007,1,0,0:0:0:0:
269,210,196435,1,0,0:0:0:0:
250,167,197292,1,0,0:0:0:0:
132,166,197864,1,0,0:0:0:0:
131,74,198292,1,0,0:0:0:0:
250,75,198721,1,0,0:0:0:0:
110,130,199578,1,0,0:0:0:0:
160,192,200150,2,0,L|225:125,1,80
215,134,200578,2,0,L|279:198,1,80
254,194,201007,2,0,L|158:193,1,80
149,158,201864,1,0,0:0:0:0:
166,123,202435,2,0,P|209:61|333:141,2,240
136,167,203864,6,0,P|147:219|231:184,2,160
152,112,205292,1,0,0:0:0:0:
334,64,206150,1,0,0:0:0:0:
373,118,206292,1,0,0:0:0:0:
414,168,206435,1,0,0:0:0:0:
379,216,206721,1,0,0:0:0:0:
332,254,206863,1,0,0:0:0:0:
277,285,207006,1,0,0:0:0:0:
115,140,207400,1,0,0:0:0:0:
268,202,207828,1,0,0:0:0:0:
100,266,208721,1,0,0:0:0:0:
165,125,209292,1,0,0:0:0:0:
257,77,209721,1,0,0:0:0:0:
333,124,210150,1,0,0:0:0:0:
153,64,210721,1,0,0:0:0:0:
197,140,210864,1,0,0:0:0:0:
311,146,211007,1,0,0:0:0:0:
277,233,211292,1,0,0:0:0:0:
199,231,211435,1,0,0:0:0:0:
126,232,211578,1,0,0:0:0:0:
235,41,211971,1,0,0:0:0:0:
387,306,212399,1,0,0:0:0:0:
175,127,213292,1,0,0:0:0:0:
148,79,213864,1,0,0:0:0:0:
248,255,214257,1,0,0:0:0:0:
316,72,214686,1,0,0:0:0:0:
292,79,215292,1,0,0:0:0:0:
322,79,215435,1,0,0:0:0:0:
356,79,215578,1,0,0:0:0:0:
368,82,215863,1,0,0:0:0:0:
366,111,216006,1,0,0:0:0:0:
367,144,216149,1,0,0:0:0:0:
372,245,216542,1,0,0:0:0:0:
283,150,216971,1,0,0:0:0:0:
277,210,217864,1,0,0:0:0:0:
129,323,218435,1,0,0:0:0:0:
505,194,218864,1,0,0:0:0:0:
306,262,219292,1,0,0:0:0:0:
129,323,220150,1,0,0:0:0:0:
256,192,220721,12,0,223007,0:0:0:0:
