osu file format v14

[General]
AudioFilename: Porter Robinson - Sad Machine (KYLI - Flip)==.mp3
AudioLeadIn: 0
PreviewTime: 48149
Countdown: 0
SampleSet: Soft
StackLeniency: 1
Mode: 0
LetterboxInBreaks: 1
SkinPreference:Default
WidescreenStoryboard: 1

[Editor]
DistanceSpacing: 1
BeatDivisor: 4
GridSize: 32
TimelineZoom: 1

[Metadata]
Title:Sad Machine (KYLI - Flip)
TitleUnicode:Sad Machine (KYLI - Flip)
Artist:Porter Robinson
ArtistUnicode:Porter Robinson
Creator:LamboSan5545
Version:Easy
Source:
Tags:sad machine Porter Robinson
BeatmapID:1299432
BeatmapSetID:616112

[Difficulty]
HPDrainRate:0
CircleSize:2
OverallDifficulty:0
ApproachRate:0
SliderMultiplier:1.4
SliderTickRate:2

[Events]
//Background and Video events
0,0,"book2.jpg",0,0
//Break Periods
2,102921,112064
//Storyboard Layer 0 (Background)
//Storyboard Layer 1 (Fail)
//Storyboard Layer 2 (Pass)
//Storyboard Layer 3 (Foreground)
//Storyboard Layer 4 (Overlay)
//Storyboard Sound Samples

[TimingPoints]
4150,571.428571428571,4,2,0,100,1,0

[Colours]
Combo1 : 64,128,128
Combo2 : 194,132,255
Combo3 : 128,255,255
Combo4 : 128,255,128

[HitObjects]
213,30,4149,5,0,0:0:0:0:
92,141,5292,1,0,0:0:0:0:
276,216,6435,1,0,0:0:0:0:
86,312,7578,1,0,0:0:0:0:
372,305,8721,1,0,0:0:0:0:
436,46,9864,1,0,0:0:0:0:
46,31,11007,1,0,0:0:0:0:
257,189,12149,1,0,0:0:0:0:
71,61,13292,1,0,0:0:0:0:
108,67,14435,1,0,0:0:0:0:
132,75,15578,1,0,0:0:0:0:
66,120,15864,1,0,0:0:0:0:
299,125,16721,1,0,0:0:0:0:
290,139,17864,1,0,0:0:0:0:
227,330,19007,1,0,0:0:0:0:
227,330,20149,1,0,0:0:0:0:
448,64,21292,1,0,0:0:0:0:
448,192,21864,1,0,0:0:0:0:
448,288,22292,1,0,0:0:0:0:
352,288,22435,1,8,0:0:0:0:
256,288,22721,1,0,0:0:0:0:
160,320,23578,1,0,0:0:0:0:
160,224,24149,1,0,0:0:0:0:
256,160,24578,1,0,0:0:0:0:
256,64,24721,1,8,0:0:0:0:
480,64,25007,1,0,0:0:0:0:
480,160,25864,1,0,0:0:0:0:
480,256,26435,1,0,0:0:0:0:
352,256,26864,1,0,0:0:0:0:
224,256,27007,1,8,0:0:0:0:
224,160,27292,1,0,0:0:0:0:
320,160,28149,1,0,0:0:0:0:
320,160,28721,1,0,0:0:0:0:
320,224,29149,1,0,0:0:0:0:
224,224,29292,1,8,0:0:0:0:
224,128,29578,1,0,0:0:0:0:
384,96,30435,5,0,0:0:0:0:
192,96,31007,2,0,L|320:96,2,105
256,64,32721,1,0,0:0:0:0:
256,64,33292,2,0,L|256:177,2,105
256,192,35007,1,8,0:0:0:0:
256,192,35578,2,0,L|352:288,2,105
128,288,37292,1,8,0:0:0:0:
128,64,37864,2,0,P|128:128|160:192,2,105
256,192,39578,1,0,0:0:0:0:
448,64,40149,1,0,0:0:0:0:
256,64,40721,1,0,0:0:0:0:
64,64,41292,1,0,0:0:0:0:
64,224,41864,1,0,0:0:0:0:
256,224,42435,1,0,0:0:0:0:
448,224,43007,1,0,0:0:0:0:
448,64,43578,1,0,0:0:0:0:
256,64,44149,1,0,0:0:0:0:
256,192,44721,1,0,0:0:0:0:
448,192,45292,1,0,0:0:0:0:
448,352,45864,1,0,0:0:0:0:
256,352,46435,1,0,0:0:0:0:
256,192,47007,1,0,0:0:0:0:
128,192,47578,1,0,0:0:0:0:
0,192,48149,1,0,0:0:0:0:
128,192,48721,1,0,0:0:0:0:
160,160,49292,1,0,0:0:0:0:
192,128,49578,1,0,0:0:0:0:
224,128,49864,1,0,0:0:0:0:
224,128,50149,1,0,0:0:0:0:
224,128,50435,1,0,0:0:0:0:
224,128,50721,1,0,0:0:0:0:
256,160,51007,1,0,0:0:0:0:
256,160,51292,1,0,0:0:0:0:
256,160,51578,1,0,0:0:0:0:
256,160,51864,1,0,0:0:0:0:
256,160,52149,1,0,0:0:0:0:
256,160,52435,1,0,0:0:0:0:
256,160,52721,1,0,0:0:0:0:
256,160,53007,1,0,0:0:0:0:
256,160,53292,1,0,0:0:0:0:
256,160,53578,1,0,0:0:0:0:
64,32,53864,2,0,B|64:352|64:352|288:352|288:352|288:352|288:352|288:320,1,560
256,192,56149,12,0,57291,0:0:0:0:
224,32,58435,5,0,0:0:0:0:
288,96,58864,1,0,0:0:0:0:
160,96,59292,1,0,0:0:0:0:
160,64,60721,2,0,L|256:160,2,105
480,32,63007,1,0,0:0:0:0:
256,192,63435,1,0,0:0:0:0:
64,352,63864,1,0,0:0:0:0:
160,32,65292,2,0,B|96:96|96:96|224:96|224:96|224:96,1,210
256,192,67007,1,0,0:0:0:0:
96,160,67578,2,0,P|160:160|160:192,2,105
96,224,69292,1,0,0:0:0:0:
192,96,69864,1,0,0:0:0:0:
256,192,70292,1,0,0:0:0:0:
352,96,70721,1,0,0:0:0:0:
352,256,71578,1,0,0:0:0:0:
160,192,72149,2,0,B|256:96|256:96|304:166|304:166|315:185,1,210
224,256,73864,1,0,0:0:0:0:
352,32,74435,2,0,B|256:96|256:96|352:96|288:160,1,210
160,128,77864,2,0,B|64:128|64:224|128:224|160:224|224:224|224:96|64:96|132:114,1,280
256,320,79578,5,0,0:0:0:0:
256,192,80721,1,0,0:0:0:0:
384,192,81864,1,0,0:0:0:0:
384,320,83007,1,0,0:0:0:0:
384,192,84149,1,0,0:0:0:0:
384,32,85292,1,0,0:0:0:0:
192,32,86435,1,0,0:0:0:0:
0,32,87578,1,0,0:0:0:0:
0,192,88721,1,0,0:0:0:0:
0,352,89864,1,0,0:0:0:0:
256,352,91007,1,0,0:0:0:0:
256,192,92149,1,0,0:0:0:0:
256,192,92721,12,0,94435,0:0:0:0:
96,96,95007,5,0,0:0:0:0:
256,96,95435,1,0,0:0:0:0:
416,96,95864,1,0,0:0:0:0:
160,64,97292,2,0,L|160:192,2,105
160,64,99578,2,0,B|160:256|160:256|192:256,1,210
160,128,101864,1,0,0:0:0:0:
160,128,102292,1,0,0:0:0:0:
160,128,102721,1,0,0:0:0:0:
256,192,113864,5,0,0:0:0:0:
192,96,115007,1,0,0:0:0:0:
192,96,116149,1,0,0:0:0:0:
320,96,117292,1,0,0:0:0:0:
320,96,118435,1,0,0:0:0:0:
128,192,119578,1,0,0:0:0:0:
128,192,120721,1,0,0:0:0:0:
320,288,121864,1,0,0:0:0:0:
224,288,122435,1,0,0:0:0:0:
320,288,123007,1,0,0:0:0:0:
256,192,124721,1,0,0:0:0:0:
256,192,125292,1,0,0:0:0:0:
32,64,127007,1,0,0:0:0:0:
160,64,127578,1,0,0:0:0:0:
192,96,129292,1,0,0:0:0:0:
256,128,129864,1,0,0:0:0:0:
256,192,130435,12,0,131578,0:0:0:0:
0,192,131578,6,0,L|288:192,1,280
128,64,133864,2,0,L|128:352,1,280
32,352,136149,2,0,L|256:160,1,280
128,96,138435,2,0,P|192:192|96:160,1,280
256,192,140721,12,0,141864,0:0:0:0:
256,192,143007,12,0,144149,0:0:0:0:
256,192,145292,12,0,146435,0:0:0:0:
64,160,147578,6,0,B|160:128|160:128|160:192|160:192|256:128,1,280
96,96,149864,2,0,L|256:96,7,140
96,96,154435,2,0,L|224:192,2,140
160,96,156149,1,0,0:0:0:0:
256,96,156721,2,0,L|256:256,2,140
192,160,158435,1,0,0:0:0:0:
96,64,159007,6,0,L|128:128,1,70
127,126,159578,2,0,L|192:64,1,70
192,96,160149,2,0,L|256:160,1,70
256,160,160721,2,0,L|192:224,1,70
224,224,161292,2,0,L|288:256,1,70
286,255,161864,2,0,L|350:223,1,70
348,223,162435,2,0,L|349:126,1,70
352,160,163007,2,0,L|288:96,1,70
288,128,163578,1,0,0:0:0:0:
288,128,163721,1,0,0:0:0:0:
288,128,163864,1,0,0:0:0:0:
288,128,164007,1,0,0:0:0:0:
288,128,164149,1,0,0:0:0:0:
288,128,164292,1,0,0:0:0:0:
288,128,164435,1,0,0:0:0:0:
288,128,164578,1,0,0:0:0:0:
288,128,164721,1,0,0:0:0:0:
320,160,164864,1,0,0:0:0:0:
320,160,165007,1,0,0:0:0:0:
320,160,165150,1,0,0:0:0:0:
320,160,165293,1,0,0:0:0:0:
320,160,165436,1,0,0:0:0:0:
320,160,165578,1,0,0:0:0:0:
320,160,165721,1,0,0:0:0:0:
256,192,165864,12,0,168149,0:0:0:0:
160,128,168721,5,0,0:0:0:0:
352,160,169864,1,0,0:0:0:0:
192,224,171007,1,0,0:0:0:0:
384,320,172149,1,0,0:0:0:0:
96,320,173292,1,0,0:0:0:0:
96,96,174435,1,0,0:0:0:0:
384,96,175578,1,0,0:0:0:0:
384,192,176721,1,0,0:0:0:0:
256,192,177864,1,0,0:0:0:0:
96,192,179007,1,0,0:0:0:0:
256,192,180149,1,0,0:0:0:0:
384,192,181292,1,0,0:0:0:0:
416,96,182435,1,0,0:0:0:0:
128,96,183578,1,0,0:0:0:0:
128,320,184721,1,0,0:0:0:0:
256,320,186435,5,0,0:0:0:0:
256,320,186864,1,0,0:0:0:0:
256,320,187292,1,0,0:0:0:0:
256,320,187721,1,0,0:0:0:0:
192,160,188149,1,0,0:0:0:0:
256,320,189292,1,0,0:0:0:0:
384,256,190435,1,0,0:0:0:0:
160,192,191578,1,0,0:0:0:0:
320,192,192721,1,0,0:0:0:0:
320,96,193864,1,0,0:0:0:0:
160,96,195007,1,0,0:0:0:0:
96,160,196149,1,0,0:0:0:0:
256,192,197292,1,0,0:0:0:0:
384,160,198435,1,0,0:0:0:0:
256,96,199578,1,0,0:0:0:0:
416,64,200721,1,0,0:0:0:0:
288,224,201864,1,0,0:0:0:0:
224,224,203007,1,0,0:0:0:0:
212,71,203864,2,0,B|144:135|243:164|268:105|184:44|214:68,1,140
256,224,205292,1,0,0:0:0:0:
256,256,206435,1,0,0:0:0:0:
256,256,207578,1,0,0:0:0:0:
293,134,208721,1,0,0:0:0:0:
112,141,209864,1,0,0:0:0:0:
353,278,211007,1,0,0:0:0:0:
147,247,212149,1,0,0:0:0:0:
392,101,213292,1,0,0:0:0:0:
257,189,214435,1,0,0:0:0:0:
79,329,215578,1,0,0:0:0:0:
432,299,216721,1,0,0:0:0:0:
200,82,217864,1,0,0:0:0:0:
409,65,219007,1,0,0:0:0:0:
58,323,220149,1,0,0:0:0:0:
88,56,221292,1,0,0:0:0:0:
460,327,222435,1,0,0:0:0:0:
256,192,223007,12,0,226066,0:0:0:0:
