osu file format v14

[General]
AudioFilename: audio.mp3
AudioLeadIn: 0
PreviewTime: 146602
Countdown: 0
SampleSet: Normal
StackLeniency: 0.7
Mode: 2
LetterboxInBreaks: 0
WidescreenStoryboard: 0

[Editor]
DistanceSpacing: 1.5
BeatDivisor: 8
GridSize: 16
TimelineZoom: 1.7

[Metadata]
Title:Language (Xeuphoria Ver.)
TitleUnicode:Language (Xeuphoria Ver.)
Artist:Porter Robinson
ArtistUnicode:Porter Robinson
Creator:-Ken
Version:Rain
Source:
Tags:
BeatmapID:1524740
BeatmapSetID:722207

[Difficulty]
HPDrainRate:5
CircleSize:4
OverallDifficulty:8.3
ApproachRate:8.3
SliderMultiplier:1.8
SliderTickRate:4

[Events]
//Background and Video events
0,0,"11211123.png",0,0
//Break Periods
//Storyboard Layer 0 (Background)
//Storyboard Layer 1 (Fail)
//Storyboard Layer 2 (Pass)
//Storyboard Layer 3 (Foreground)
//Storyboard Sound Samples

[TimingPoints]
2977,750,4,1,0,20,1,0
10477,-76.9230769230769,4,1,0,20,0,0
11602,-100,4,1,0,20,0,0
17977,-66.6666666666667,4,1,0,20,0,0
50977,-100,4,1,0,20,0,0
98977,-55.5555555555556,4,1,0,30,0,1
161977,-50,4,1,0,30,0,1
163289,-55.5555555555556,4,1,0,30,0,1
193102,-76.9230769230769,4,1,0,30,0,0

[Colours]
Combo1 : 34,181,82
Combo2 : 0,128,128

[HitObjects]
64,224,2977,5,0,0:0:0:0:
192,176,3352,1,0,0:0:0:0:
320,160,3727,1,0,0:0:0:0:
448,176,4102,1,0,0:0:0:0:
192,144,4852,2,0,L|288:144,2,90
448,224,5977,5,0,0:0:0:0:
320,176,6352,1,0,0:0:0:0:
192,160,6727,1,0,0:0:0:0:
64,176,7102,2,0,B|0:240|0:240|112:320|144:224,1,270
400,224,8977,5,0,0:0:0:0:
256,176,9352,1,0,0:0:0:0:
400,128,9727,1,0,0:0:0:0:
256,80,10102,1,0,0:0:0:0:
400,192,10477,2,0,L|224:192,2,175.499991966248
80,224,12727,5,0,0:0:0:0:
256,224,13102,1,0,0:0:0:0:
432,224,13477,1,0,0:0:0:0:
256,224,13852,1,0,0:0:0:0:
80,224,14227,1,0,0:0:0:0:
256,224,14602,2,0,L|352:224,1,90
144,208,15352,1,0,0:0:0:0:
320,192,15727,1,0,0:0:0:0:
144,208,16102,6,0,P|64:208|144:112,1,270
320,112,17602,1,0,0:0:0:0:
144,176,17977,6,0,B|80:176|80:176|256:96|256:96|80:96,1,405.000015449525
128,208,20602,2,0,L|128:128,1,67.5000025749208
272,128,20977,1,0,0:0:0:0:
464,128,21352,1,0,0:0:0:0:
64,192,23227,6,0,L|208:192,2,135.000005149842
464,192,26227,1,0,0:0:0:0:
48,224,26977,5,0,0:0:0:0:
208,160,27352,1,0,0:0:0:0:
368,128,27727,1,0,0:0:0:0:
208,160,28102,1,0,0:0:0:0:
368,128,28477,1,0,0:0:0:0:
128,112,28852,1,0,0:0:0:0:
80,112,29039,1,0,0:0:0:0:
128,112,29227,1,0,0:0:0:0:
320,112,29602,6,0,L|480:112,1,135.000005149842
384,112,30164,2,0,L|240:112,1,135.000005149842
320,112,30727,1,0,0:0:0:0:
464,112,31102,2,0,B|464:256|464:256|336:256|336:256|480:256|480:256|480:384,1,540.000020599366
288,272,32977,6,0,L|128:272,1,135.000005149842
320,176,33727,2,0,L|176:176,1,135.000005149842
432,96,34477,1,0,0:0:0:0:
80,144,35414,1,0,0:0:0:0:
64,80,35602,1,0,0:0:0:0:
416,64,37102,1,0,0:0:0:0:
128,128,37852,5,0,0:0:0:0:
336,128,38227,2,0,L|336:288,1,135.000005149842
96,144,38977,2,0,L|96:0,1,135.000005149842
304,64,39727,1,0,0:0:0:0:
464,64,40102,1,0,0:0:0:0:
464,64,40852,5,0,0:0:0:0:
304,64,41227,1,0,0:0:0:0:
96,48,41602,2,0,P|32:80|144:304,1,405.000015449525
272,256,43102,1,0,0:0:0:0:
128,176,43477,1,0,0:0:0:0:
336,160,43852,1,0,0:0:0:0:
144,96,44227,6,0,L|432:96,1,270.000010299683
256,160,45352,1,0,0:0:0:0:
32,192,46102,5,0,0:0:0:0:
224,176,46477,2,0,L|64:176,1,135.000005149842
304,96,47227,2,0,L|144:96,1,135.000005149842
448,64,47977,1,0,0:0:0:0:
64,160,49477,1,0,0:0:0:0:
400,256,50977,6,0,L|416:160,1,90
272,208,51727,6,0,L|256:112,1,90
400,64,52477,1,0,0:0:0:0:
324,108,52852,1,0,0:0:0:0:
299,193,53227,1,0,0:0:0:0:
337,272,53602,1,0,0:0:0:0:
419,304,53977,1,0,0:0:0:0:
176,288,54352,2,0,L|272:272,1,90
64,208,55102,2,0,L|160:176,1,90
336,176,55852,2,0,L|272:112,1,90
416,96,56602,1,0,0:0:0:0:
112,144,56977,6,0,L|208:144,1,90
48,144,57727,1,0,0:0:0:0:
208,208,58102,1,0,0:0:0:0:
32,224,58477,1,0,0:0:0:0:
240,272,58852,1,0,0:0:0:0:
32,288,59227,1,0,0:0:0:0:
256,336,59602,1,0,0:0:0:0:
16,352,59977,1,0,0:0:0:0:
272,352,60352,1,0,0:0:0:0:
16,320,60727,1,0,0:0:0:0:
192,304,61102,5,0,0:0:0:0:
64,256,61477,1,0,0:0:0:0:
256,240,61852,1,0,0:0:0:0:
384,240,62227,5,0,0:0:0:0:
192,176,62602,1,0,0:0:0:0:
336,160,62977,1,0,0:0:0:0:
160,96,63352,1,0,0:0:0:0:
352,80,63727,5,0,0:0:0:0:
160,160,64102,1,0,0:0:0:0:
160,192,64477,1,0,0:0:0:0:
384,208,64852,1,0,0:0:0:0:
384,176,65227,1,0,0:0:0:0:
160,112,65602,1,0,0:0:0:0:
336,112,65977,1,0,0:0:0:0:
96,192,66352,5,0,0:0:0:0:
320,192,66727,1,0,0:0:0:0:
144,256,67102,1,0,0:0:0:0:
320,272,67477,1,0,0:0:0:0:
192,192,67852,1,0,0:0:0:0:
352,192,68227,1,0,0:0:0:0:
240,144,68602,1,0,0:0:0:0:
480,128,68977,5,0,0:0:0:0:
16,112,70102,1,0,0:0:0:0:
192,112,70477,5,0,0:0:0:0:
192,112,70852,1,0,0:0:0:0:
384,112,71227,1,0,0:0:0:0:
384,112,71602,1,0,0:0:0:0:
176,160,71977,1,0,0:0:0:0:
128,160,72352,1,0,0:0:0:0:
304,128,72727,1,0,0:0:0:0:
400,96,73102,5,0,0:0:0:0:
176,96,73477,1,0,0:0:0:0:
336,176,73852,1,0,0:0:0:0:
128,176,74227,1,0,0:0:0:0:
320,272,74602,1,0,0:0:0:0:
80,256,74977,1,0,0:0:0:0:
496,80,76102,1,0,0:0:0:0:
48,144,80227,5,0,0:0:0:0:
448,144,80977,2,0,L|448:336,1,180
160,304,82102,2,0,L|160:112,1,180
464,128,83227,1,0,0:0:0:0:
48,144,84352,1,0,0:0:0:0:
368,96,85102,1,0,0:0:0:0:
144,80,85477,6,0,L|144:176,1,90
256,80,86227,2,0,L|256:176,1,90
368,80,86977,2,0,L|368:176,1,90
128,80,87727,2,0,L|128:176,1,90
384,192,88477,5,0,0:0:0:0:
256,192,88852,1,0,0:0:0:0:
448,176,89227,1,0,0:0:0:0:
256,144,89602,2,0,L|256:96,1,45
448,112,89977,2,0,L|448:64,1,45
256,64,90352,1,0,0:0:0:0:
128,128,90727,2,0,L|224:128,2,90
48,128,91664,1,0,0:0:0:0:
208,128,91852,1,0,0:0:0:0:
288,128,92039,1,0,0:0:0:0:
368,128,92227,1,0,0:0:0:0:
64,112,92602,6,0,L|64:208,1,90
272,224,93352,1,0,0:0:0:0:
64,240,93727,1,0,0:0:0:0:
262,223,94102,1,0,0:0:0:0:
300,205,94289,1,0,0:0:0:0:
305,163,94477,1,0,0:0:0:0:
270,139,94664,1,0,0:0:0:0:
231,147,94852,1,0,0:0:0:0:
16,112,95227,6,0,L|112:112,1,90
208,112,95789,1,0,0:0:0:0:
384,112,95977,2,0,L|448:112,2,45
48,112,96727,1,0,0:0:0:0:
32,208,98977,6,0,L|208:208,1,161.999995056153
416,208,99727,6,0,L|416:112,1,80.9999975280763
96,176,100102,2,0,L|96:96,1,80.9999975280763
432,80,100477,2,0,L|240:80,1,161.999995056153
48,80,101227,1,0,0:0:0:0:
304,80,101414,2,0,L|352:80,2,40.4999987640381
48,80,101789,1,0,0:0:0:0:
176,80,101977,6,0,L|176:176,1,80.9999975280763
432,256,102352,2,0,L|432:80,1,161.999995056153
256,96,102914,1,0,0:0:0:0:
112,160,103102,1,0,0:0:0:0:
256,160,103289,1,0,0:0:0:0:
112,160,103477,6,0,L|112:256,1,80.9999975280763
400,240,103852,6,0,L|400:64,1,161.999995056153
144,96,104414,2,0,L|80:96,2,40.4999987640381
400,80,104789,1,0,0:0:0:0:
256,48,104977,6,0,L|160:48,1,80.9999975280763
480,80,105352,2,0,L|480:256,1,161.999995056153
320,240,105914,1,0,0:0:0:0:
480,176,106102,1,0,0:0:0:0:
320,192,106289,1,0,0:0:0:0:
160,192,106477,2,0,L|160:272,1,80.9999975280763
416,192,106852,6,0,L|416:16,1,161.999995056153
144,64,107414,2,0,L|96:64,2,40.4999987640381
400,32,107789,1,0,0:0:0:0:
256,80,107977,6,0,L|336:80,1,80.9999975280763
32,96,108352,2,0,L|32:272,1,161.999995056153
144,256,108914,1,0,0:0:0:0:
256,256,109102,1,0,0:0:0:0:
368,256,109289,1,0,0:0:0:0:
464,256,109477,6,0,L|368:256,1,80.9999975280763
80,272,109852,2,0,P|48:224|128:192,1,161.999995056153
384,192,110414,1,0,0:0:0:0:
424,192,110507,1,0,0:0:0:0:
465,192,110601,1,0,0:0:0:0:
96,192,110789,6,0,L|0:192,2,80.9999975280763
272,176,111352,1,0,0:0:0:0:
320,80,111539,1,0,0:0:0:0:
128,96,111727,1,0,0:0:0:0:
114,16,111914,1,0,0:0:0:0:
288,16,112102,2,0,L|368:16,1,80.9999975280763
32,64,112477,6,0,L|32:240,1,161.999995056153
176,224,113039,1,0,0:0:0:0:
32,224,113227,1,0,0:0:0:0:
288,208,113414,2,0,L|336:208,2,40.4999987640381
32,224,113789,1,0,0:0:0:0:
160,224,113977,5,0,0:0:0:0:
32,160,114164,1,0,0:0:0:0:
416,240,114352,2,0,P|448:208|384:128,1,161.999995056153
208,128,114914,2,0,L|112:128,2,80.9999975280763
368,128,115477,6,0,L|368:48,1,80.9999975280763
112,64,115852,2,0,P|64:128|128:160,1,161.999995056153
368,160,116414,1,0,0:0:0:0:
416,160,116508,1,0,0:0:0:0:
464,160,116602,1,0,0:0:0:0:
96,160,116789,6,0,L|15:160,2,80.9999975280763
400,160,117352,2,0,B|480:160|480:160|384:160,1,161.999995056153
256,160,117914,1,0,0:0:0:0:
400,176,118102,1,0,0:0:0:0:
512,288,118289,1,0,0:0:0:0:
368,304,118477,2,0,L|400:208,1,80.9999975280763
32,304,118852,6,0,P|16:208|64:128,1,161.999995056153
307,146,119414,2,0,L|355:146,2,40.4999987640381
48,144,119789,1,0,0:0:0:0:
176,128,119977,6,0,L|80:112,1,80.9999975280763
272,96,120352,1,0,0:0:0:0:
0,64,120539,1,0,0:0:0:0:
302,37,120727,1,0,0:0:0:0:
464,112,120914,1,0,0:0:0:0:
464,240,121102,1,0,0:0:0:0:
304,304,121289,1,0,0:0:0:0:
144,336,121477,6,0,L|192:256,1,80.9999975280763
448,256,121852,2,0,P|480:192|432:80,1,161.999995056153
144,128,122414,2,0,L|144:181,1,40.4999987640381
214,164,122602,1,0,0:0:0:0:
480,144,122789,6,0,L|400:144,2,80.9999975280763
96,144,123352,2,0,B|16:144|16:144|112:144,1,161.999995056153
208,144,123914,1,0,0:0:0:0:
320,144,124102,1,0,0:0:0:0:
431,144,124289,1,0,0:0:0:0:
512,144,124477,6,0,L|416:144,1,80.9999975280763
80,128,124852,2,0,P|32:192|80:192,1,161.999995056153
320,288,125414,1,0,0:0:0:0:
279,288,125507,1,0,0:0:0:0:
239,288,125601,1,0,0:0:0:0:
496,288,125789,1,0,0:0:0:0:
384,288,125977,5,0,0:0:0:0:
496,288,126164,1,0,0:0:0:0:
96,288,126352,2,0,P|48:256|128:192,1,161.999995056153
240,160,126914,1,0,0:0:0:0:
96,128,127102,1,0,0:0:0:0:
240,96,127289,1,0,0:0:0:0:
96,48,127477,2,0,L|96:160,1,80.9999975280763
384,64,127852,6,0,B|464:64|464:64|368:64,1,161.999995056153
125,80,128414,2,0,L|48:80,2,40.4999987640381
384,64,128789,6,0,L|480:64,2,80.9999975280763
128,64,129352,2,0,P|48:96|32:176,1,161.999995056153
192,160,129914,2,0,L|96:160,2,80.9999975280763
464,144,130477,6,0,L|384:144,1,80.9999975280763
128,64,130852,6,0,B|48:64|48:64|144:64,1,161.999995056153
386,65,131414,2,0,L|434:65,2,40.4999987640381
128,64,131789,6,0,L|16:64,2,80.9999975280763
432,64,132352,2,0,L|432:256,1,161.999995056153
256,224,132914,2,0,L|352:224,1,80.9999975280763
144,176,133289,6,0,L|240:176,2,80.9999975280763
448,192,133852,2,0,L|448:16,1,161.999995056153
192,96,134414,1,0,0:0:0:0:
151,96,134507,1,0,0:0:0:0:
111,96,134601,1,0,0:0:0:0:
464,96,134789,2,0,L|464:176,1,80.9999975280763
336,176,135164,1,0,0:0:0:0:
80,176,135352,6,0,P|64:128|160:128,1,161.999995056153
304,160,135914,2,0,L|208:160,2,80.9999975280763
32,192,136477,2,0,L|128:192,1,80.9999975280763
432,208,136852,6,0,P|464:176|384:96,1,161.999995056153
128,144,137414,2,0,L|128:96,1,40.4999987640381
128,144,137602,1,0,0:0:0:0:
400,144,137789,6,0,L|480:144,2,80.9999975280763
112,192,138352,2,0,P|48:192|48:96,1,161.999995056153
192,96,138914,2,0,L|288:96,1,80.9999975280763
96,64,139289,6,0,L|16:64,2,80.9999975280763
368,64,139852,6,0,B|448:64|448:64|352:64,1,161.999995056153
109,65,140414,1,0,0:0:0:0:
109,105,140507,1,0,0:0:0:0:
109,146,140601,1,0,0:0:0:0:
384,144,140789,1,0,0:0:0:0:
496,144,140977,5,0,0:0:0:0:
496,48,141164,1,0,0:0:0:0:
144,64,141352,6,0,P|80:96|144:144,1,161.999995056153
288,96,141914,2,0,L|384:96,1,80.9999975280763
208,48,142289,6,0,L|304:48,2,80.9999975280763
496,48,142852,2,0,L|496:224,1,161.999995056153
240,176,143414,2,0,L|176:176,2,40.4999987640381
496,240,143789,1,0,0:0:0:0:
384,240,143977,5,0,0:0:0:0:
272,240,144164,1,0,0:0:0:0:
384,192,144352,1,0,0:0:0:0:
112,176,144539,1,0,0:0:0:0:
384,192,144727,1,0,0:0:0:0:
240,160,144914,1,0,0:0:0:0:
384,96,145102,1,0,0:0:0:0:
80,80,145289,6,0,L|80:192,1,80.9999975280763
224,192,145664,1,0,0:0:0:0:
80,80,145852,2,0,P|48:144|96:144,1,121.499996292114
352,192,146227,6,0,L|352:96,1,80.9999975280763
48,192,146602,2,0,L|48:80,1,80.9999975280763
368,240,146977,5,0,0:0:0:0:
444,224,147164,1,0,0:0:0:0:
473,152,147352,1,0,0:0:0:0:
429,88,147539,1,0,0:0:0:0:
128,224,147727,5,0,0:0:0:0:
50,217,147914,1,0,0:0:0:0:
6,151,148102,1,0,0:0:0:0:
31,77,148289,1,0,0:0:0:0:
160,128,148477,5,0,0:0:0:0:
85,133,148664,1,0,0:0:0:0:
70,60,148852,1,0,0:0:0:0:
140,35,149039,1,0,0:0:0:0:
400,48,149227,1,0,0:0:0:0:
272,64,149414,1,0,0:0:0:0:
312,64,149507,1,0,0:0:0:0:
353,64,149601,1,0,0:0:0:0:
16,48,149789,1,0,0:0:0:0:
320,128,149977,5,0,0:0:0:0:
360,198,150164,1,0,0:0:0:0:
400,268,150352,1,0,0:0:0:0:
440,338,150539,1,0,0:0:0:0:
16,336,150727,5,0,0:0:0:0:
128,288,150914,1,0,0:0:0:0:
240,256,151102,1,0,0:0:0:0:
352,240,151289,1,0,0:0:0:0:
224,256,151477,5,0,0:0:0:0:
149,238,151664,1,0,0:0:0:0:
138,162,151852,1,0,0:0:0:0:
203,123,152039,1,0,0:0:0:0:
448,112,152227,5,0,0:0:0:0:
320,112,152414,1,0,0:0:0:0:
360,112,152507,1,0,0:0:0:0:
401,112,152601,1,0,0:0:0:0:
112,192,152789,1,0,0:0:0:0:
400,288,152977,5,0,0:0:0:0:
496,224,153164,1,0,0:0:0:0:
352,224,153352,1,0,0:0:0:0:
432,160,153539,1,0,0:0:0:0:
128,288,153727,5,0,0:0:0:0:
32,224,153914,1,0,0:0:0:0:
176,224,154102,1,0,0:0:0:0:
96,160,154289,1,0,0:0:0:0:
192,128,154477,5,0,0:0:0:0:
32,128,154664,1,0,0:0:0:0:
176,64,154852,1,0,0:0:0:0:
64,80,155039,1,0,0:0:0:0:
192,80,155227,5,0,0:0:0:0:
448,176,155414,2,0,L|496:176,2,40.4999987640381
176,192,155789,1,0,0:0:0:0:
448,240,155977,5,0,0:0:0:0:
352,208,156164,1,0,0:0:0:0:
352,128,156352,1,0,0:0:0:0:
448,80,156539,1,0,0:0:0:0:
176,208,156727,5,0,0:0:0:0:
104,175,156914,1,0,0:0:0:0:
84,98,157102,1,0,0:0:0:0:
130,35,157289,1,0,0:0:0:0:
320,160,157477,5,0,0:0:0:0:
389,130,157664,1,0,0:0:0:0:
382,56,157852,1,0,0:0:0:0:
309,40,158039,1,0,0:0:0:0:
32,112,158227,5,0,0:0:0:0:
176,112,158414,1,0,0:0:0:0:
128,112,158507,1,0,0:0:0:0:
80,112,158601,1,0,0:0:0:0:
400,112,158789,1,0,0:0:0:0:
112,208,158977,6,0,L|0:208,1,80.9999975280763
224,144,159352,2,0,L|112:144,1,80.9999975280763
400,208,159727,6,0,L|512:208,1,80.9999975280763
288,144,160102,2,0,L|400:144,1,80.9999975280763
176,80,160477,2,0,L|288:80,1,80.9999975280763
64,16,160852,2,0,L|176:16,2,80.9999975280763
320,32,161414,2,0,L|384:32,2,40.4999987640381
48,48,161789,1,0,0:0:0:0:
352,192,161977,6,0,L|464:192,3,90
144,192,162727,6,0,L|32:192,3,90
384,208,163477,1,0,0:0:0:0:
459,212,163664,1,0,0:0:0:0:
488,141,163852,1,0,0:0:0:0:
431,91,164039,1,0,0:0:0:0:
176,192,164227,5,0,0:0:0:0:
288,192,164414,2,0,L|336:192,2,40.4999987640381
0,192,164789,1,0,0:0:0:0:
336,256,164977,5,0,0:0:0:0:
286,192,165164,1,0,0:0:0:0:
212,162,165352,1,0,0:0:0:0:
133,173,165539,1,0,0:0:0:0:
400,224,165727,5,0,0:0:0:0:
464,184,165914,1,0,0:0:0:0:
443,111,166102,1,0,0:0:0:0:
367,112,166289,1,0,0:0:0:0:
192,224,166477,5,0,0:0:0:0:
127,184,166664,1,0,0:0:0:0:
148,111,166852,1,0,0:0:0:0:
224,112,167039,1,0,0:0:0:0:
480,112,167227,5,0,0:0:0:0:
352,112,167414,2,0,L|352:64,1,40.4999987640381
416,64,167602,1,0,0:0:0:0:
128,64,167789,1,0,0:0:0:0:
448,256,167977,6,0,L|496:160,1,80.9999975280763
304,192,168352,2,0,L|336:96,1,80.9999975280763
64,256,168727,6,0,L|16:160,1,80.9999975280763
208,192,169102,2,0,L|176:96,1,80.9999975280763
320,112,169477,5,0,0:0:0:0:
387,149,169664,1,0,0:0:0:0:
391,227,169852,1,0,0:0:0:0:
328,271,170039,1,0,0:0:0:0:
32,112,170227,5,0,0:0:0:0:
160,112,170414,2,0,L|160:64,1,40.4999987640381
96,64,170602,1,0,0:0:0:0:
384,64,170789,1,0,0:0:0:0:
80,256,170977,5,0,0:0:0:0:
192,256,171164,1,0,0:0:0:0:
192,192,171352,1,0,0:0:0:0:
80,192,171539,1,0,0:0:0:0:
352,256,171727,5,0,0:0:0:0:
464,256,171914,1,0,0:0:0:0:
464,192,172102,1,0,0:0:0:0:
352,192,172289,1,0,0:0:0:0:
240,192,172477,2,0,L|240:96,1,80.9999975280763
432,128,172852,2,0,L|432:32,1,80.9999975280763
80,96,173227,5,0,0:0:0:0:
224,96,173414,1,0,0:0:0:0:
167,96,173507,1,0,0:0:0:0:
112,96,173601,1,0,0:0:0:0:
416,96,173789,1,0,0:0:0:0:
80,208,173977,5,0,0:0:0:0:
240,208,174164,1,0,0:0:0:0:
80,208,174352,1,0,0:0:0:0:
80,112,174539,1,0,0:0:0:0:
432,208,174727,5,0,0:0:0:0:
272,208,174914,1,0,0:0:0:0:
432,208,175102,1,0,0:0:0:0:
432,112,175289,1,0,0:0:0:0:
272,112,175477,5,0,0:0:0:0:
272,208,175664,1,0,0:0:0:0:
112,208,175852,1,0,0:0:0:0:
112,112,176039,1,0,0:0:0:0:
368,112,176227,1,0,0:0:0:0:
240,112,176414,2,0,L|192:112,2,40.4999987640381
496,112,176789,1,0,0:0:0:0:
64,256,176977,6,0,L|64:160,1,80.9999975280763
208,176,177352,2,0,L|224:64,1,80.9999975280763
496,256,177727,6,0,L|496:160,1,80.9999975280763
352,176,178102,2,0,L|336:64,1,80.9999975280763
496,192,178477,1,0,0:0:0:0:
368,224,178664,1,0,0:0:0:0:
368,112,178852,1,0,0:0:0:0:
496,96,179039,1,0,0:0:0:0:
176,112,179227,5,0,0:0:0:0:
304,112,179414,2,0,L|352:112,2,40.4999987640381
0,96,179789,1,0,0:0:0:0:
288,208,179977,6,0,L|368:208,1,80.9999975280763
176,256,180352,2,0,P|176:160|208:176,1,161.999995056153
320,144,180914,1,0,0:0:0:0:
176,160,181102,1,0,0:0:0:0:
320,144,181289,1,0,0:0:0:0:
128,192,181477,5,0,0:0:0:0:
55,183,181664,1,0,0:0:0:0:
61,110,181852,1,0,0:0:0:0:
134,113,182039,1,0,0:0:0:0:
416,160,182227,5,0,0:0:0:0:
144,144,182414,1,0,0:0:0:0:
16,144,182602,1,0,0:0:0:0:
144,144,182789,1,0,0:0:0:0:
400,128,182977,6,0,L|480:128,1,80.9999975280763
400,224,183352,2,0,L|481:224,1,80.9999975280763
144,112,183727,5,0,0:0:0:0:
76,146,183914,1,0,0:0:0:0:
68,223,184102,1,0,0:0:0:0:
129,271,184289,1,0,0:0:0:0:
320,224,184477,5,0,0:0:0:0:
239,224,184664,1,0,0:0:0:0:
158,224,184852,1,0,0:0:0:0:
77,224,185039,1,0,0:0:0:0:
336,224,185227,5,0,0:0:0:0:
480,192,185414,2,0,L|480:240,2,40.4999987640381
144,160,185789,1,0,0:0:0:0:
400,144,185977,6,0,L|480:144,1,80.9999975280763
320,80,186352,2,0,L|416:80,1,80.9999975280763
112,144,186727,6,0,L|32:144,1,80.9999975280763
192,80,187102,2,0,L|96:80,1,80.9999975280763
272,80,187477,5,0,0:0:0:0:
323,138,187664,1,0,0:0:0:0:
311,216,187852,1,0,0:0:0:0:
244,256,188039,1,0,0:0:0:0:
48,272,188227,1,0,0:0:0:0:
368,272,188414,2,0,L|448:272,2,80.9999975280763
48,272,188977,6,0,L|144:256,1,80.9999975280763
288,208,189352,2,0,L|192:208,1,80.9999975280763
496,144,189727,2,0,L|416:144,1,80.9999975280763
256,144,190102,2,0,L|336:144,1,80.9999975280763
160,144,190477,2,0,L|64:144,1,80.9999975280763
352,144,190852,2,0,L|464:144,1,80.9999975280763
160,144,191227,5,0,0:0:0:0:
272,144,191414,1,0,0:0:0:0:
312,144,191507,1,0,0:0:0:0:
353,144,191601,1,0,0:0:0:0:
48,144,191789,1,0,0:0:0:0:
432,208,191977,2,0,L|256:208,2,161.999995056153
176,256,193102,6,0,B|176:208|176:208|64:208|64:208|176:176|176:176|176:192|176:192|176:144|176:144|272:128|272:128|176:96|176:96|176:144,1,584.999973220826
