osu file format v14

[General]
AudioFilename: audio.mp3
AudioLeadIn: 0
PreviewTime: 105027
Countdown: 0
SampleSet: Soft
StackLeniency: 0.8
Mode: 0
LetterboxInBreaks: 0
WidescreenStoryboard: 0

[Editor]
Bookmarks: 45032,60032,75032,103157,161282,163157,163777,178152,195032,217532,225032,255032,270032,285032,300266,320652,326277,326745
DistanceSpacing: 1
BeatDivisor: 3
GridSize: 8
TimelineZoom: 1

[Metadata]
Title:Goodbye To a World
TitleUnicode:Goodbye To a World
Artist:Porter Robinson
ArtistUnicode:Porter Robinson
Creator:Tilt on English
Version:Console.Writeline("Goodbye, World!");
Source:
Tags:porter robinson goodbye to a world electronic vocaloid
BeatmapID:1363361
BeatmapSetID:643135

[Difficulty]
HPDrainRate:7
CircleSize:3.5
OverallDifficulty:7
ApproachRate:10
SliderMultiplier:1.6
SliderTickRate:1

[Events]
//Background and Video events
0,0,"CufFmp4.jpg",0,0
//Break Periods
//Storyboard Layer 0 (Background)
//Storyboard Layer 1 (Fail)
//Storyboard Layer 2 (Pass)
//Storyboard Layer 3 (Foreground)
//Storyboard Sound Samples

[TimingPoints]
27,468.75,4,2,0,40,1,0
104089,-100,4,2,0,80,0,0
104563,-62.5,4,3,0,100,0,1
105032,-100,4,2,0,100,0,0
108777,-133.333333333333,4,2,0,10,0,0
147058,-200,4,2,0,10,0,0
149402,-133.333333333333,4,2,0,10,0,0
163152,-100,4,1,0,30,0,0
165027,-133.333333333333,4,1,0,30,0,0
165964,-100,4,1,0,30,0,0
166902,-133.333333333333,4,1,0,30,0,0
167839,-100,4,1,0,30,0,0
168777,-133.333333333333,4,1,0,30,0,0
169714,-100,4,1,0,30,0,0
170652,-133.333333333333,4,1,0,30,0,0
173464,-100,4,1,0,30,0,0
174402,-133.333333333333,4,1,0,30,0,0
175339,-100,4,1,0,30,0,0
176277,-66.6666666666667,4,1,0,30,0,0
180027,-133.333333333333,4,1,0,30,0,0
180964,-100,4,1,0,30,0,0
181902,-133.333333333333,4,1,0,30,0,0
182839,-100,4,1,0,30,0,0
183777,-133.333333333333,4,1,0,30,0,0
184714,-100,4,1,0,30,0,0
185648,-133.333333333333,4,1,0,30,0,0
188464,-100,4,1,0,30,0,0
225032,-100,4,1,0,100,0,1
225500,-100,4,1,0,100,0,0
225969,-100,4,1,0,100,0,1
226438,-100,4,1,0,100,0,0
226907,-100,4,1,0,100,0,1
239563,-100,4,1,0,100,0,0
240032,-100,4,1,0,100,0,1
240500,-100,4,1,0,100,0,0
240969,-100,4,1,0,100,0,1
241438,-100,4,1,0,100,0,0
241907,-100,4,1,0,100,0,1
242375,-100,4,1,0,100,0,0
242844,-100,4,1,0,100,0,1
254563,-100,4,1,0,100,0,0

[HitObjects]
72,352,27,6,0,B|136:272|96:200|32:128|152:16,1,320
392,136,2839,6,0,P|408:200|392:280,2,106.666666666667
336,96,3777,2,0,P|168:88|40:184,1,320
96,240,6589,6,0,P|64:312|56:344,2,106.666666666667
104,224,7527,2,0,P|152:216|232:248,1,106.666666666667
304,280,8152,6,0,L|288:344,1,60
400,64,10339,5,0,0:0:0:0:
280,56,10652,1,0,0:0:0:0:
160,48,10964,1,0,0:0:0:0:
48,32,11277,2,0,B|80:96|32:192|32:192|-8:272|64:368,1,320
208,328,13152,2,0,B|288:344|336:312|336:312|400:352|464:232|384:208,1,320
384,56,15027,6,0,B|440:128|440:128|376:104|296:88|208:128,1,320
112,128,17839,6,0,P|88:96|72:32,2,106.666666666667
120,136,18777,2,0,B|144:192|64:240|64:240|136:288|224:256|224:256|200:216,1,320
384,288,21589,6,0,P|432:312|464:352,2,106.666666666667
368,288,22527,1,0,0:0:0:0:
208,320,22839,1,0,0:0:0:0:
48,352,23152,2,0,L|112:336,1,53.3333333333333
192,48,25339,5,0,0:0:0:0:
312,152,25652,1,0,0:0:0:0:
168,216,25964,1,0,0:0:0:0:
304,296,26277,2,0,L|416:240,2,106.666666666667
160,224,27214,2,0,L|48:184,2,106.666666666667
288,128,28152,1,0,0:0:0:0:
424,48,28464,1,0,0:0:0:0:
288,128,28777,1,0,0:0:0:0:
160,224,29089,1,0,0:0:0:0:
49,111,29402,1,0,0:0:0:0:
160,224,29714,1,0,0:0:0:0:
280,336,30027,6,0,L|392:368,2,106.666666666667
144,312,30964,2,0,L|32:344,2,106.666666666667
296,256,31902,1,0,0:0:0:0:
400,136,32214,1,0,0:0:0:0:
440,288,32527,1,0,0:0:0:0:
256,144,32839,1,0,0:0:0:0:
128,48,33152,1,0,0:0:0:0:
120,208,33464,1,0,0:0:0:0:
248,304,33777,6,0,L|304:184,2,106.666666666667
128,200,34714,2,0,L|104:96,2,106.666666666667
248,96,35652,1,0,0:0:0:0:
376,192,35964,1,0,0:0:0:0:
248,96,36277,1,0,0:0:0:0:
192,248,36589,1,0,0:0:0:0:
80,128,36902,1,0,0:0:0:0:
192,248,37214,1,0,0:0:0:0:
352,248,37527,6,0,L|464:216,2,106.666666666667
272,272,38308,5,0,0:0:0:0:
272,272,38464,1,0,0:0:0:0:
120,224,38777,1,0,0:0:0:0:
272,168,39089,1,0,0:0:0:0:
416,240,39402,1,0,0:0:0:0:
264,288,39714,1,0,0:0:0:0:
120,216,40027,1,0,0:0:0:0:
184,72,40339,1,0,0:0:0:0:
344,72,40652,1,0,0:0:0:0:
408,216,40964,1,0,0:0:0:0:
256,192,41277,12,0,43152,0:0:0:0:
360,288,45027,6,0,L|288:256,1,53.3333333333333
184,312,45339,2,0,L|152:240,1,53.3333333333333
24,248,45652,2,0,L|24:176,1,53.3333333333333
104,112,45964,2,0,L|104:176,1,53.3333333333333
216,80,46277,2,0,L|184:152,1,53.3333333333333
360,96,46589,2,0,L|288:128,1,53.3333333333333
400,232,46902,5,0,0:0:0:0:
264,320,47058,1,0,0:0:0:0:
304,184,47214,1,0,0:0:0:0:
368,320,47371,1,0,0:0:0:0:
224,184,47527,1,0,0:0:0:0:
144,296,47683,1,0,0:0:0:0:
208,88,47839,6,0,L|136:144,1,53.3333333333333
88,272,48152,2,0,L|144:224,1,53.3333333333333
304,184,48464,2,0,L|232:248,1,53.3333333333333
184,336,48777,6,0,L|248:328,1,53.3333333333333
376,288,49089,2,0,L|400:232,1,53.3333333333333
368,96,49402,2,0,L|296:72,1,53.3333333333333
128,88,49714,2,0,L|184:72,1,53.3333333333333
64,240,50027,2,0,L|48:160,1,53.3333333333333
208,320,50339,2,0,L|144:328,1,53.3333333333333
352,296,50652,5,0,0:0:0:0:
416,208,50808,1,0,0:0:0:0:
312,192,50964,1,0,0:0:0:0:
360,288,51120,1,0,0:0:0:0:
424,200,51277,1,0,0:0:0:0:
320,176,51433,1,0,0:0:0:0:
200,136,51589,5,0,0:0:0:0:
104,184,51745,1,0,0:0:0:0:
48,88,51902,1,0,0:0:0:0:
144,40,52058,1,0,0:0:0:0:
192,136,52214,1,0,0:0:0:0:
104,184,52370,1,0,0:0:0:0:
40,304,52527,6,0,L|112:328,1,53.3333333333333
216,264,52839,2,0,L|144:256,1,53.3333333333333
296,192,53152,2,0,L|368:176,1,53.3333333333333
104,184,53464,2,0,L|32:176,1,53.3333333333333
184,96,53777,2,0,L|256:88,1,53.3333333333333
328,24,54089,2,0,L|264:24,1,53.3333333333333
392,112,54402,1,0,0:0:0:0:
432,208,54558,1,0,0:0:0:0:
288,224,54714,1,0,0:0:0:0:
256,120,54870,1,0,0:0:0:0:
112,120,55027,1,0,0:0:0:0:
96,216,55183,1,0,0:0:0:0:
0,128,55339,5,0,0:0:0:0:
0,128,55495,1,0,0:0:0:0:
32,312,55652,1,0,0:0:0:0:
136,296,55808,1,0,0:0:0:0:
232,344,55964,1,0,0:0:0:0:
320,304,56120,1,0,0:0:0:0:
400,216,56277,6,0,P|376:168|376:120,1,53.3333333333333
240,144,56589,2,0,P|296:128|328:96,1,53.3333333333333
304,264,56902,2,0,P|260:232|229:229,1,53.3333333333333
152,256,57214,2,0,P|160:208|184:176,1,53.3333333333333
128,120,57527,2,0,P|96:168|96:192,1,53.3333333333333
32,96,57839,2,0,P|56:56|80:40,1,53.3333333333333
80,224,58152,6,0,L|64:304,1,53.3333333333333
320,288,58464,2,0,L|320:224,1,53.3333333333333
184,256,58777,2,0,L|200:312,1,53.3333333333333
408,200,59089,2,0,B|400:160|400:160|376:128,1,53.3333333333333
176,72,59402,2,0,B|136:96|136:96|96:104,1,53.3333333333333
280,128,59714,2,0,B|272:160|272:160|296:200,1,53.3333333333333
264,304,60027,5,0,0:0:0:0:
136,256,60183,1,0,0:0:0:0:
248,216,60339,1,0,0:0:0:0:
176,336,60495,1,0,0:0:0:0:
176,176,60652,1,0,0:0:0:0:
264,320,60808,1,0,0:0:0:0:
112,256,60964,1,0,0:0:0:0:
280,208,61121,1,0,0:0:0:0:
176,328,61277,1,0,0:0:0:0:
208,152,61433,1,0,0:0:0:0:
264,320,61589,1,0,0:0:0:0:
144,232,61745,1,0,0:0:0:0:
304,200,61902,5,0,0:0:0:0:
136,296,62058,1,0,0:0:0:0:
320,264,62214,1,0,0:0:0:0:
208,344,62370,1,0,0:0:0:0:
224,160,62527,1,0,0:0:0:0:
112,296,62683,1,0,0:0:0:0:
312,216,62839,1,0,0:0:0:0:
128,200,62995,1,0,0:0:0:0:
312,304,63152,1,0,0:0:0:0:
200,128,63308,1,0,0:0:0:0:
208,344,63464,1,0,0:0:0:0:
200,128,63620,1,0,0:0:0:0:
344,224,63777,5,0,0:0:0:0:
168,240,63933,1,0,0:0:0:0:
288,320,64089,1,0,0:0:0:0:
264,152,64245,1,0,0:0:0:0:
200,304,64402,1,0,0:0:0:0:
264,152,64558,1,0,0:0:0:0:
304,312,64714,1,0,0:0:0:0:
176,208,64870,1,0,0:0:0:0:
344,224,65027,1,0,0:0:0:0:
176,296,65183,1,0,0:0:0:0:
264,152,65339,1,0,0:0:0:0:
280,304,65495,1,0,0:0:0:0:
264,152,65652,5,0,0:0:0:0:
144,192,65808,1,0,0:0:0:0:
352,208,65963,1,0,0:0:0:0:
192,296,66120,1,0,0:0:0:0:
232,128,66276,1,0,0:0:0:0:
328,296,66433,1,0,0:0:0:0:
152,160,66589,1,0,0:0:0:0:
264,320,66745,1,0,0:0:0:0:
304,144,66902,1,0,0:0:0:0:
160,304,67058,1,0,0:0:0:0:
224,112,67214,1,0,0:0:0:0:
352,288,67370,1,0,0:0:0:0:
112,144,67527,5,0,0:0:0:0:
40,248,67683,1,0,0:0:0:0:
112,144,67839,1,0,0:0:0:0:
152,256,67995,1,0,0:0:0:0:
24,144,68152,1,0,0:0:0:0:
216,160,68308,1,0,0:0:0:0:
80,240,68464,1,0,0:0:0:0:
128,80,68620,1,0,0:0:0:0:
168,240,68777,1,0,0:0:0:0:
48,112,68933,1,0,0:0:0:0:
240,128,69089,1,0,0:0:0:0:
40,224,69245,1,0,0:0:0:0:
240,128,69402,5,0,0:0:0:0:
176,272,69558,1,0,0:0:0:0:
96,96,69714,1,0,0:0:0:0:
240,216,69870,1,0,0:0:0:0:
40,208,70027,1,0,0:0:0:0:
112,96,70183,1,0,0:0:0:0:
136,280,70339,1,0,0:0:0:0:
208,112,70495,1,0,0:0:0:0:
48,264,70652,1,0,0:0:0:0:
152,112,70808,1,0,0:0:0:0:
224,280,70964,1,0,0:0:0:0:
24,152,71120,1,0,0:0:0:0:
360,176,71277,5,0,0:0:0:0:
256,96,71433,1,0,0:0:0:0:
240,216,71589,1,0,0:0:0:0:
160,128,71745,1,0,0:0:0:0:
16,272,71902,1,0,0:0:0:0:
192,328,72058,1,0,0:0:0:0:
408,280,72214,5,0,0:0:0:0:
320,176,72370,1,0,0:0:0:0:
304,288,72527,1,0,0:0:0:0:
416,184,72683,1,0,0:0:0:0:
416,296,72839,1,0,0:0:0:0:
312,160,72995,1,0,0:0:0:0:
144,256,73152,5,0,0:0:0:0:
112,96,73308,1,0,0:0:0:0:
32,240,73464,1,0,0:0:0:0:
192,152,73620,1,0,0:0:0:0:
16,128,73777,1,0,0:0:0:0:
168,272,73933,1,0,0:0:0:0:
312,144,74089,5,0,0:0:0:0:
448,72,74245,1,0,0:0:0:0:
360,248,74402,1,0,0:0:0:0:
456,192,74558,1,0,0:0:0:0:
360,344,74714,1,0,0:0:0:0:
512,272,74871,1,0,0:0:0:0:
144,336,75027,6,0,L|8:352,1,106.666666666667
64,200,75495,1,0,0:0:0:0:
232,232,75652,1,0,0:0:0:0:
64,200,75808,1,0,0:0:0:0:
176,304,75964,1,0,0:0:0:0:
144,128,76120,1,0,0:0:0:0:
88,304,76277,1,0,0:0:0:0:
240,144,76433,1,0,0:0:0:0:
24,248,76589,1,0,0:0:0:0:
288,216,76745,1,0,0:0:0:0:
16,64,76902,6,0,B|56:48|88:80|88:80|112:56|152:56,1,106.666666666667
248,56,77370,1,0,0:0:0:0:
344,176,77527,1,0,0:0:0:0:
184,184,77683,1,0,0:0:0:0:
32,272,77839,1,0,0:0:0:0:
208,296,77995,1,0,0:0:0:0:
432,272,78152,1,0,0:0:0:0:
240,304,78308,1,0,0:0:0:0:
24,320,78464,1,0,0:0:0:0:
224,312,78620,1,0,0:0:0:0:
456,192,78777,6,0,P|408:144|384:88,1,106.666666666667
216,80,79245,1,0,0:0:0:0:
296,216,79402,1,0,0:0:0:0:
128,64,79558,1,0,0:0:0:0:
336,128,79714,1,0,0:0:0:0:
96,192,79870,1,0,0:0:0:0:
336,128,80027,1,0,0:0:0:0:
144,256,80183,1,0,0:0:0:0:
336,128,80339,1,0,0:0:0:0:
208,312,80495,1,0,0:0:0:0:
336,128,80652,6,0,B|376:144|344:192|336:184|304:160|256:184,1,106.666666666667
96,152,81120,1,0,0:0:0:0:
184,88,81277,1,0,0:0:0:0:
88,48,81433,1,0,0:0:0:0:
200,208,81589,1,0,0:0:0:0:
344,280,81745,1,0,0:0:0:0:
320,144,81902,1,0,0:0:0:0:
224,336,82058,1,0,0:0:0:0:
136,272,82214,1,0,0:0:0:0:
120,376,82370,1,0,0:0:0:0:
256,192,82527,12,0,85964,0:0:0:0:
256,216,86277,5,0,0:0:0:0:
160,144,86433,1,0,0:0:0:0:
256,72,86589,1,0,0:0:0:0:
352,152,86745,1,0,0:0:0:0:
112,240,86902,1,0,0:0:0:0:
392,248,87058,1,0,0:0:0:0:
176,336,87214,1,0,0:0:0:0:
296,192,87370,1,0,0:0:0:0:
192,344,87527,1,0,0:0:0:0:
280,184,87683,1,0,0:0:0:0:
208,352,87839,1,0,0:0:0:0:
264,184,87995,1,0,0:0:0:0:
168,344,88152,5,0,0:0:0:0:
280,192,88308,1,0,0:0:0:0:
152,328,88464,1,0,0:0:0:0:
288,208,88620,1,0,0:0:0:0:
144,312,88777,1,0,0:0:0:0:
288,224,88933,1,0,0:0:0:0:
144,296,89089,1,0,0:0:0:0:
288,224,89245,1,0,0:0:0:0:
144,296,89402,1,0,0:0:0:0:
288,224,89558,1,0,0:0:0:0:
144,296,89714,1,0,0:0:0:0:
288,224,89870,1,0,0:0:0:0:
56,272,90027,6,0,P|88:232|88:168,1,106.666666666667
288,72,90495,1,0,0:0:0:0:
144,72,90652,1,0,0:0:0:0:
272,152,90808,1,0,0:0:0:0:
144,160,90964,1,0,0:0:0:0:
240,24,91120,1,0,0:0:0:0:
64,64,91277,1,0,0:0:0:0:
216,208,91433,1,0,0:0:0:0:
152,24,91589,1,0,0:0:0:0:
80,208,91745,1,0,0:0:0:0:
72,224,91902,6,0,B|104:248|136:248|136:248|168:216|216:216,1,106.666666666667
328,192,92370,1,0,0:0:0:0:
208,112,92527,1,0,0:0:0:0:
328,64,92683,1,0,0:0:0:0:
200,232,92839,1,0,0:0:0:0:
64,248,92995,1,0,0:0:0:0:
168,368,93152,1,0,0:0:0:0:
256,176,93308,1,0,0:0:0:0:
64,344,93464,1,0,0:0:0:0:
256,176,93620,1,0,0:0:0:0:
72,336,93777,6,0,B|88:296|72:272|72:272|88:248|88:248|80:208,1,106.666666666667
256,96,94245,1,0,0:0:0:0:
72,96,94402,1,0,0:0:0:0:
240,192,94558,1,0,0:0:0:0:
128,32,94714,1,0,0:0:0:0:
160,240,94870,1,0,0:0:0:0:
208,24,95027,1,0,0:0:0:0:
80,208,95183,1,0,0:0:0:0:
280,64,95339,1,0,0:0:0:0:
40,136,95495,1,0,0:0:0:0:
304,144,95652,6,0,B|344:104|424:104|432:184|432:184|384:168|280:184|208:248|232:336|360:256,1,480
256,192,97527,12,0,101277,0:0:0:0:
16,176,103152,5,0,0:0:0:0:
264,24,103620,1,0,0:0:0:0:
16,176,104089,6,0,L|56:144,1,26.6666666666667,8|0,0:0|0:0,0:0:0:0:
240,8,104245,2,0,L|208:32,1,26.6666666666667,8|0,0:0|0:0,0:0:0:0:
36,159,104402,2,0,L|68:127,1,26.6666666666667,8|0,0:0|0:0,0:0:0:0:
271,17,104558,6,2,L|397:-88,1,160
256,192,108777,5,0,0:0:0:0:
256,192,112527,5,2,0:0:0:0:
256,192,116277,5,2,0:0:0:0:
256,192,118152,1,0,0:0:0:0:
256,328,120027,6,0,B|224:264|256:216|256:216|296:168|240:128|240:128|208:168,1,240.000009155274,4|0,0:0|0:0,0:0:0:0:
256,192,121902,1,0,0:0:0:0:
72,232,122839,2,0,P|64:304|80:328,2,80.0000030517579
120,208,123620,2,0,P|160:144|256:264,1,280.000010681153
256,192,125652,1,0,0:0:0:0:
424,128,125964,6,0,P|360:120|328:128,1,80.0000030517579
368,224,126589,1,0,0:0:0:0:
296,304,126902,2,0,L|232:288,1,40.000001525879
80,264,127527,2,0,B|64:144|144:40|144:40|224:128|192:272,1,480.000018310548
200,216,130652,2,0,P|256:192|304:208,2,80.0000030517579,0|0|4,0:0|0:0|0:0,0:0:0:0:
256,192,131433,12,0,134558,0:0:0:0:
96,232,135027,6,0,B|128:240|128:240|104:272|104:272|144:272|144:272|136:304|136:304|160:304|160:304|160:328|160:328|184:328|184:328|200:352,1,240.000009155274
200,336,136902,1,0,0:0:0:0:
344,288,137839,2,0,B|368:240|368:240|360:208,2,80.0000030517579
304,48,138777,2,0,B|272:96|272:96|248:48|248:48|224:96|224:96|192:48|192:48|176:24,2,240.000009155274
408,288,141589,2,0,B|384:256|384:256|360:240|360:240|328:248|328:248|328:256,2,80.0000030517579
256,312,142527,2,0,B|200:312|200:312|168:352,1,80.0000030517579
128,232,143152,2,0,B|120:192|120:192|136:168,1,40.000001525879
232,240,144402,1,0,0:0:0:0:
296,48,145339,2,0,P|336:80|344:128,2,80.0000030517579
160,72,146277,2,0,B|120:112|120:144|152:168|152:168|224:176,1,160.000006103516
240,176,147058,2,0,L|240:184,14,6.66666666666667
416,312,149402,6,0,B|376:280|376:280|352:232,1,80.0000030517579
384,136,150027,2,0,B|344:112|344:112|344:80|344:80|304:48|248:32|248:32|240:40|192:32,2,240.000009155274
128,64,152839,6,0,B|96:88|96:88|96:120|96:120|120:136,2,80.0000030517579
256,104,153777,2,0,B|288:184|288:184|264:192|264:192|304:288|304:288|328:296,2,240.000009155274
352,48,155964,6,0,B|384:48|384:48|384:64|384:64|416:72,2,80.0000030517579
232,56,156902,2,0,B|216:40|216:40|168:72,1,80.0000030517579
64,152,157527,6,0,B|112:176|112:176|104:200|104:200|136:168|208:192|208:192|232:168|320:192|320:192|352:184|392:168|392:168,1,360.000013732911
400,224,160339,1,0,0:0:0:0:
400,224,160652,6,0,B|432:256|432:256|440:304,1,80.0000030517579
256,192,161277,12,0,162995,0:0:0:0:
80,288,163152,6,0,B|128:224|64:120|64:120|136:128|136:128|160:80|160:80|216:136|240:72|240:72|296:112|296:112|296:120,1,480
360,176,165027,6,0,L|344:384,1,200.000007629395
80,224,165964,2,0,P|216:168|256:32,1,266.666666666667
80,48,166902,6,0,L|96:272,1,200.000007629395
432,176,167839,2,0,B|328:280|328:280|256:384,1,266.666666666667
48,368,168777,6,0,L|32:152,1,200.000007629395
168,32,169714,6,0,L|184:120,1,53.3333333333333
288,128,170027,2,0,L|264:216,1,53.3333333333333
368,248,170339,2,0,L|312:312,1,53.3333333333333,0|0,0:0|0:0,2:0:0:0:
240,384,170652,6,0,P|240:264|88:352,1,360.000013732911
56,72,172527,6,0,B|80:104|152:80|152:80|232:48|280:56,1,200.000007629395
264,248,173464,2,0,B|280:272|312:280|336:272|352:240|344:208|296:184|296:184|208:248|176:272,1,266.666666666667
64,328,174402,6,0,B|96:296|96:296|64:280|64:280|80:272|80:144,1,200.000007629395
120,80,175339,6,0,L|192:96,1,53.3333333333333
320,120,175652,2,0,L|256:160,1,53.3333333333333
152,208,175964,2,0,L|232:256,1,53.3333333333333
320,328,176277,6,0,B|408:184|376:56|376:56|264:144|216:304|216:304|264:144|200:32|200:32|128:88|128:128,1,960.000036621095
136,104,178464,1,0,0:0:0:0:
56,224,178777,1,0,0:0:0:0:
224,192,179089,1,0,0:0:0:0:
296,56,179402,1,0,0:0:0:0:
464,40,179714,1,0,0:0:0:0:
416,200,180027,6,0,B|320:224|320:224|208:208,1,200.000007629395
88,64,180964,2,0,B|32:128|96:184|96:184|32:232|112:304,1,266.666666666667
368,320,181902,6,0,P|376:208|392:112,1,200.000007629395
128,240,182839,2,0,B|136:160|120:72|104:64|80:80|88:96|112:112|160:104|168:32,1,266.666666666667
408,40,183777,6,0,B|376:120|376:120|416:184|416:184|400:240,1,200.000007629395
232,144,184714,6,0,L|224:80,1,53.3333333333333
88,96,185027,2,0,L|64:152,1,53.3333333333333
144,248,185339,2,0,L|216:248,1,53.3333333333333
312,328,185652,6,0,B|392:328|392:328|304:272|304:272|368:240|368:240|360:48,1,440.000016784669
104,144,187527,6,0,B|128:128|112:112|96:128|80:144|144:216|96:304,1,200.000007629395
376,320,188464,2,0,B|352:320|352:320|384:312|376:312|384:320|384:320|296:288|280:200|384:152,1,266.666666666667
