osu file format v14

[General]
AudioFilename: audioCompressed.mp3
AudioLeadIn: 0
PreviewTime: 224062
Countdown: 0
SampleSet: Soft
StackLeniency: 0.7
Mode: 3
LetterboxInBreaks: 0
SpecialStyle: 0
WidescreenStoryboard: 0

[Editor]
Bookmarks: 75000,103125,105000
DistanceSpacing: 0.8
BeatDivisor: 6
GridSize: 32
TimelineZoom: 1.150003

[Metadata]
Title:Goodbye To A World
TitleUnicode:Goodbye To A World
Artist:Porter Robinson
ArtistUnicode:Porter Robinson
Creator:Chronocide
Version:The End
Source:Worlds
Tags:dance, electronic, astralwerks records, Avanna, sv, marathon
BeatmapID:1070775
BeatmapSetID:503206

[Difficulty]
HPDrainRate:8
CircleSize:4
OverallDifficulty:8
ApproachRate:5
SliderMultiplier:1.4
SliderTickRate:1

[Events]
//Background and Video events
0,0,"Goodbye.jpg",0,0
//Break Periods
//Storyboard Layer 0 (Background)
//Storyboard Layer 1 (Fail)
//Storyboard Layer 2 (Pass)
//Storyboard Layer 3 (Foreground)
//Storyboard Sound Samples

[TimingPoints]
59,468.75,4,2,1,15,1,0
45059,-100,4,2,1,20,0,0
60059,-100,4,2,1,40,0,0
75059,-100,4,2,1,50,0,0
103184,-76.9230769230769,4,2,1,40,0,0
103496,-250,4,2,1,40,0,0
103652,-76.9230769230769,4,2,1,40,0,0
103965,-250,4,2,1,40,0,0
104121,-66.6666666666667,4,2,1,40,0,0
104199,-200,4,2,1,40,0,0
104277,-66.6666666666667,4,2,1,40,0,0
104355,-200,4,2,1,40,0,0
104434,-66.6666666666667,4,2,1,40,0,0
104512,-100,4,2,1,40,0,0
105059,-125,4,2,1,20,0,0
135059,-111.111111111111,4,2,1,20,0,0
163184,-111.111111111111,4,2,1,30,0,0
164902,-142.857142857143,4,2,1,40,0,0
164980,-76.9230769230769,4,2,1,40,0,0
165059,-100,4,2,1,40,0,0
165840,-142.857142857143,4,2,1,40,0,0
165918,-76.9230769230769,4,2,1,40,0,0
165996,-100,4,2,1,40,0,0
166777,-142.857142857143,4,2,1,40,0,0
166855,-76.9230769230769,4,2,1,40,0,0
166934,-100,4,2,1,40,0,0
167715,-142.857142857143,4,2,1,40,0,0
167793,-76.9230769230769,4,2,1,40,0,0
167871,-100,4,2,1,40,0,0
168652,-142.857142857143,4,2,1,40,0,0
168730,-76.9230769230769,4,2,1,40,0,0
168809,-100,4,2,1,40,0,0
169590,-142.857142857143,4,2,1,40,0,0
169668,-76.9230769230769,4,2,1,40,0,0
169746,-100,4,2,1,40,0,0
172246,-200,4,2,1,40,0,0
172402,-142.857142857143,4,2,1,40,0,0
172559,-100,4,2,1,40,0,0
173340,-142.857142857143,4,2,1,40,0,0
173418,-76.9230769230769,4,2,1,40,0,0
173496,-100,4,2,1,40,0,0
174277,-142.857142857143,4,2,1,40,0,0
174355,-76.9230769230769,4,2,1,40,0,0
174434,-100,4,2,1,40,0,0
175215,-76.9230769230769,4,2,1,40,0,0
175293,-142.857142857143,4,2,1,40,0,0
175371,-100,4,2,1,40,0,0
178027,-142.857142857143,4,2,1,40,0,0
178105,-76.9230769230769,4,2,1,40,0,0
178184,-100,4,2,1,40,0,0
179902,-142.857142857143,4,2,1,40,0,0
179980,-76.9230769230769,4,2,1,40,0,0
180059,-100,4,2,1,40,0,0
180840,-76.9230769230769,4,2,1,40,0,0
180918,-142.857142857143,4,2,1,40,0,0
180996,-100,4,2,1,40,0,0
181777,-142.857142857143,4,2,1,40,0,0
181855,-76.9230769230769,4,2,1,40,0,0
181934,-100,4,2,1,40,0,0
182715,-142.857142857143,4,2,1,40,0,0
182793,-76.9230769230769,4,2,1,40,0,0
182871,-100,4,2,1,40,0,0
183652,-142.857142857143,4,2,1,40,0,0
183730,-76.9230769230769,4,2,1,40,0,0
183809,-100,4,2,1,40,0,0
184590,-142.857142857143,4,2,1,40,0,0
184668,-76.9230769230769,4,2,1,40,0,0
184746,-100,4,2,1,40,0,0
187402,-142.857142857143,4,2,1,40,0,0
187480,-76.9230769230769,4,2,1,40,0,0
187559,-100,4,2,1,40,0,0
188340,-142.857142857143,4,2,1,40,0,0
188418,-76.9230769230769,4,2,1,40,0,0
188496,-100,4,2,1,40,0,0
189277,-142.857142857143,4,2,1,40,0,0
189355,-76.9230769230769,4,2,1,40,0,0
189434,-100,4,2,1,40,0,0
190215,-142.857142857143,4,2,1,40,0,0
190293,-76.9230769230769,4,2,1,40,0,0
190371,-100,4,2,1,40,0,0
193027,-142.857142857143,4,2,1,40,0,0
193105,-76.9230769230769,4,2,1,40,0,0
193184,-100,4,2,1,40,0,0
195059,-100,4,2,1,20,0,0
223184,-1000,4,2,1,40,0,0
223340,-400,4,2,1,40,0,0
223496,-200,4,2,1,40,0,0
223652,-181.818181818182,4,2,1,40,0,0
223809,-142.857142857143,4,2,1,40,0,0
223965,-117.647058823529,4,2,1,40,0,0
224121,-111.111111111111,4,2,1,40,0,0
224277,-95.2380952380952,4,2,1,40,0,0
224434,-83.3333333333333,4,2,1,40,0,0
224590,-200,4,2,1,40,0,0
224668,-66.6666666666667,4,2,1,40,0,0
224746,-200,4,2,1,40,0,0
224824,-66.6666666666667,4,2,1,40,0,0
224902,-200,4,2,1,40,0,0
224980,-76.9230769230769,4,2,1,40,0,0
225059,-100,4,2,1,40,0,1
225293,-76.9230769230769,4,2,1,40,0,1
225527,-1000,4,2,1,40,0,1
225762,-76.9230769230769,4,2,1,40,0,1
225996,-1000,4,2,1,40,0,1
226230,-76.9230769230769,4,2,1,40,0,1
226465,-1000,4,2,1,40,0,1
226699,-76.9230769230769,4,2,1,40,0,1
226934,-100,4,2,1,40,0,1
232090,-142.857142857143,4,2,1,40,0,1
232324,-76.9230769230769,4,2,1,40,0,1
232559,-100,4,2,1,40,0,1
239590,-200,4,2,1,40,0,1
239668,-66.6666666666667,4,2,1,40,0,1
239746,-200,4,2,1,40,0,1
239824,-66.6666666666667,4,2,1,40,0,1
239902,-200,4,2,1,40,0,1
239980,-66.6666666666667,4,2,1,40,0,1
240059,-100,4,2,1,40,0,1
240293,-76.9230769230769,4,2,1,40,0,1
240449,-1000,4,2,1,40,0,1
240762,-76.9230769230769,4,2,1,40,0,1
240996,-100,4,2,1,40,0,1
241309,-76.9230769230769,4,2,1,40,0,1
241465,-1000,4,2,1,40,0,1
241699,-76.9230769230769,4,2,1,40,0,1
241934,-100,4,2,1,40,0,1
242246,-76.9230769230769,4,2,1,40,0,1
242402,-1000,4,2,1,40,0,1
242637,-76.9230769230769,4,2,1,40,0,1
242871,-100,4,2,1,40,0,1
247090,-142.857142857143,4,2,1,40,0,1
247324,-76.9230769230769,4,2,1,40,0,1
247559,-100,4,2,1,40,0,1
254590,-66.6666666666667,4,2,1,40,0,0
254746,-88.4955752212389,4,2,1,40,0,0
254902,-90.9090909090909,4,2,1,40,0,0
255059,-105.263157894737,4,2,1,40,0,0
270059,-100,4,2,1,40,0,0
285059,-111.111111111111,4,2,1,40,0,0

[HitObjects]
64,192,59,128,0,2715:2:0:0:0:
320,192,59,128,2,996:2:0:0:0:
448,192,996,128,2,2715:2:0:0:0:
192,192,2871,1,2,2:0:0:0:
320,192,3184,1,2,2:0:0:0:
448,192,3496,1,2,2:0:0:0:
64,192,3809,128,0,6465:2:0:0:0:
320,192,3809,128,2,4746:2:0:0:0:
448,192,4746,128,2,6465:2:0:0:0:
192,192,6621,1,2,2:0:0:0:
320,192,6934,1,2,2:0:0:0:
448,192,7246,1,2,2:0:0:0:
320,192,7559,1,2,2:0:0:0:
64,192,7559,128,0,10215:2:0:0:0:
448,192,7871,1,2,2:0:0:0:
448,192,8184,1,2,2:0:0:0:
448,192,8340,128,2,10215:2:0:0:0:
192,192,10371,1,2,2:0:0:0:
320,192,10684,1,2,2:0:0:0:
448,192,10996,1,2,2:0:0:0:
64,192,11309,128,2,13184:2:0:0:0:
320,192,11309,128,0,14121:2:0:0:0:
192,192,13184,128,2,14902:2:0:0:0:
448,192,15059,128,0,17715:2:0:0:0:
64,192,15059,128,2,15996:2:0:0:0:
320,192,15996,128,2,17246:2:0:0:0:
192,192,16309,1,0,2:0:0:0:
64,192,16621,1,0,2:0:0:0:
192,192,16934,1,0,2:0:0:0:
64,192,17246,1,0,2:0:0:0:
192,192,17559,1,0,2:0:0:0:
64,192,17871,1,2,2:0:0:0:
192,192,18184,1,2,2:0:0:0:
320,192,18496,1,2,2:0:0:0:
448,192,18809,128,2,19746:2:0:0:0:
64,192,18809,128,0,21465:2:0:0:0:
192,192,19121,1,0,2:0:0:0:
320,192,19434,1,0,2:0:0:0:
192,192,19746,128,2,20996:2:0:0:0:
320,192,20059,1,0,2:0:0:0:
448,192,20371,1,0,2:0:0:0:
320,192,20684,1,0,2:0:0:0:
448,192,20996,1,0,2:0:0:0:
320,192,21309,1,0,2:0:0:0:
448,192,21621,1,2,2:0:0:0:
192,192,21934,1,2,2:0:0:0:
320,192,22246,1,2,2:0:0:0:
448,192,22559,1,2,2:0:0:0:
64,192,22559,128,0,25215:2:0:0:0:
192,192,22871,1,2,2:0:0:0:
192,192,23184,1,2,2:0:0:0:
192,192,23340,128,2,24902:2:0:0:0:
448,192,23496,1,0,2:0:0:0:
320,192,23809,1,0,2:0:0:0:
448,192,24121,1,0,2:0:0:0:
320,192,24434,1,0,2:0:0:0:
448,192,24746,1,0,2:0:0:0:
320,192,25059,1,0,2:0:0:0:
448,192,25371,1,2,2:0:0:0:
192,192,25684,1,2,2:0:0:0:
320,192,25996,1,2,2:0:0:0:
64,192,26309,128,0,27715:2:0:0:0:
192,192,26309,128,2,28184:2:0:0:0:
320,192,26621,1,0,2:0:0:0:
448,192,26934,1,0,2:0:0:0:
320,192,27246,1,0,2:0:0:0:
448,192,27559,1,0,2:0:0:0:
320,192,27871,1,0,2:0:0:0:
448,192,28184,128,2,29434:2:0:0:0:
64,192,28496,1,0,2:0:0:0:
192,192,28809,1,0,2:0:0:0:
320,192,29121,1,0,2:0:0:0:
64,192,29434,1,0,2:0:0:0:
448,192,29746,1,0,2:0:0:0:
192,192,30059,128,0,31465:2:0:0:0:
320,192,30059,128,2,30996:2:0:0:0:
448,192,30371,1,0,2:0:0:0:
64,192,30684,1,0,2:0:0:0:
448,192,30996,128,2,31934:2:0:0:0:
320,192,31309,1,0,2:0:0:0:
64,192,31621,1,0,2:0:0:0:
320,192,31934,1,0,2:0:0:0:
192,192,32246,1,0,2:0:0:0:
64,192,32559,1,0,2:0:0:0:
448,192,32871,1,2,2:0:0:0:
192,192,32871,1,0,2:0:0:0:
320,192,33184,1,2,2:0:0:0:
64,192,33184,1,0,2:0:0:0:
192,192,33496,1,2,2:0:0:0:
64,192,33496,1,0,2:0:0:0:
448,192,33809,128,0,35215:2:0:0:0:
320,192,33809,128,2,34746:2:0:0:0:
64,192,34121,1,0,2:0:0:0:
192,192,34434,1,0,2:0:0:0:
64,192,34746,128,2,35996:2:0:0:0:
320,192,35059,1,0,2:0:0:0:
192,192,35371,1,0,2:0:0:0:
448,192,35684,1,0,2:0:0:0:
320,192,35996,1,0,2:0:0:0:
64,192,36309,1,0,2:0:0:0:
448,192,36621,1,2,2:0:0:0:
192,192,36621,1,0,2:0:0:0:
320,192,36934,1,2,2:0:0:0:
64,192,36934,1,0,2:0:0:0:
192,192,37246,1,2,2:0:0:0:
64,192,37246,1,0,2:0:0:0:
448,192,37559,128,0,38809:2:0:0:0:
320,192,37559,1,2,2:0:0:0:
192,192,37871,1,2,2:0:0:0:
192,192,38184,1,2,2:0:0:0:
192,192,38340,128,2,39746:2:0:0:0:
64,192,38496,1,0,2:0:0:0:
320,192,38809,1,0,2:0:0:0:
448,192,39121,1,0,2:0:0:0:
64,192,39434,1,0,2:0:0:0:
320,192,39746,1,0,2:0:0:0:
448,192,40059,1,0,2:0:0:0:
192,192,40371,1,2,2:0:0:0:
64,192,40371,1,0,2:0:0:0:
64,192,40684,1,0,2:0:0:0:
320,192,40684,1,2,2:0:0:0:
448,192,40996,1,2,2:0:0:0:
64,192,40996,1,0,2:0:0:0:
448,192,41309,128,0,42559:2:0:0:0:
320,192,41309,128,2,43184:2:0:0:0:
64,192,41621,1,0,2:0:0:0:
192,192,41934,1,0,2:0:0:0:
64,192,42246,1,0,2:0:0:0:
192,192,42559,1,0,2:0:0:0:
64,192,42871,1,0,2:0:0:0:
192,192,43184,128,2,44746:2:0:0:0:
448,192,43496,1,0,2:0:0:0:
64,192,43809,1,0,2:0:0:0:
320,192,44121,1,0,2:0:0:0:
448,192,44434,1,0,2:0:0:0:
64,192,44746,1,0,2:0:0:0:
448,192,45059,128,0,52402:2:0:0:0:
320,192,45059,128,0,46309:2:0:0:0:
64,192,45059,128,2,45996:2:0:0:0:
192,192,45371,1,0,2:0:0:0:
192,192,45684,1,0,2:0:0:0:
192,192,45996,128,2,47559:2:0:0:0:
64,192,46309,1,0,2:0:0:0:
320,192,46621,1,0,2:0:0:0:
64,192,46934,1,0,2:0:0:0:
320,192,47246,1,0,2:0:0:0:
64,192,47559,1,0,2:0:0:0:
64,192,47871,1,2,2:0:0:0:
320,192,47871,1,0,2:0:0:0:
192,192,48184,1,2,2:0:0:0:
64,192,48184,1,0,2:0:0:0:
320,192,48496,1,2,2:0:0:0:
192,192,48496,1,0,2:0:0:0:
64,192,48809,128,0,50059:2:0:0:0:
192,192,48809,128,2,49746:2:0:0:0:
320,192,49121,1,0,2:0:0:0:
320,192,49434,1,0,2:0:0:0:
320,192,49746,128,2,50996:2:0:0:0:
192,192,50059,1,0,2:0:0:0:
64,192,50371,1,0,2:0:0:0:
192,192,50684,1,0,2:0:0:0:
64,192,50996,1,0,2:0:0:0:
320,192,51309,1,0,2:0:0:0:
192,192,51621,1,0,2:0:0:0:
64,192,51621,1,2,2:0:0:0:
192,192,51934,1,2,2:0:0:0:
320,192,51934,1,0,2:0:0:0:
64,192,52246,1,0,2:0:0:0:
320,192,52246,1,2,2:0:0:0:
448,192,52559,128,0,53965:2:0:0:0:
192,192,52559,1,2,2:0:0:0:
320,192,52871,1,2,2:0:0:0:
320,192,53184,1,2,2:0:0:0:
320,192,53340,128,2,54746:2:0:0:0:
192,192,53496,1,0,2:0:0:0:
64,192,53809,1,0,2:0:0:0:
192,192,53965,128,0,56309:2:0:0:0:
448,192,54121,1,0,2:0:0:0:
64,192,54434,1,0,2:0:0:0:
448,192,54746,1,0,2:0:0:0:
320,192,55059,1,0,2:0:0:0:
64,192,55371,1,0,2:0:0:0:
320,192,55684,1,0,2:0:0:0:
448,192,55996,1,0,2:0:0:0:
448,192,56309,128,0,60059:2:0:0:0:
320,192,56621,1,0,2:0:0:0:
64,192,56934,1,0,2:0:0:0:
320,192,57246,1,0,2:0:0:0:
192,192,57559,1,0,2:0:0:0:
64,192,57871,1,0,2:0:0:0:
320,192,58184,1,0,2:0:0:0:
192,192,58496,1,0,2:0:0:0:
64,192,58809,1,0,2:0:0:0:
320,192,59121,1,0,2:0:0:0:
192,192,59434,1,0,2:0:0:0:
64,192,59746,1,0,2:0:0:0:
192,192,60059,1,0,2:0:0:0:
64,192,60059,1,0,0:0:0:0:
320,192,60215,1,0,2:0:0:0:
64,192,60371,1,0,2:0:0:0:
448,192,60527,1,0,2:0:0:0:
192,192,60684,1,0,0:0:0:0:
320,192,60840,1,0,0:0:0:0:
448,192,60996,1,0,2:0:0:0:
64,192,60996,1,0,2:0:0:0:
192,192,61152,1,0,0:0:0:0:
320,192,61309,1,0,0:0:0:0:
64,192,61465,1,0,0:0:0:0:
448,192,61621,1,0,0:0:0:0:
192,192,61777,1,0,0:0:0:0:
64,192,61934,1,0,2:0:0:0:
320,192,61934,1,0,0:0:0:0:
448,192,62090,1,0,2:0:0:0:
192,192,62246,1,0,2:0:0:0:
320,192,62402,1,0,2:0:0:0:
64,192,62559,1,0,2:0:0:0:
320,192,62715,1,0,2:0:0:0:
192,192,62871,1,0,2:0:0:0:
64,192,62871,1,0,2:0:0:0:
448,192,63027,1,0,2:0:0:0:
192,192,63184,1,0,2:0:0:0:
320,192,63340,1,0,2:0:0:0:
64,192,63496,1,0,2:0:0:0:
448,192,63652,1,0,2:0:0:0:
320,192,63809,1,0,2:0:0:0:
64,192,63809,1,0,2:0:0:0:
192,192,63965,1,0,2:0:0:0:
448,192,64121,1,0,2:0:0:0:
64,192,64277,1,0,2:0:0:0:
320,192,64434,1,0,2:0:0:0:
192,192,64590,1,0,2:0:0:0:
320,192,64746,1,0,2:0:0:0:
448,192,64746,1,0,2:0:0:0:
64,192,64902,1,0,2:0:0:0:
320,192,65059,1,0,2:0:0:0:
192,192,65215,1,0,2:0:0:0:
448,192,65371,1,0,2:0:0:0:
192,192,65527,1,0,2:0:0:0:
320,192,65684,1,0,2:0:0:0:
64,192,65684,1,0,2:0:0:0:
448,192,65840,1,0,2:0:0:0:
192,192,65996,1,0,2:0:0:0:
320,192,66152,1,0,2:0:0:0:
64,192,66309,1,0,2:0:0:0:
448,192,66465,1,0,2:0:0:0:
192,192,66621,1,0,2:0:0:0:
64,192,66621,1,0,2:0:0:0:
320,192,66777,1,0,2:0:0:0:
192,192,66934,1,0,2:0:0:0:
448,192,67090,1,0,2:0:0:0:
64,192,67246,1,0,2:0:0:0:
320,192,67402,1,0,2:0:0:0:
192,192,67559,1,0,2:0:0:0:
64,192,67559,1,0,2:0:0:0:
448,192,67715,1,0,2:0:0:0:
192,192,67871,1,0,2:0:0:0:
320,192,68027,1,0,2:0:0:0:
64,192,68184,1,0,2:0:0:0:
448,192,68340,1,0,2:0:0:0:
320,192,68496,1,0,2:0:0:0:
64,192,68496,1,0,2:0:0:0:
192,192,68652,1,0,2:0:0:0:
320,192,68809,1,0,2:0:0:0:
448,192,68809,1,0,2:0:0:0:
192,192,68965,1,0,2:0:0:0:
448,192,69121,1,0,2:0:0:0:
64,192,69121,1,0,2:0:0:0:
320,192,69277,1,0,2:0:0:0:
192,192,69434,1,0,2:0:0:0:
64,192,69434,1,0,2:0:0:0:
448,192,69590,1,0,2:0:0:0:
320,192,69746,1,0,2:0:0:0:
64,192,69746,1,0,2:0:0:0:
192,192,69902,1,0,2:0:0:0:
64,192,70059,1,0,2:0:0:0:
448,192,70059,1,0,2:0:0:0:
320,192,70215,1,0,2:0:0:0:
192,192,70371,1,0,2:0:0:0:
64,192,70371,1,0,2:0:0:0:
320,192,70527,1,0,2:0:0:0:
448,192,70684,1,0,2:0:0:0:
192,192,70684,1,0,2:0:0:0:
320,192,70840,1,0,2:0:0:0:
448,192,70996,1,0,2:0:0:0:
64,192,70996,1,0,2:0:0:0:
192,192,71152,1,0,2:0:0:0:
320,192,71309,1,0,2:0:0:0:
448,192,71309,1,0,2:0:0:0:
192,192,71465,1,0,2:0:0:0:
64,192,71621,1,0,2:0:0:0:
320,192,71621,1,0,2:0:0:0:
192,192,71777,1,0,2:0:0:0:
64,192,71934,1,0,2:0:0:0:
448,192,71934,1,0,2:0:0:0:
320,192,72090,1,0,2:0:0:0:
192,192,72246,1,0,2:0:0:0:
64,192,72246,1,0,2:0:0:0:
320,192,72402,1,0,2:0:0:0:
192,192,72559,1,0,2:0:0:0:
448,192,72559,1,0,2:0:0:0:
320,192,72715,1,0,2:0:0:0:
64,192,72871,1,0,2:0:0:0:
448,192,72871,1,0,2:0:0:0:
192,192,73027,1,0,2:0:0:0:
320,192,73184,1,0,2:0:0:0:
448,192,73184,1,0,2:0:0:0:
192,192,73340,1,0,2:0:0:0:
64,192,73496,1,0,2:0:0:0:
320,192,73496,1,0,2:0:0:0:
192,192,73652,1,0,2:0:0:0:
64,192,73809,1,0,2:0:0:0:
448,192,73809,1,0,2:0:0:0:
320,192,73965,1,0,2:0:0:0:
192,192,74121,1,0,2:0:0:0:
64,192,74121,1,0,2:0:0:0:
320,192,74277,1,0,2:0:0:0:
192,192,74434,1,0,2:0:0:0:
448,192,74434,1,0,2:0:0:0:
320,192,74590,1,0,2:0:0:0:
448,192,74746,1,0,2:0:0:0:
64,192,74746,1,0,2:0:0:0:
192,192,74902,1,0,2:0:0:0:
448,192,75059,128,0,76934:2:0:0:0:
320,192,75059,1,0,2:0:0:0:
192,192,75371,1,0,2:0:0:0:
64,192,75371,1,0,2:0:0:0:
320,192,75684,1,0,2:0:0:0:
64,192,75684,1,0,2:0:0:0:
192,192,75996,1,0,2:0:0:0:
320,192,75996,1,0,2:0:0:0:
192,192,76309,1,0,2:0:0:0:
64,192,76309,1,0,2:0:0:0:
64,192,76621,1,0,2:0:0:0:
320,192,76621,1,0,2:0:0:0:
320,192,76934,128,0,78652:2:0:0:0:
192,192,76934,1,0,2:0:0:0:
192,192,77246,1,0,2:0:0:0:
64,192,77246,1,0,2:0:0:0:
64,192,77559,1,0,2:0:0:0:
448,192,77559,1,0,2:0:0:0:
192,192,77871,1,0,2:0:0:0:
64,192,77871,1,0,2:0:0:0:
192,192,78184,1,0,2:0:0:0:
448,192,78184,1,0,2:0:0:0:
448,192,78496,1,0,2:0:0:0:
64,192,78496,1,0,2:0:0:0:
320,192,78809,128,0,80215:2:0:0:0:
192,192,78809,1,0,2:0:0:0:
192,192,79121,1,0,2:0:0:0:
64,192,79121,1,0,2:0:0:0:
64,192,79434,1,0,2:0:0:0:
448,192,79434,1,0,2:0:0:0:
192,192,79746,1,0,2:0:0:0:
64,192,79746,1,0,2:0:0:0:
448,192,80059,1,0,2:0:0:0:
64,192,80059,1,0,2:0:0:0:
448,192,80371,1,0,2:0:0:0:
192,192,80371,1,0,2:0:0:0:
320,192,80684,1,0,2:0:0:0:
448,192,80684,1,0,2:0:0:0:
192,192,80996,1,0,2:0:0:0:
320,192,80996,1,0,2:0:0:0:
448,192,81309,1,0,2:0:0:0:
64,192,81309,1,0,2:0:0:0:
320,192,81621,1,0,2:0:0:0:
448,192,81621,1,0,2:0:0:0:
320,192,81934,1,0,2:0:0:0:
192,192,81934,1,0,2:0:0:0:
64,192,82246,1,0,2:0:0:0:
448,192,82246,1,0,2:0:0:0:
192,192,82559,128,0,86309:2:0:0:0:
320,192,82559,1,0,2:0:0:0:
320,192,82871,1,0,2:0:0:0:
448,192,82871,1,0,2:0:0:0:
448,192,83184,1,0,2:0:0:0:
64,192,83184,1,0,2:0:0:0:
320,192,83496,1,0,2:0:0:0:
448,192,83496,1,0,2:0:0:0:
320,192,83809,1,0,2:0:0:0:
64,192,83809,1,0,2:0:0:0:
64,192,84121,1,0,2:0:0:0:
448,192,84121,1,0,2:0:0:0:
320,192,84434,1,0,2:0:0:0:
448,192,84434,1,0,2:0:0:0:
320,192,84746,1,0,2:0:0:0:
64,192,84746,1,0,2:0:0:0:
64,192,85059,1,0,2:0:0:0:
448,192,85059,1,0,2:0:0:0:
448,192,85371,1,0,2:0:0:0:
320,192,85371,1,0,2:0:0:0:
320,192,85684,1,0,2:0:0:0:
64,192,85684,1,0,2:0:0:0:
64,192,85996,1,0,2:0:0:0:
448,192,85996,1,0,2:0:0:0:
64,192,86309,128,0,87246:2:0:0:0:
320,192,86309,1,0,2:0:0:0:
320,192,86621,1,0,2:0:0:0:
448,192,86621,1,0,2:0:0:0:
448,192,86934,1,0,2:0:0:0:
192,192,86934,1,0,2:0:0:0:
320,192,87246,128,0,88184:2:0:0:0:
192,192,87246,1,0,2:0:0:0:
192,192,87559,1,0,2:0:0:0:
448,192,87559,1,0,2:0:0:0:
448,192,87871,1,0,2:0:0:0:
64,192,87871,1,0,2:0:0:0:
192,192,88184,128,0,89121:2:0:0:0:
64,192,88184,1,0,2:0:0:0:
64,192,88496,1,0,2:0:0:0:
320,192,88496,1,0,2:0:0:0:
448,192,88809,1,0,2:0:0:0:
64,192,88809,1,0,2:0:0:0:
448,192,89121,128,0,90059:2:0:0:0:
320,192,89121,1,0,2:0:0:0:
320,192,89434,1,0,2:0:0:0:
192,192,89434,1,0,2:0:0:0:
320,192,89746,1,0,2:0:0:0:
64,192,89746,1,0,2:0:0:0:
192,192,90059,128,0,91934:2:0:0:0:
320,192,90059,1,0,2:0:0:0:
64,192,90371,1,0,2:0:0:0:
320,192,90371,1,0,2:0:0:0:
448,192,90684,1,0,2:0:0:0:
64,192,90684,1,0,2:0:0:0:
448,192,90996,1,0,2:0:0:0:
320,192,90996,1,0,2:0:0:0:
320,192,91309,1,0,2:0:0:0:
64,192,91309,1,0,2:0:0:0:
64,192,91621,1,0,2:0:0:0:
448,192,91621,1,0,2:0:0:0:
320,192,91934,128,0,93652:2:0:0:0:
64,192,91934,1,0,2:0:0:0:
192,192,92246,1,0,2:0:0:0:
448,192,92246,1,0,2:0:0:0:
448,192,92559,1,0,2:0:0:0:
64,192,92559,1,0,2:0:0:0:
192,192,92871,1,0,2:0:0:0:
64,192,92871,1,0,2:0:0:0:
192,192,93184,1,0,2:0:0:0:
448,192,93184,1,0,2:0:0:0:
448,192,93496,1,0,2:0:0:0:
64,192,93496,1,0,2:0:0:0:
320,192,93809,128,0,95215:2:0:0:0:
192,192,93809,1,0,2:0:0:0:
192,192,94121,1,0,2:0:0:0:
448,192,94121,1,0,2:0:0:0:
448,192,94434,1,0,2:0:0:0:
64,192,94434,1,0,2:0:0:0:
192,192,94746,1,0,2:0:0:0:
64,192,94746,1,0,2:0:0:0:
448,192,95059,1,0,2:0:0:0:
192,192,95059,1,0,2:0:0:0:
448,192,95371,1,0,2:0:0:0:
64,192,95371,1,0,2:0:0:0:
320,192,95684,1,0,2:0:0:0:
448,192,95684,1,0,2:0:0:0:
320,192,95996,1,0,2:0:0:0:
192,192,95996,1,0,2:0:0:0:
64,192,96309,1,0,2:0:0:0:
448,192,96309,1,0,2:0:0:0:
320,192,96621,1,0,2:0:0:0:
448,192,96621,1,0,2:0:0:0:
320,192,96934,1,0,2:0:0:0:
192,192,96934,1,0,2:0:0:0:
64,192,97246,1,0,2:0:0:0:
448,192,97246,1,0,2:0:0:0:
448,192,97559,128,0,101309:2:0:0:0:
320,192,97559,1,0,2:0:0:0:
320,192,97871,1,0,2:0:0:0:
192,192,97871,1,0,2:0:0:0:
320,192,98184,1,0,2:0:0:0:
64,192,98184,1,0,2:0:0:0:
192,192,98496,1,0,2:0:0:0:
320,192,98496,1,0,2:0:0:0:
192,192,98809,1,0,2:0:0:0:
64,192,98809,1,0,2:0:0:0:
320,192,99121,1,0,2:0:0:0:
64,192,99121,1,0,2:0:0:0:
320,192,99434,1,0,2:0:0:0:
192,192,99434,1,0,2:0:0:0:
192,192,99746,1,0,2:0:0:0:
64,192,99746,1,0,2:0:0:0:
320,192,100059,1,0,2:0:0:0:
64,192,100059,1,0,2:0:0:0:
320,192,100371,1,0,2:0:0:0:
192,192,100371,1,0,2:0:0:0:
192,192,100684,1,0,2:0:0:0:
64,192,100684,1,0,2:0:0:0:
64,192,100996,1,0,2:0:0:0:
320,192,100996,1,0,2:0:0:0:
320,192,101309,128,0,101934:2:0:0:0:
192,192,101309,1,0,2:0:0:0:
64,192,101621,1,0,2:0:0:0:
448,192,101621,1,0,2:0:0:0:
448,192,101934,1,0,2:0:0:0:
64,192,101934,1,0,2:0:0:0:
192,192,101934,128,0,103184:2:0:0:0:
448,192,102246,1,0,2:0:0:0:
320,192,102246,1,0,2:0:0:0:
320,192,102559,1,0,2:0:0:0:
64,192,102559,1,0,2:0:0:0:
64,192,102871,1,0,2:0:0:0:
448,192,102871,1,0,2:0:0:0:
448,192,103184,5,8,1:0:0:0:
320,192,103184,1,0,2:0:0:0:
64,192,103184,1,0,2:0:0:0:
448,192,103652,1,8,1:0:0:0:
320,192,103652,1,0,2:0:0:0:
64,192,103652,1,0,2:0:0:0:
192,192,104121,1,0,2:0:0:0:
320,192,104121,1,0,2:0:0:0:
448,192,104121,1,8,1:0:0:0:
320,192,104277,1,0,2:0:0:0:
192,192,104277,1,0,2:0:0:0:
448,192,104277,1,8,1:0:0:0:
448,192,104434,1,8,1:0:0:0:
192,192,104434,1,0,2:0:0:0:
320,192,104434,1,0,2:0:0:0:
64,192,104590,128,0,105059:2:0:0:0:
320,192,105059,1,2,2:0:0:0:
448,192,105059,128,0,105840:2:0:0:0:
192,192,105840,128,0,107402:2:0:0:0:
448,192,107871,1,0,2:0:0:0:
192,192,108184,1,0,2:0:0:0:
64,192,108496,1,0,2:0:0:0:
320,192,108809,128,0,109590:2:0:0:0:
448,192,108809,1,2,2:0:0:0:
448,192,109746,128,0,111152:2:0:0:0:
448,192,111621,1,0,2:0:0:0:
320,192,111934,1,0,2:0:0:0:
64,192,112246,1,0,2:0:0:0:
320,192,112559,1,0,2:0:0:0:
448,192,112559,1,2,2:0:0:0:
192,192,112871,1,0,2:0:0:0:
448,192,113184,1,0,2:0:0:0:
448,192,113340,128,0,114199:2:0:0:0:
192,192,115371,1,0,2:0:0:0:
320,192,115684,1,0,2:0:0:0:
448,192,115996,1,0,2:0:0:0:
64,192,116309,1,2,2:0:0:0:
320,192,116309,128,0,117715:2:0:0:0:
192,192,118184,128,0,119121:2:0:0:0:
64,192,119434,1,0,2:0:0:0:
320,192,119746,1,0,2:0:0:0:
448,192,120059,1,2,2:0:0:0:
192,192,120059,128,0,120527:2:0:0:0:
448,192,120840,128,0,122324:2:0:0:0:
64,192,120996,1,2,2:0:0:0:
192,192,121934,1,2,2:0:0:0:
448,192,122871,1,0,2:0:0:0:
64,192,122871,1,2,2:0:0:0:
320,192,123184,1,0,2:0:0:0:
192,192,123496,128,0,124512:2:0:0:0:
448,192,123809,1,2,2:0:0:0:
448,192,124746,128,0,125684:2:0:0:0:
64,192,124746,1,2,2:0:0:0:
192,192,125684,1,2,2:0:0:0:
320,192,125996,1,0,2:0:0:0:
192,192,126309,1,0,2:0:0:0:
448,192,126621,1,2,2:0:0:0:
64,192,126621,1,0,2:0:0:0:
320,192,126855,1,0,0:0:0:0:
192,192,127012,128,0,127402:2:0:0:0:
64,192,127559,128,0,129434:2:0:0:0:
448,192,127559,1,2,2:0:0:0:
320,192,128496,1,2,2:0:0:0:
448,192,129434,1,2,2:0:0:0:
64,192,130371,1,2,2:0:0:0:
448,192,130684,1,0,2:0:0:0:
192,192,130996,1,0,2:0:0:0:
448,192,131309,1,2,2:0:0:0:
64,192,131309,128,0,132949:2:0:0:0:
320,192,132246,1,2,2:0:0:0:
448,192,133184,1,2,2:0:0:0:
192,192,134121,1,2,2:0:0:0:
192,192,134824,128,0,135059:2:0:0:0:
320,192,135059,1,2,2:0:0:0:
448,192,135059,128,4,135996:2:0:0:0:
64,192,135059,128,0,135840:0:0:0:0:
192,192,135840,128,0,137246:2:0:0:0:
320,192,135996,1,2,2:0:0:0:
448,192,136934,1,2,2:0:0:0:
64,192,137871,1,2,2:0:0:0:
320,192,137871,1,0,2:0:0:0:
192,192,138184,1,0,2:0:0:0:
448,192,138496,1,0,2:0:0:0:
320,192,138809,128,0,139746:2:0:0:0:
192,192,138809,1,2,2:0:0:0:
64,192,138809,128,4,139746:2:0:0:0:
192,192,139746,128,0,141152:2:0:0:0:
448,192,139746,1,2,2:0:0:0:
320,192,140684,1,2,2:0:0:0:
448,192,141621,1,0,2:0:0:0:
64,192,141621,1,2,2:0:0:0:
320,192,141934,1,0,2:0:0:0:
192,192,142246,1,0,2:0:0:0:
448,192,142559,1,2,2:0:0:0:
64,192,142559,128,4,143496:2:0:0:0:
192,192,142559,128,0,143496:0:0:0:0:
320,192,142871,1,0,2:0:0:0:
448,192,143184,1,0,0:0:0:0:
448,192,143496,128,0,144121:0:0:0:0:
320,192,143496,1,2,2:0:0:0:
64,192,144434,1,2,2:0:0:0:
448,192,145371,1,2,2:0:0:0:
320,192,145684,1,0,2:0:0:0:
64,192,145996,1,0,2:0:0:0:
192,192,146309,128,0,147090:2:0:0:0:
64,192,146309,1,2,2:0:0:0:
320,192,146309,128,4,147246:2:0:0:0:
64,192,147090,128,0,147715:2:0:0:0:
448,192,147246,1,2,2:0:0:0:
192,192,148184,1,2,2:0:0:0:
448,192,149121,1,2,2:0:0:0:
64,192,149434,1,0,2:0:0:0:
320,192,149746,1,0,2:0:0:0:
448,192,150059,128,4,150996:2:0:0:0:
64,192,150059,1,2,2:0:0:0:
192,192,150059,128,0,150762:2:0:0:0:
64,192,150762,128,0,150996:0:0:0:0:
320,192,150996,1,2,2:0:0:0:
192,192,150996,128,0,152246:0:0:0:0:
448,192,151934,1,2,2:0:0:0:
192,192,152871,1,2,2:0:0:0:
320,192,153184,1,0,2:0:0:0:
448,192,153496,128,0,153965:2:0:0:0:
64,192,153809,1,2,2:0:0:0:
192,192,153809,128,4,154746:2:0:0:0:
320,192,153965,128,0,154746:2:0:0:0:
448,192,154746,1,2,2:0:0:0:
64,192,154746,128,0,155449:2:0:0:0:
192,192,155684,1,2,2:0:0:0:
320,192,155996,1,0,2:0:0:0:
192,192,156309,1,0,2:0:0:0:
448,192,156621,1,2,2:0:0:0:
64,192,156621,1,0,2:0:0:0:
320,192,156934,1,0,2:0:0:0:
192,192,157246,1,0,2:0:0:0:
192,192,157559,1,2,2:0:0:0:
64,192,157559,128,0,158730:2:0:0:0:
320,192,157559,128,4,158496:2:0:0:0:
448,192,158496,1,2,2:0:0:0:
64,192,159434,1,2,2:0:0:0:
448,192,160371,1,2,2:0:0:0:
192,192,160684,1,0,2:0:0:0:
320,192,160996,1,0,2:0:0:0:
320,192,161309,128,0,162246:2:0:0:0:
64,192,161309,1,2,2:0:0:0:
448,192,161309,128,0,163184:2:0:0:0:
192,192,161309,128,4,162012:0:0:0:0:
64,192,163184,128,0,164590:2:0:0:0:
192,192,163652,128,0,164121:2:0:0:0:
320,192,163809,128,0,164121:0:0:0:0:
448,192,164121,128,0,164590:2:0:0:0:
192,192,164590,128,0,164902:2:0:0:0:
64,192,165059,1,8,2:0:0:0:
192,192,165059,128,8,165840:1:0:0:0:
320,192,165059,128,0,165840:2:0:0:0:
448,192,165059,128,0,165840:2:0:0:0:
64,192,165996,128,0,166777:2:0:0:0:
192,192,165996,128,0,166777:2:0:0:0:
320,192,165996,128,0,166777:2:0:0:0:
320,192,166934,128,0,167715:2:0:0:0:
448,192,166934,128,0,167715:2:0:0:0:
192,192,166934,128,0,167715:2:0:0:0:
64,192,167871,128,0,168652:2:0:0:0:
192,192,167871,128,0,168652:2:0:0:0:
320,192,167871,128,0,168652:2:0:0:0:
448,192,168809,128,0,169590:2:0:0:0:
320,192,168809,128,0,169590:2:0:0:0:
64,192,168809,128,0,169590:2:0:0:0:
192,192,169746,128,0,170059:2:0:0:0:
448,192,169746,1,0,2:0:0:0:
320,192,170059,128,0,170371:2:0:0:0:
64,192,170059,1,0,2:0:0:0:
448,192,170371,128,0,170684:2:0:0:0:
192,192,170371,1,0,2:0:0:0:
64,192,170684,128,0,172090:2:0:0:0:
192,192,170684,128,0,172090:2:0:0:0:
320,192,170684,128,0,172090:2:0:0:0:
448,192,172090,128,0,172246:2:0:0:0:
448,192,172559,128,0,173340:2:0:0:0:
192,192,172559,128,0,173340:2:0:0:0:
320,192,172559,128,0,173340:2:0:0:0:
64,192,173496,128,0,174277:2:0:0:0:
192,192,173496,128,0,174277:2:0:0:0:
320,192,173496,128,0,174277:2:0:0:0:
320,192,174434,128,0,175215:2:0:0:0:
192,192,174434,128,0,175215:2:0:0:0:
448,192,174434,128,0,175215:2:0:0:0:
64,192,175371,128,0,175684:2:0:0:0:
320,192,175371,1,0,2:0:0:0:
192,192,175684,128,0,175996:2:0:0:0:
448,192,175684,1,0,2:0:0:0:
320,192,175996,128,0,176309:2:0:0:0:
64,192,175996,1,0,2:0:0:0:
192,192,176309,128,0,177715:2:0:0:0:
64,192,176309,128,0,177715:2:0:0:0:
448,192,176309,128,0,177715:2:0:0:0:
320,192,177715,128,0,178027:2:0:0:0:
64,192,178184,128,0,179902:2:0:0:0:
192,192,178184,128,0,179902:2:0:0:0:
320,192,178184,128,0,179902:0:0:0:0:
448,192,180059,128,0,180840:2:0:0:0:
320,192,180059,128,0,180840:2:0:0:0:
64,192,180059,128,0,180840:2:0:0:0:
64,192,180996,128,0,181777:2:0:0:0:
192,192,180996,128,0,181777:2:0:0:0:
448,192,180996,128,0,181777:2:0:0:0:
448,192,181934,128,0,182715:2:0:0:0:
320,192,181934,128,0,182715:2:0:0:0:
64,192,181934,128,0,182715:2:0:0:0:
448,192,182871,128,0,183652:2:0:0:0:
192,192,182871,128,0,183652:2:0:0:0:
64,192,182871,128,0,183652:2:0:0:0:
448,192,183809,128,0,184590:2:0:0:0:
320,192,183809,128,0,184590:2:0:0:0:
192,192,183809,128,0,184590:2:0:0:0:
64,192,184746,128,0,185059:2:0:0:0:
320,192,184746,1,0,2:0:0:0:
192,192,185059,128,0,185371:2:0:0:0:
448,192,185059,1,0,2:0:0:0:
320,192,185371,128,0,185684:2:0:0:0:
64,192,185371,1,0,2:0:0:0:
448,192,185684,128,0,187402:2:0:0:0:
192,192,185684,128,0,187402:2:0:0:0:
64,192,185684,128,0,187402:2:0:0:0:
448,192,187559,128,0,188340:2:0:0:0:
192,192,187559,128,0,188340:2:0:0:0:
320,192,187559,128,0,188340:2:0:0:0:
64,192,188496,128,0,189277:2:0:0:0:
192,192,188496,128,0,189277:2:0:0:0:
320,192,188496,128,0,189277:2:0:0:0:
448,192,189434,128,0,190215:2:0:0:0:
320,192,189434,128,0,190215:2:0:0:0:
192,192,189434,128,0,190215:2:0:0:0:
64,192,190371,128,0,190684:2:0:0:0:
320,192,190371,1,0,2:0:0:0:
192,192,190684,128,0,190996:2:0:0:0:
448,192,190684,1,0,2:0:0:0:
320,192,190996,128,0,191309:2:0:0:0:
64,192,190996,1,0,2:0:0:0:
64,192,191309,128,0,192715:2:0:0:0:
192,192,191309,128,0,192715:2:0:0:0:
448,192,191309,128,0,192715:2:0:0:0:
320,192,192715,128,0,193027:2:0:0:0:
448,192,193184,128,0,194902:2:0:0:0:
320,192,193184,128,0,194902:2:0:0:0:
64,192,193184,128,0,194902:2:0:0:0:
192,192,194121,1,8,1:0:0:0:
192,192,194590,1,8,1:0:0:0:
192,192,195059,1,0,3:0:0:0:
64,192,195059,1,0,2:0:0:0:
320,192,195215,1,0,2:0:0:0:
64,192,195371,1,0,2:0:0:0:
448,192,195527,1,0,2:0:0:0:
320,192,195527,1,4,3:0:0:0:
192,192,195684,1,0,2:0:0:0:
64,192,195840,1,0,2:0:0:0:
448,192,195996,1,0,2:0:0:0:
320,192,195996,1,0,3:0:0:0:
192,192,196152,1,0,2:0:0:0:
448,192,196309,1,0,2:0:0:0:
192,192,196465,1,4,3:0:0:0:
64,192,196465,1,0,2:0:0:0:
320,192,196621,1,0,2:0:0:0:
448,192,196777,1,0,2:0:0:0:
192,192,196934,1,0,3:0:0:0:
64,192,196934,1,0,2:0:0:0:
320,192,197090,1,0,2:0:0:0:
64,192,197246,1,0,2:0:0:0:
448,192,197402,1,0,2:0:0:0:
320,192,197402,1,4,3:0:0:0:
192,192,197559,1,0,2:0:0:0:
64,192,197715,1,0,2:0:0:0:
448,192,197871,1,0,2:0:0:0:
320,192,197871,1,0,3:0:0:0:
192,192,198027,1,0,2:0:0:0:
448,192,198184,1,0,2:0:0:0:
192,192,198340,1,4,3:0:0:0:
64,192,198340,1,0,2:0:0:0:
320,192,198496,1,0,2:0:0:0:
448,192,198652,1,0,2:0:0:0:
64,192,198809,1,0,2:0:0:0:
192,192,198809,1,0,3:0:0:0:
320,192,198965,1,0,2:0:0:0:
64,192,199121,1,0,2:0:0:0:
320,192,199277,1,4,3:0:0:0:
448,192,199277,1,0,2:0:0:0:
192,192,199434,1,0,2:0:0:0:
64,192,199590,1,0,2:0:0:0:
320,192,199746,1,0,3:0:0:0:
448,192,199746,1,0,2:0:0:0:
192,192,199902,1,0,2:0:0:0:
448,192,200059,1,0,2:0:0:0:
64,192,200215,1,0,2:0:0:0:
192,192,200215,1,4,3:0:0:0:
320,192,200371,1,0,2:0:0:0:
448,192,200527,1,0,2:0:0:0:
192,192,200684,1,0,3:0:0:0:
64,192,200684,1,0,2:0:0:0:
320,192,200840,1,0,2:0:0:0:
64,192,200996,1,0,2:0:0:0:
448,192,201152,1,0,2:0:0:0:
320,192,201152,1,4,3:0:0:0:
192,192,201309,1,0,2:0:0:0:
64,192,201465,1,0,2:0:0:0:
448,192,201621,1,0,2:0:0:0:
320,192,201621,1,0,3:0:0:0:
192,192,201777,1,0,2:0:0:0:
448,192,201934,1,0,2:0:0:0:
192,192,202090,1,4,3:0:0:0:
64,192,202090,1,0,2:0:0:0:
320,192,202246,1,0,2:0:0:0:
448,192,202402,1,0,2:0:0:0:
64,192,202559,1,0,2:0:0:0:
192,192,202559,1,0,3:0:0:0:
320,192,202715,1,0,2:0:0:0:
64,192,202871,1,0,2:0:0:0:
320,192,203027,1,4,3:0:0:0:
448,192,203027,1,0,2:0:0:0:
192,192,203184,1,0,2:0:0:0:
64,192,203340,1,0,2:0:0:0:
320,192,203496,1,0,3:0:0:0:
448,192,203496,1,0,2:0:0:0:
192,192,203652,1,0,2:0:0:0:
448,192,203809,1,0,2:0:0:0:
64,192,203965,1,0,2:0:0:0:
192,192,203965,1,4,3:0:0:0:
320,192,204121,1,0,2:0:0:0:
448,192,204277,1,0,2:0:0:0:
192,192,204434,1,0,3:0:0:0:
64,192,204434,1,0,2:0:0:0:
320,192,204590,1,0,2:0:0:0:
64,192,204746,1,0,2:0:0:0:
448,192,204902,1,0,2:0:0:0:
320,192,204902,1,4,3:0:0:0:
192,192,205059,1,0,2:0:0:0:
64,192,205215,1,0,2:0:0:0:
448,192,205371,1,0,2:0:0:0:
320,192,205371,1,0,3:0:0:0:
192,192,205527,1,0,2:0:0:0:
448,192,205684,1,0,2:0:0:0:
192,192,205840,1,4,3:0:0:0:
64,192,205840,1,0,2:0:0:0:
320,192,205996,1,0,2:0:0:0:
448,192,206152,1,0,2:0:0:0:
64,192,206309,1,0,2:0:0:0:
192,192,206309,1,0,3:0:0:0:
320,192,206465,1,0,2:0:0:0:
64,192,206621,1,0,2:0:0:0:
320,192,206777,1,4,3:0:0:0:
448,192,206777,1,0,2:0:0:0:
192,192,206934,1,0,2:0:0:0:
64,192,207090,1,0,2:0:0:0:
320,192,207246,1,0,3:0:0:0:
448,192,207246,1,0,2:0:0:0:
192,192,207402,1,0,2:0:0:0:
448,192,207559,1,0,2:0:0:0:
64,192,207715,1,0,2:0:0:0:
192,192,207715,1,4,3:0:0:0:
320,192,207871,1,0,2:0:0:0:
64,192,208027,1,0,2:0:0:0:
320,192,208184,1,4,3:0:0:0:
448,192,208184,1,0,2:0:0:0:
64,192,208340,1,0,2:0:0:0:
320,192,208496,1,0,2:0:0:0:
64,192,208652,1,0,2:0:0:0:
192,192,208652,1,0,3:0:0:0:
320,192,208809,1,0,3:0:0:0:
448,192,208965,1,0,3:0:0:0:
64,192,208965,1,4,3:0:0:0:
192,192,209121,1,0,3:0:0:0:
320,192,209121,1,0,2:0:0:0:
64,192,209277,1,0,3:0:0:0:
320,192,209434,1,0,0:0:0:0:
448,192,209434,1,0,3:0:0:0:
64,192,209590,1,4,3:0:0:0:
192,192,209590,1,0,3:0:0:0:
448,192,209746,1,0,3:0:0:0:
320,192,209902,1,0,3:0:0:0:
64,192,210059,1,0,2:0:0:0:
192,192,210059,1,0,3:0:0:0:
320,192,210215,1,0,2:0:0:0:
64,192,210371,1,0,2:0:0:0:
320,192,210527,1,4,3:0:0:0:
448,192,210527,1,0,2:0:0:0:
192,192,210684,1,0,2:0:0:0:
64,192,210840,1,0,2:0:0:0:
320,192,210996,1,0,3:0:0:0:
448,192,210996,1,0,2:0:0:0:
192,192,211152,1,0,2:0:0:0:
448,192,211309,1,0,2:0:0:0:
64,192,211465,1,0,2:0:0:0:
192,192,211465,1,4,3:0:0:0:
320,192,211621,1,0,2:0:0:0:
448,192,211777,1,0,2:0:0:0:
192,192,211934,1,0,3:0:0:0:
64,192,211934,1,0,2:0:0:0:
320,192,212090,1,0,2:0:0:0:
64,192,212246,1,0,2:0:0:0:
448,192,212402,1,0,2:0:0:0:
320,192,212402,1,4,3:0:0:0:
192,192,212559,1,0,2:0:0:0:
64,192,212715,1,0,2:0:0:0:
448,192,212871,1,0,2:0:0:0:
320,192,212871,1,0,3:0:0:0:
192,192,213027,1,0,2:0:0:0:
448,192,213184,1,0,2:0:0:0:
192,192,213340,1,4,3:0:0:0:
64,192,213340,1,0,2:0:0:0:
320,192,213496,1,0,2:0:0:0:
448,192,213652,1,0,2:0:0:0:
192,192,213809,1,0,3:0:0:0:
64,192,213809,1,0,2:0:0:0:
320,192,213965,1,0,2:0:0:0:
192,192,214121,1,0,2:0:0:0:
448,192,214277,128,0,214434:2:0:0:0:
320,192,214277,128,0,214434:3:0:0:0:
64,192,214277,128,4,214434:3:0:0:0:
192,192,214434,1,0,2:0:0:0:
320,192,214590,1,0,2:0:0:0:
64,192,214746,128,0,214902:2:0:0:0:
192,192,214746,128,0,214902:3:0:0:0:
448,192,214746,128,0,214902:2:0:0:0:
320,192,214902,1,0,2:0:0:0:
192,192,215059,1,0,2:0:0:0:
64,192,215215,128,4,215371:3:0:0:0:
320,192,215215,128,0,215371:3:0:0:0:
448,192,215215,128,0,215371:2:0:0:0:
192,192,215371,1,0,2:0:0:0:
320,192,215527,1,0,2:0:0:0:
448,192,215684,128,0,215840:2:0:0:0:
192,192,215684,128,0,215840:3:0:0:0:
64,192,215684,128,0,215840:2:0:0:0:
320,192,215840,1,0,2:0:0:0:
192,192,215996,1,0,2:0:0:0:
448,192,216152,128,0,216309:2:0:0:0:
320,192,216152,128,0,216309:3:0:0:0:
64,192,216152,128,4,216309:3:0:0:0:
192,192,216309,1,0,2:0:0:0:
320,192,216465,1,0,2:0:0:0:
64,192,216621,128,0,216777:2:0:0:0:
192,192,216621,128,0,216777:3:0:0:0:
448,192,216621,128,0,216777:2:0:0:0:
320,192,216777,1,0,2:0:0:0:
192,192,216934,1,0,2:0:0:0:
448,192,217090,128,0,217246:2:0:0:0:
320,192,217090,128,0,217246:3:0:0:0:
64,192,217090,128,0,217246:2:0:0:0:
192,192,217246,1,0,2:0:0:0:
320,192,217402,1,0,2:0:0:0:
64,192,217559,128,0,217715:2:0:0:0:
192,192,217559,128,4,217715:3:0:0:0:
448,192,217559,128,0,217715:2:0:0:0:
320,192,217715,1,0,2:0:0:0:
64,192,217871,128,0,218027:2:0:0:0:
192,192,217871,128,0,218027:2:0:0:0:
320,192,218027,128,4,218184:3:0:0:0:
448,192,218027,128,0,218184:2:0:0:0:
192,192,218184,128,0,218340:2:0:0:0:
64,192,218184,128,0,218340:2:0:0:0:
448,192,218340,1,0,2:0:0:0:
192,192,218496,128,4,218652:3:0:0:0:
320,192,218496,128,0,218652:2:0:0:0:
64,192,218652,1,0,2:0:0:0:
192,192,218809,128,0,218965:2:0:0:0:
320,192,218809,128,0,218965:2:0:0:0:
448,192,218965,128,4,219121:3:0:0:0:
64,192,218965,128,0,219121:2:0:0:0:
192,192,219121,128,0,219277:2:0:0:0:
320,192,219121,128,0,219277:2:0:0:0:
448,192,219277,1,0,2:0:0:0:
64,192,219434,128,0,219590:2:0:0:0:
192,192,219434,128,4,219590:3:0:0:0:
320,192,219590,1,0,2:0:0:0:
192,192,219746,128,0,219902:2:0:0:0:
448,192,219746,128,0,219902:2:0:0:0:
320,192,219902,128,4,220059:3:0:0:0:
64,192,219902,128,0,220059:2:0:0:0:
192,192,220059,128,0,220215:2:0:0:0:
448,192,220059,128,0,220215:2:0:0:0:
64,192,220215,1,0,2:0:0:0:
192,192,220371,128,4,220527:3:0:0:0:
320,192,220371,128,0,220527:2:0:0:0:
448,192,220527,1,0,2:0:0:0:
64,192,220684,128,0,220840:2:0:0:0:
192,192,220684,128,0,220840:2:0:0:0:
320,192,220840,128,0,220996:2:0:0:0:
448,192,220840,128,4,220996:3:0:0:0:
192,192,220996,128,0,221152:2:0:0:0:
64,192,220996,128,0,221152:2:0:0:0:
320,192,221152,1,0,2:0:0:0:
192,192,221309,128,4,221465:3:0:0:0:
448,192,221309,128,0,221465:2:0:0:0:
64,192,221465,1,0,2:0:0:0:
192,192,221621,128,0,221777:2:0:0:0:
320,192,221621,128,0,221777:2:0:0:0:
448,192,221777,128,4,221934:3:0:0:0:
64,192,221777,128,0,221934:2:0:0:0:
192,192,221934,128,0,222090:2:0:0:0:
320,192,221934,128,0,222090:2:0:0:0:
448,192,222090,1,0,2:0:0:0:
64,192,222246,128,0,222402:2:0:0:0:
192,192,222246,128,4,222402:3:0:0:0:
320,192,222402,1,0,2:0:0:0:
192,192,222559,128,0,222715:2:0:0:0:
448,192,222559,128,0,222715:2:0:0:0:
320,192,222715,128,4,222871:3:0:0:0:
64,192,222715,128,0,222871:2:0:0:0:
192,192,222871,128,0,223027:2:0:0:0:
448,192,222871,128,0,223027:2:0:0:0:
320,192,223027,128,0,223184:2:0:0:0:
64,192,224590,5,0,2:0:0:0:
192,192,224746,1,0,2:0:0:0:
448,192,224902,1,0,2:0:0:0:
448,192,225059,128,0,225527:2:0:0:0:
320,192,225059,128,0,225527:2:0:0:0:
64,192,225059,128,0,225527:3:0:0:0:
192,192,225059,1,8,1:0:0:0:
192,192,225527,1,8,2:0:0:0:
64,192,225996,128,0,226465:2:0:0:0:
192,192,225996,128,0,226465:2:0:0:0:
320,192,225996,1,8,2:0:0:0:
448,192,225996,128,0,226465:3:0:0:0:
320,192,226465,1,8,2:0:0:0:
448,192,226934,128,0,227246:2:0:0:0:
64,192,226934,128,0,227246:3:0:0:0:
320,192,226934,128,0,227246:2:0:0:0:
192,192,226934,1,8,2:0:0:0:
448,192,227402,128,0,227715:2:0:0:0:
320,192,227402,128,0,227715:2:0:0:0:
64,192,227402,128,0,227715:3:0:0:0:
192,192,227402,1,8,2:0:0:0:
64,192,227871,128,0,228184:2:0:0:0:
192,192,227871,128,0,228184:2:0:0:0:
320,192,227871,1,8,2:0:0:0:
448,192,227871,128,0,228184:3:0:0:0:
64,192,228340,128,0,228652:2:0:0:0:
192,192,228340,128,0,228652:2:0:0:0:
320,192,228340,1,8,2:0:0:0:
448,192,228340,128,0,228652:3:0:0:0:
448,192,228809,128,0,229121:2:0:0:0:
320,192,228809,128,0,229121:2:0:0:0:
192,192,228809,128,0,229121:3:0:0:0:
64,192,228809,1,8,2:0:0:0:
64,192,229277,1,8,2:0:0:0:
192,192,229277,128,0,229590:3:0:0:0:
320,192,229277,128,0,229590:2:0:0:0:
448,192,229277,128,0,229590:2:0:0:0:
448,192,229746,128,0,230059:3:0:0:0:
320,192,229746,1,0,2:0:0:0:
192,192,229746,1,0,2:0:0:0:
64,192,229746,1,8,2:0:0:0:
320,192,230059,128,0,230371:2:0:0:0:
64,192,230215,1,8,2:0:0:0:
448,192,230215,1,0,2:0:0:0:
192,192,230371,128,0,230684:2:0:0:0:
64,192,230684,128,0,232090:2:0:0:0:
320,192,230684,1,0,3:0:0:0:
448,192,230684,1,8,2:0:0:0:
448,192,231152,1,8,2:0:0:0:
320,192,231152,1,0,3:0:0:0:
192,192,231152,1,0,2:0:0:0:
192,192,231621,1,0,2:0:0:0:
320,192,231621,1,0,3:0:0:0:
448,192,231621,1,8,2:0:0:0:
192,192,232090,1,0,2:0:0:0:
320,192,232090,1,0,3:0:0:0:
448,192,232090,1,8,2:0:0:0:
448,192,232559,128,0,233496:2:0:0:0:
320,192,232559,1,0,3:0:0:0:
64,192,232559,1,8,2:0:0:0:
192,192,232559,1,0,2:0:0:0:
320,192,233027,1,0,3:0:0:0:
192,192,233027,1,0,2:0:0:0:
64,192,233027,1,8,2:0:0:0:
192,192,233496,128,0,234434:2:0:0:0:
64,192,233496,1,8,2:0:0:0:
320,192,233496,1,0,3:0:0:0:
448,192,233965,1,0,2:0:0:0:
320,192,233965,1,0,3:0:0:0:
64,192,233965,1,8,2:0:0:0:
448,192,234434,128,0,235371:2:0:0:0:
64,192,234434,1,8,2:0:0:0:
320,192,234434,1,0,3:0:0:0:
320,192,234902,1,0,3:0:0:0:
192,192,234902,1,0,2:0:0:0:
64,192,234902,1,8,2:0:0:0:
64,192,235371,128,0,235684:2:0:0:0:
192,192,235371,1,0,3:0:0:0:
320,192,235371,1,8,2:0:0:0:
192,192,235684,128,0,235996:2:0:0:0:
448,192,235840,1,8,2:0:0:0:
64,192,235840,1,0,3:0:0:0:
320,192,235996,128,0,236309:2:0:0:0:
448,192,236309,128,0,237715:2:0:0:0:
192,192,236309,1,0,3:0:0:0:
64,192,236309,1,8,2:0:0:0:
320,192,236777,1,0,2:0:0:0:
64,192,236777,1,8,2:0:0:0:
192,192,236777,1,0,3:0:0:0:
64,192,237246,1,8,2:0:0:0:
192,192,237246,1,0,3:0:0:0:
320,192,237246,1,0,2:0:0:0:
64,192,237715,1,8,2:0:0:0:
192,192,237715,1,0,3:0:0:0:
320,192,237715,128,0,238184:2:0:0:0:
192,192,238184,128,0,239590:2:0:0:0:
64,192,238184,1,8,2:0:0:0:
448,192,238184,1,0,3:0:0:0:
448,192,238652,1,0,3:0:0:0:
320,192,238652,1,0,2:0:0:0:
64,192,238652,1,8,2:0:0:0:
320,192,239121,1,0,2:0:0:0:
448,192,239121,1,0,3:0:0:0:
64,192,239121,1,0,2:0:0:0:
320,192,239590,1,0,2:0:0:0:
448,192,239590,1,0,3:0:0:0:
64,192,239590,1,0,2:0:0:0:
192,192,239746,1,8,1:0:0:0:
64,192,239902,1,2,2:0:0:0:
448,192,239902,1,2,2:0:0:0:
64,192,240059,128,0,240371:2:0:0:0:
192,192,240059,128,0,240371:3:0:0:0:
448,192,240059,128,0,240371:2:0:0:0:
320,192,240059,1,8,2:0:0:0:
64,192,240527,1,0,2:0:0:0:
448,192,240527,1,0,2:0:0:0:
192,192,240527,1,0,3:0:0:0:
448,192,240996,128,0,241309:2:0:0:0:
320,192,240996,128,0,241309:3:0:0:0:
192,192,240996,1,8,2:0:0:0:
64,192,240996,128,0,241309:2:0:0:0:
320,192,241465,1,0,3:0:0:0:
448,192,241465,1,0,2:0:0:0:
64,192,241465,1,0,2:0:0:0:
64,192,241934,128,0,242246:2:0:0:0:
192,192,241934,128,0,242246:3:0:0:0:
320,192,241934,1,8,2:0:0:0:
448,192,241934,128,0,242246:2:0:0:0:
192,192,242402,1,0,3:0:0:0:
64,192,242402,1,0,2:0:0:0:
448,192,242402,1,0,2:0:0:0:
448,192,242871,128,0,243184:2:0:0:0:
320,192,242871,128,0,243184:3:0:0:0:
64,192,242871,128,0,243184:2:0:0:0:
192,192,242871,1,8,2:0:0:0:
448,192,243340,128,0,243652:2:0:0:0:
320,192,243340,128,0,243652:3:0:0:0:
192,192,243340,1,8,2:0:0:0:
64,192,243340,128,0,243652:2:0:0:0:
64,192,243809,128,0,244121:2:0:0:0:
192,192,243809,128,0,244121:3:0:0:0:
320,192,243809,128,0,244121:2:0:0:0:
448,192,243809,1,8,2:0:0:0:
64,192,244277,128,0,244590:2:0:0:0:
192,192,244277,128,0,244590:3:0:0:0:
320,192,244277,128,0,244590:2:0:0:0:
448,192,244277,1,8,2:0:0:0:
64,192,244746,128,0,245059:2:0:0:0:
192,192,244746,1,0,3:0:0:0:
320,192,244746,1,0,2:0:0:0:
448,192,244746,1,8,2:0:0:0:
192,192,245059,128,0,245371:2:0:0:0:
448,192,245215,1,8,2:0:0:0:
64,192,245215,1,0,3:0:0:0:
320,192,245371,128,0,245684:2:0:0:0:
448,192,245684,128,0,247090:2:0:0:0:
192,192,245684,1,0,3:0:0:0:
64,192,245684,1,8,2:0:0:0:
64,192,246152,1,8,2:0:0:0:
320,192,246152,1,0,2:0:0:0:
192,192,246152,1,0,3:0:0:0:
320,192,246621,1,0,2:0:0:0:
192,192,246621,1,0,3:0:0:0:
64,192,246621,1,8,2:0:0:0:
64,192,247090,1,8,2:0:0:0:
192,192,247090,1,0,3:0:0:0:
320,192,247090,1,0,2:0:0:0:
64,192,247559,128,0,248496:2:0:0:0:
192,192,247559,1,0,2:0:0:0:
320,192,247559,1,0,3:0:0:0:
448,192,247559,1,8,2:0:0:0:
448,192,248027,1,8,2:0:0:0:
320,192,248027,1,0,3:0:0:0:
192,192,248027,1,0,2:0:0:0:
320,192,248496,128,0,249434:2:0:0:0:
192,192,248496,1,0,3:0:0:0:
448,192,248496,1,8,2:0:0:0:
64,192,248965,1,0,2:0:0:0:
192,192,248965,1,0,3:0:0:0:
448,192,248965,1,8,2:0:0:0:
64,192,249434,128,0,250371:2:0:0:0:
448,192,249434,1,8,2:0:0:0:
192,192,249434,1,0,3:0:0:0:
192,192,249902,1,0,2:0:0:0:
320,192,249902,1,0,3:0:0:0:
448,192,249902,1,8,2:0:0:0:
448,192,250371,128,0,250684:2:0:0:0:
320,192,250371,1,0,3:0:0:0:
192,192,250371,1,8,2:0:0:0:
320,192,250684,128,0,250996:2:0:0:0:
64,192,250840,1,8,2:0:0:0:
448,192,250840,1,0,3:0:0:0:
192,192,250996,128,0,251309:2:0:0:0:
64,192,251309,128,0,252715:2:0:0:0:
320,192,251309,1,0,3:0:0:0:
448,192,251309,1,8,2:0:0:0:
192,192,251777,1,0,2:0:0:0:
320,192,251777,1,0,3:0:0:0:
448,192,251777,1,8,2:0:0:0:
448,192,252246,1,8,2:0:0:0:
320,192,252246,1,0,3:0:0:0:
192,192,252246,1,0,2:0:0:0:
320,192,252715,1,0,3:0:0:0:
448,192,252715,1,8,2:0:0:0:
192,192,252715,128,0,253184:2:0:0:0:
448,192,253184,128,0,254590:2:0:0:0:
320,192,253184,1,0,3:0:0:0:
64,192,253184,1,8,2:0:0:0:
64,192,253652,1,8,2:0:0:0:
192,192,253652,1,0,2:0:0:0:
320,192,253652,1,0,3:0:0:0:
320,192,254121,1,0,3:0:0:0:
192,192,254121,1,0,2:0:0:0:
64,192,254121,1,0,2:0:0:0:
64,192,254590,1,0,2:0:0:0:
320,192,254590,1,0,3:0:0:0:
192,192,254746,1,0,2:0:0:0:
320,192,254902,1,0,2:0:0:0:
448,192,255059,1,0,2:0:0:0:
64,192,255059,1,0,3:0:0:0:
192,192,255059,1,0,2:0:0:0:
64,192,255215,1,0,2:0:0:0:
192,192,255371,1,0,2:0:0:0:
192,192,255527,1,0,3:0:0:0:
448,192,255527,1,0,0:0:0:0:
320,192,255684,1,0,2:0:0:0:
320,192,255840,1,0,2:0:0:0:
448,192,255996,1,0,3:0:0:0:
64,192,255996,1,0,2:0:0:0:
448,192,256152,1,0,2:0:0:0:
320,192,256309,1,0,2:0:0:0:
320,192,256465,1,0,3:0:0:0:
64,192,256465,1,0,0:0:0:0:
192,192,256621,1,0,2:0:0:0:
192,192,256777,1,0,2:0:0:0:
64,192,256934,1,0,3:0:0:0:
448,192,256934,1,0,2:0:0:0:
64,192,257090,1,0,2:0:0:0:
192,192,257246,1,0,2:0:0:0:
192,192,257402,1,0,3:0:0:0:
448,192,257402,1,0,0:0:0:0:
320,192,257559,1,0,2:0:0:0:
320,192,257715,1,0,2:0:0:0:
448,192,257871,1,0,3:0:0:0:
64,192,257871,1,0,2:0:0:0:
448,192,258027,1,0,2:0:0:0:
320,192,258184,1,0,2:0:0:0:
320,192,258340,1,0,3:0:0:0:
64,192,258340,1,0,0:0:0:0:
192,192,258496,1,0,2:0:0:0:
192,192,258652,1,0,2:0:0:0:
320,192,258809,1,0,3:0:0:0:
64,192,258809,1,0,2:0:0:0:
320,192,258965,1,0,2:0:0:0:
192,192,259121,1,0,2:0:0:0:
192,192,259277,1,0,3:0:0:0:
64,192,259277,1,0,0:0:0:0:
448,192,259434,1,0,2:0:0:0:
448,192,259590,1,0,2:0:0:0:
64,192,259746,1,0,3:0:0:0:
320,192,259746,1,0,2:0:0:0:
64,192,259902,1,0,2:0:0:0:
320,192,260059,1,0,2:0:0:0:
320,192,260215,1,0,3:0:0:0:
448,192,260215,1,0,0:0:0:0:
192,192,260371,1,0,2:0:0:0:
192,192,260527,1,0,2:0:0:0:
320,192,260684,1,0,3:0:0:0:
64,192,260684,1,0,2:0:0:0:
320,192,260840,1,0,2:0:0:0:
192,192,260996,1,0,2:0:0:0:
192,192,261152,1,0,3:0:0:0:
64,192,261152,1,0,0:0:0:0:
448,192,261309,1,0,2:0:0:0:
448,192,261465,1,0,2:0:0:0:
192,192,261621,1,0,2:0:0:0:
64,192,261621,1,0,3:0:0:0:
64,192,261777,1,0,2:0:0:0:
320,192,261934,1,0,2:0:0:0:
320,192,262090,1,0,3:0:0:0:
448,192,262090,1,0,0:0:0:0:
192,192,262246,1,0,2:0:0:0:
192,192,262402,1,0,2:0:0:0:
320,192,262559,1,0,3:0:0:0:
64,192,262559,1,0,2:0:0:0:
320,192,262715,1,0,2:0:0:0:
192,192,262871,1,0,2:0:0:0:
192,192,263027,1,0,3:0:0:0:
64,192,263027,1,0,0:0:0:0:
320,192,263184,1,0,2:0:0:0:
320,192,263340,1,0,2:0:0:0:
192,192,263496,1,0,2:0:0:0:
448,192,263496,1,0,3:0:0:0:
448,192,263652,1,0,2:0:0:0:
64,192,263809,1,0,2:0:0:0:
64,192,263965,1,0,3:0:0:0:
192,192,263965,1,0,0:0:0:0:
320,192,264121,1,0,2:0:0:0:
320,192,264277,1,0,2:0:0:0:
448,192,264434,1,0,2:0:0:0:
192,192,264434,1,0,3:0:0:0:
192,192,264590,1,0,2:0:0:0:
320,192,264746,1,0,2:0:0:0:
320,192,264902,1,0,3:0:0:0:
448,192,264902,1,0,0:0:0:0:
192,192,265059,1,0,2:0:0:0:
192,192,265215,1,0,2:0:0:0:
64,192,265371,1,0,2:0:0:0:
448,192,265371,1,0,3:0:0:0:
448,192,265527,1,0,2:0:0:0:
64,192,265684,1,0,2:0:0:0:
64,192,265840,1,0,3:0:0:0:
192,192,265840,1,0,0:0:0:0:
448,192,265996,1,0,2:0:0:0:
448,192,266152,1,0,2:0:0:0:
64,192,266309,1,0,2:0:0:0:
320,192,266309,1,0,3:0:0:0:
320,192,266465,1,0,2:0:0:0:
192,192,266621,1,0,2:0:0:0:
192,192,266777,1,0,3:0:0:0:
64,192,266777,1,0,0:0:0:0:
320,192,266934,1,0,2:0:0:0:
320,192,267090,1,0,2:0:0:0:
448,192,267246,1,0,2:0:0:0:
64,192,267246,1,0,3:0:0:0:
64,192,267402,1,0,2:0:0:0:
192,192,267559,1,0,2:0:0:0:
192,192,267715,1,0,3:0:0:0:
448,192,267715,1,0,0:0:0:0:
320,192,267871,1,0,2:0:0:0:
320,192,268027,1,0,2:0:0:0:
448,192,268184,1,0,2:0:0:0:
64,192,268184,1,0,3:0:0:0:
64,192,268340,1,0,2:0:0:0:
192,192,268496,1,0,2:0:0:0:
192,192,268652,1,0,3:0:0:0:
448,192,268652,1,0,0:0:0:0:
320,192,268809,1,0,2:0:0:0:
320,192,268965,1,0,2:0:0:0:
448,192,269121,1,0,2:0:0:0:
64,192,269121,1,0,3:0:0:0:
64,192,269277,1,0,2:0:0:0:
192,192,269434,1,0,2:0:0:0:
192,192,269590,1,0,3:0:0:0:
448,192,269590,1,0,0:0:0:0:
320,192,269746,1,0,2:0:0:0:
320,192,269902,1,0,2:0:0:0:
448,192,270059,1,0,2:0:0:0:
64,192,270059,1,0,3:0:0:0:
64,192,270215,1,0,2:0:0:0:
192,192,270371,1,0,2:0:0:0:
192,192,270527,1,0,3:0:0:0:
448,192,270527,1,0,0:0:0:0:
320,192,270684,1,0,2:0:0:0:
320,192,270840,1,0,2:0:0:0:
448,192,270996,1,0,3:0:0:0:
64,192,270996,1,0,2:0:0:0:
448,192,271152,1,0,2:0:0:0:
320,192,271309,1,0,2:0:0:0:
320,192,271465,1,0,3:0:0:0:
64,192,271465,1,0,0:0:0:0:
192,192,271621,1,0,2:0:0:0:
192,192,271777,1,0,2:0:0:0:
64,192,271934,1,0,3:0:0:0:
448,192,271934,1,0,2:0:0:0:
64,192,272090,1,0,2:0:0:0:
192,192,272246,1,0,2:0:0:0:
192,192,272402,1,0,3:0:0:0:
448,192,272402,1,0,0:0:0:0:
320,192,272559,1,0,2:0:0:0:
320,192,272715,1,0,2:0:0:0:
448,192,272871,1,0,3:0:0:0:
64,192,272871,1,0,2:0:0:0:
448,192,273027,1,0,2:0:0:0:
320,192,273184,1,0,2:0:0:0:
320,192,273340,1,0,3:0:0:0:
64,192,273340,1,0,0:0:0:0:
192,192,273496,1,0,2:0:0:0:
192,192,273652,1,0,2:0:0:0:
448,192,273809,1,0,3:0:0:0:
64,192,273809,1,0,2:0:0:0:
448,192,273965,1,0,2:0:0:0:
192,192,274121,1,0,2:0:0:0:
192,192,274277,1,0,3:0:0:0:
320,192,274277,1,0,0:0:0:0:
64,192,274434,1,0,2:0:0:0:
64,192,274590,1,0,2:0:0:0:
192,192,274746,1,0,2:0:0:0:
448,192,274746,1,0,3:0:0:0:
448,192,274902,1,0,2:0:0:0:
64,192,275059,1,0,2:0:0:0:
64,192,275215,1,0,3:0:0:0:
320,192,275215,1,0,0:0:0:0:
448,192,275371,1,0,2:0:0:0:
448,192,275527,1,0,2:0:0:0:
320,192,275684,1,0,2:0:0:0:
64,192,275684,1,0,3:0:0:0:
64,192,275840,1,0,2:0:0:0:
192,192,275996,1,0,2:0:0:0:
192,192,276152,1,0,3:0:0:0:
448,192,276152,1,0,0:0:0:0:
320,192,276309,1,0,2:0:0:0:
320,192,276465,1,0,2:0:0:0:
192,192,276621,1,0,2:0:0:0:
448,192,276621,1,0,3:0:0:0:
448,192,276777,1,0,2:0:0:0:
64,192,276934,1,0,2:0:0:0:
64,192,277090,1,0,3:0:0:0:
320,192,277090,1,0,0:0:0:0:
448,192,277246,1,0,2:0:0:0:
448,192,277402,1,0,2:0:0:0:
320,192,277559,1,0,2:0:0:0:
64,192,277559,1,0,3:0:0:0:
64,192,277715,1,0,2:0:0:0:
192,192,277871,1,0,2:0:0:0:
192,192,278027,1,0,3:0:0:0:
448,192,278027,1,0,0:0:0:0:
320,192,278184,1,0,2:0:0:0:
320,192,278340,1,0,2:0:0:0:
192,192,278496,1,0,2:0:0:0:
448,192,278496,1,0,3:0:0:0:
448,192,278652,1,0,2:0:0:0:
64,192,278809,1,0,2:0:0:0:
64,192,278965,1,0,3:0:0:0:
320,192,278965,1,0,0:0:0:0:
448,192,279121,1,0,2:0:0:0:
448,192,279277,1,0,2:0:0:0:
320,192,279434,1,0,2:0:0:0:
64,192,279434,1,0,3:0:0:0:
64,192,279590,1,0,2:0:0:0:
192,192,279746,1,0,2:0:0:0:
192,192,279902,1,0,3:0:0:0:
448,192,279902,1,0,0:0:0:0:
320,192,280059,1,0,2:0:0:0:
320,192,280215,1,0,2:0:0:0:
192,192,280371,1,0,2:0:0:0:
448,192,280371,1,0,3:0:0:0:
448,192,280527,1,0,2:0:0:0:
64,192,280684,1,0,2:0:0:0:
64,192,280840,1,0,3:0:0:0:
320,192,280840,1,0,0:0:0:0:
448,192,280996,1,0,2:0:0:0:
448,192,281152,1,0,2:0:0:0:
320,192,281309,1,0,2:0:0:0:
64,192,281309,1,0,3:0:0:0:
64,192,281465,1,0,2:0:0:0:
192,192,281621,1,0,2:0:0:0:
192,192,281777,1,0,3:0:0:0:
448,192,281777,1,0,0:0:0:0:
320,192,281934,1,0,2:0:0:0:
320,192,282090,1,0,2:0:0:0:
448,192,282246,1,0,2:0:0:0:
64,192,282246,1,0,3:0:0:0:
64,192,282402,1,0,2:0:0:0:
192,192,282559,1,0,2:0:0:0:
192,192,282715,1,0,3:0:0:0:
448,192,282715,1,0,0:0:0:0:
320,192,282871,1,0,2:0:0:0:
320,192,283027,1,0,2:0:0:0:
448,192,283184,1,0,2:0:0:0:
64,192,283184,1,0,3:0:0:0:
64,192,283340,1,0,2:0:0:0:
192,192,283496,1,0,2:0:0:0:
192,192,283652,1,0,3:0:0:0:
448,192,283652,1,0,0:0:0:0:
320,192,283809,1,0,2:0:0:0:
320,192,283965,1,0,2:0:0:0:
448,192,284121,1,0,2:0:0:0:
64,192,284121,1,0,3:0:0:0:
64,192,284277,1,0,2:0:0:0:
320,192,284434,1,0,2:0:0:0:
448,192,284590,1,0,2:0:0:0:
64,192,284590,1,8,2:0:0:0:
192,192,284746,1,0,2:0:0:0:
320,192,284902,1,0,2:0:0:0:
192,192,285059,1,0,2:0:0:0:
64,192,285059,128,2,286230:2:0:0:0:
448,192,285059,128,0,285684:0:0:0:0:
320,192,285996,128,0,287402:2:0:0:0:
64,192,287871,1,0,2:0:0:0:
192,192,288184,1,0,2:0:0:0:
448,192,288496,128,0,288809:2:0:0:0:
64,192,288809,128,0,289746:2:0:0:0:
320,192,288809,128,2,289980:2:0:0:0:
192,192,289746,128,0,290449:2:0:0:0:
64,192,290996,1,0,2:0:0:0:
192,192,291309,1,0,2:0:0:0:
448,192,291621,1,0,2:0:0:0:
320,192,291934,1,0,2:0:0:0:
64,192,292246,1,0,2:0:0:0:
448,192,292559,128,0,293730:2:0:0:0:
320,192,292559,128,2,293730:0:0:0:0:
64,192,293809,1,0,0:0:0:0:
448,192,295684,1,0,2:0:0:0:
192,192,295996,1,0,2:0:0:0:
320,192,296309,128,2,297480:2:0:0:0:
64,192,296309,128,0,297559:2:0:0:0:
320,192,300215,128,0,300684:2:0:0:0:
64,192,301230,128,0,302637:2:0:0:0:
192,192,303105,128,0,303340:2:0:0:0:
448,192,303418,128,0,303652:2:0:0:0:
64,192,303730,128,0,304434:2:0:0:0:
320,192,304746,128,0,306074:2:0:0:0:
64,192,306543,128,0,306855:2:0:0:0:
192,192,306934,1,0,0:0:0:0:
448,192,307246,128,0,307480:2:0:0:0:
64,192,307559,1,0,0:0:0:0:
320,192,307793,1,0,0:0:0:0:
192,192,308105,1,0,0:0:0:0:
448,192,308262,128,0,309121:2:0:0:0:
64,192,310371,128,0,310527:2:0:0:0:
192,192,310605,128,0,310762:2:0:0:0:
448,192,310918,128,0,311152:2:0:0:0:
64,192,311309,128,0,312402:2:0:0:0:
192,192,312480,128,0,312637:2:0:0:0:
448,192,313027,128,0,314121:2:0:0:0:
320,192,314434,128,0,314590:2:0:0:0:
448,192,314746,128,0,314902:2:0:0:0:
64,192,315059,128,0,315527:2:0:0:0:
320,192,315840,128,0,317324:2:0:0:0:
64,192,317793,128,0,317949:2:0:0:0:
192,192,318105,128,0,318340:2:0:0:0:
448,192,318496,128,0,318652:2:0:0:0:
320,192,318730,128,0,319199:2:0:0:0:
192,192,319277,128,0,319512:2:0:0:0:
448,192,319590,128,0,319902:2:0:0:0:
64,192,319902,128,0,320605:2:0:0:0:
320,192,320605,128,0,326309:2:0:0:0:
192,192,326309,128,0,326777:2:0:0:0:
320,192,326855,128,0,327090:2:0:0:0:
64,192,327090,1,0,2:0:0:0:
448,192,327168,1,0,2:0:0:0:
192,192,327246,1,0,2:0:0:0:
