osu file format v14

[General]
AudioFilename: audio.mp3
AudioLeadIn: 0
PreviewTime: 104987
Countdown: 0
SampleSet: Soft
StackLeniency: 0.7
Mode: 2
LetterboxInBreaks: 0
WidescreenStoryboard: 0

[Editor]
Bookmarks: 319967,320592,326373,327155
DistanceSpacing: 1.3
BeatDivisor: 4
GridSize: 8
TimelineZoom: 2.4

[Metadata]
Title:Goodbye To A World
TitleUnicode:Goodbye To A World
Artist:Porter Robinson
ArtistUnicode:Porter Robinson
Creator:Ascendance
Version:Farewell
Source:
Tags:avanna worlds Indie Pop synthpop edm vocaloid chromoxx
BeatmapID:1235777
BeatmapSetID:584073

[Difficulty]
HPDrainRate:6
CircleSize:3.6
OverallDifficulty:8.6
ApproachRate:8.6
SliderMultiplier:2.2
SliderTickRate:3

[Events]
//Background and Video events
0,0,"CufFmp4.jpg",0,0
//Break Periods
//Storyboard Layer 0 (Background)
//Storyboard Layer 1 (Fail)
//Storyboard Layer 2 (Pass)
//Storyboard Layer 3 (Foreground)
//Storyboard Sound Samples

[TimingPoints]
27,468.75,4,2,2,20,1,0
27,-200,4,2,2,20,0,0
105,-200,4,2,2,7,0,0
964,-200,4,2,2,20,0,0
2839,-200,4,2,2,10,0,0
3777,-200,4,2,2,20,0,0
3855,-200,4,2,2,7,0,0
4636,-200,4,2,2,20,0,0
6589,-200,4,2,2,10,0,0
7527,-200,4,2,2,20,0,0
10339,-200,4,2,2,10,0,0
11277,-200,4,2,2,20,0,0
11355,-200,4,2,2,7,0,0
13073,-200,4,2,2,20,0,0
13152,-200,4,2,2,15,0,0
15027,-200,4,2,2,20,0,0
15105,-200,4,2,2,7,0,0
15886,-200,4,2,2,20,0,0
18855,-200,4,2,2,7,0,0
19636,-200,4,2,2,20,0,0
26277,-142.857142857143,4,2,2,20,0,0
41277,-142.857142857143,4,2,2,25,0,0
45027,-142.857142857143,4,2,2,30,0,0
48777,-142.857142857143,4,2,2,35,0,0
52527,-142.857142857143,4,2,2,37,0,0
55339,-142.857142857143,4,2,2,45,0,0
59870,-142.857142857143,4,2,2,35,0,0
60027,-142.857142857143,4,2,2,55,0,0
62839,-142.857142857143,4,2,2,58,0,0
67527,-142.857142857143,4,2,2,60,0,0
75027,-142.857142857143,4,2,2,65,0,0
86277,-142.857142857143,4,2,2,70,0,0
90027,-100,4,2,2,75,0,0
97527,-100,4,2,2,80,0,0
103152,-100,4,2,1,92,0,0
103464,-100,4,2,1,25,0,0
103620,-100,4,2,1,92,0,0
103933,-100,4,2,1,25,0,0
104089,-100,4,2,1,92,0,0
104558,-100,4,2,1,75,0,0
105027,-133.333333333333,4,2,2,40,0,0
120183,-133.333333333333,4,2,2,5,0,0
120964,-133.333333333333,4,2,2,40,0,0
127683,-133.333333333333,4,2,2,5,0,0
128464,-133.333333333333,4,2,2,40,0,0
129558,-133.333333333333,4,2,2,5,0,0
130339,-133.333333333333,4,2,2,40,0,0
131433,-133.333333333333,4,2,2,5,0,0
132214,-133.333333333333,4,2,2,40,0,0
132370,-133.333333333333,4,2,2,5,0,0
133152,-133.333333333333,4,2,2,40,0,0
135183,-133.333333333333,4,2,2,5,0,0
135652,-133.333333333333,4,2,2,40,0,0
136120,-133.333333333333,4,2,2,5,0,0
136902,-133.333333333333,4,2,2,40,0,0
138933,-133.333333333333,4,2,2,5,0,0
139402,-133.333333333333,4,2,2,40,0,0
139870,-133.333333333333,4,2,2,5,0,0
140652,-133.333333333333,4,2,2,40,0,0
146433,-133.333333333333,4,2,2,5,0,0
146902,-133.333333333333,4,2,2,40,0,0
147370,-133.333333333333,4,2,2,5,0,0
148152,-133.333333333333,4,2,2,40,0,0
150183,-133.333333333333,4,2,2,5,0,0
150964,-133.333333333333,4,2,2,40,0,0
153933,-133.333333333333,4,2,2,5,0,0
154714,-133.333333333333,4,2,2,40,0,0
157683,-133.333333333333,4,2,2,5,0,0
158464,-133.333333333333,4,2,2,60,0,0
158620,-133.333333333333,4,2,2,5,0,0
159402,-133.333333333333,4,2,2,40,0,0
161433,-133.333333333333,4,2,2,5,0,0
163152,-133.333333333333,4,2,2,40,0,0
165027,-133.333333333333,4,2,2,50,0,0
166589,-133.333333333333,4,2,2,5,0,0
166902,-133.333333333333,4,2,2,50,0,0
173308,-133.333333333333,4,2,2,5,0,0
173464,-133.333333333333,4,2,2,50,0,0
174245,-133.333333333333,4,2,2,5,0,0
174402,-133.333333333333,4,2,2,50,0,0
175183,-133.333333333333,4,2,2,5,0,0
175339,-133.333333333333,4,2,2,50,0,0
175495,-133.333333333333,4,2,2,20,0,0
175652,-133.333333333333,4,2,2,50,0,0
175808,-133.333333333333,4,2,2,20,0,0
175964,-133.333333333333,4,2,2,50,0,0
176120,-133.333333333333,4,2,2,20,0,0
176277,-133.333333333333,4,2,2,50,0,0
178152,-133.333333333333,4,2,2,50,0,0
180027,-133.333333333333,4,2,2,50,0,0
180808,-133.333333333333,4,2,2,5,0,0
180964,-133.333333333333,4,2,2,50,0,0
181745,-133.333333333333,4,2,2,5,0,0
181902,-133.333333333333,4,2,2,50,0,0
182683,-133.333333333333,4,2,2,5,0,0
182839,-133.333333333333,4,2,2,50,0,0
183620,-133.333333333333,4,2,2,5,0,0
183777,-133.333333333333,4,2,2,50,0,0
184558,-133.333333333333,4,2,2,5,0,0
184714,-133.333333333333,4,2,2,50,0,0
184870,-133.333333333333,4,2,2,20,0,0
185027,-133.333333333333,4,2,2,50,0,0
185183,-133.333333333333,4,2,2,20,0,0
185339,-133.333333333333,4,2,2,50,0,0
185495,-133.333333333333,4,2,2,20,0,0
185652,-133.333333333333,4,2,2,50,0,0
185808,-133.333333333333,4,2,2,20,0,0
185964,-133.333333333333,4,2,2,50,0,0
186120,-133.333333333333,4,2,2,20,0,0
186277,-133.333333333333,4,2,2,50,0,0
186433,-133.333333333333,4,2,2,20,0,0
186589,-133.333333333333,4,2,2,50,0,0
186745,-133.333333333333,4,2,2,20,0,0
186902,-133.333333333333,4,2,2,50,0,0
187058,-133.333333333333,4,2,2,20,0,0
187214,-133.333333333333,4,2,2,50,0,0
187370,-133.333333333333,4,2,2,20,0,0
187527,-133.333333333333,4,2,2,50,0,0
188308,-133.333333333333,4,2,2,5,0,0
188464,-133.333333333333,4,2,2,50,0,0
189245,-133.333333333333,4,2,2,5,0,0
189402,-133.333333333333,4,2,2,50,0,0
190183,-133.333333333333,4,2,2,5,0,0
190339,-133.333333333333,4,2,2,50,0,0
190495,-133.333333333333,4,2,2,20,0,0
190652,-133.333333333333,4,2,2,50,0,0
190808,-133.333333333333,4,2,2,20,0,0
190964,-133.333333333333,4,2,2,50,0,0
191120,-133.333333333333,4,2,2,20,0,0
191277,-133.333333333333,4,2,2,50,0,0
192683,-133.333333333333,4,2,2,20,0,0
192839,-133.333333333333,4,2,2,50,0,0
192995,-133.333333333333,4,2,2,40,0,0
193152,-133.333333333333,4,2,2,50,0,0
193933,-133.333333333333,4,2,2,35,0,0
194089,-133.333333333333,4,2,1,92,0,0
194402,-133.333333333333,4,2,1,25,0,0
194558,-133.333333333333,4,2,1,92,0,0
194870,-133.333333333333,4,2,1,25,0,0
195027,-133.333333333333,4,2,2,45,0,0
210027,-133.333333333333,4,2,2,50,0,0
217527,-100,4,2,3,50,0,0
217995,-100,4,2,3,65,0,0
218152,-100,4,2,3,50,0,0
218464,-100,4,2,3,55,0,0
218933,-100,4,2,3,65,0,0
219089,-100,4,2,3,55,0,0
219402,-100,4,2,3,60,0,0
219870,-100,4,2,3,70,0,0
220027,-100,4,2,3,60,0,0
220339,-100,4,2,3,65,0,0
220808,-100,4,2,3,75,0,0
220964,-100,4,2,3,65,0,0
221277,-100,4,2,3,70,0,0
221745,-100,4,2,3,80,0,0
221902,-100,4,2,3,70,0,0
222214,-100,4,2,3,75,0,0
222683,-100,4,2,3,85,0,0
222839,-100,4,2,3,75,0,0
224558,-100,4,2,3,45,0,0
225027,-66.6666666666667,3,1,2,80,0,1
225339,-66.6666666666667,3,1,2,5,0,1
225495,-66.6666666666667,3,1,2,80,0,1
226277,-66.6666666666667,3,1,2,5,0,1
226902,-66.6666666666667,3,1,2,80,0,1
227214,-66.6666666666667,3,1,2,65,0,1
227370,-66.6666666666667,3,1,2,80,0,1
227683,-66.6666666666667,3,1,2,5,0,1
227839,-66.6666666666667,3,1,2,80,0,1
228152,-66.6666666666667,3,1,2,65,0,1
228308,-66.6666666666667,3,1,2,80,0,1
228620,-66.6666666666667,3,1,2,5,0,1
228777,-66.6666666666667,3,1,2,80,0,1
229089,-66.6666666666667,3,1,2,65,0,1
229245,-66.6666666666667,3,1,2,80,0,1
229558,-66.6666666666667,3,1,2,5,0,1
229714,-66.6666666666667,3,1,2,80,0,1
229948,-66.6666666666667,3,1,2,5,0,1
230027,-66.6666666666667,3,1,2,80,0,1
230261,-66.6666666666667,3,1,2,5,0,1
230339,-66.6666666666667,3,1,2,80,0,1
230573,-66.6666666666667,3,1,2,5,0,1
230652,-66.6666666666667,3,1,2,80,0,1
230886,-66.6666666666667,3,1,2,5,0,1
230964,-66.6666666666667,3,1,2,80,0,1
231198,-66.6666666666667,3,1,2,5,0,1
231277,-66.6666666666667,3,1,2,80,0,1
231511,-66.6666666666667,3,1,2,5,0,1
231589,-66.6666666666667,3,1,2,80,0,1
231823,-66.6666666666667,3,1,2,5,0,1
231902,-66.6666666666667,3,1,2,80,0,1
232136,-66.6666666666667,3,1,2,5,0,1
232214,-66.6666666666667,3,1,2,80,0,1
232448,-66.6666666666667,3,1,2,5,0,1
232527,-66.6666666666667,3,1,2,80,0,1
232839,-66.6666666666667,3,1,2,65,0,1
232995,-66.6666666666667,3,1,2,80,0,1
233308,-66.6666666666667,3,1,2,5,0,1
233464,-66.6666666666667,3,1,2,80,0,1
233777,-66.6666666666667,3,1,2,65,0,1
233933,-66.6666666666667,3,1,2,80,0,1
234245,-66.6666666666667,3,1,2,5,0,1
234402,-66.6666666666667,3,1,2,80,0,1
234714,-66.6666666666667,3,1,2,65,0,1
234870,-66.6666666666667,3,1,2,80,0,1
235183,-66.6666666666667,3,1,2,5,0,1
235339,-66.6666666666667,3,1,2,80,0,1
235573,-66.6666666666667,3,1,2,5,0,1
235652,-66.6666666666667,3,1,2,80,0,1
235886,-66.6666666666667,3,1,2,5,0,1
235964,-66.6666666666667,3,1,2,80,0,1
236277,-66.6666666666667,3,1,2,80,0,1
236745,-66.6666666666667,3,1,2,80,0,1
237214,-66.6666666666667,3,1,2,80,0,1
237683,-66.6666666666667,3,1,2,80,0,1
238152,-66.6666666666667,3,1,2,80,0,1
238620,-66.6666666666667,3,1,2,80,0,1
238933,-66.6666666666667,3,1,2,5,0,1
239089,-66.6666666666667,3,1,2,80,0,1
239402,-66.6666666666667,3,1,2,5,0,1
239558,-66.6666666666667,3,1,2,70,0,1
239948,-100,3,1,2,70,0,0
240027,-100,3,1,2,80,0,1
240105,-100,3,1,2,80,0,0
240339,-100,3,1,2,70,0,0
240495,-100,3,1,2,80,0,0
240964,-100,3,1,2,80,0,1
241042,-100,3,1,2,80,0,0
241277,-100,3,1,2,5,0,0
241433,-100,3,1,2,80,0,0
241902,-100,3,1,2,80,0,1
241980,-100,3,1,2,80,0,0
242214,-100,3,1,2,5,0,0
242370,-100,3,1,2,80,0,0
242839,-66.6666666666667,3,1,2,80,0,1
243152,-66.6666666666667,3,1,2,70,0,1
243308,-66.6666666666667,3,1,2,80,0,1
243620,-66.6666666666667,3,1,2,5,0,1
243777,-66.6666666666667,3,1,2,80,0,1
244089,-66.6666666666667,3,1,2,65,0,1
244245,-66.6666666666667,3,1,2,80,0,1
244558,-66.6666666666667,3,1,2,5,0,1
244714,-66.6666666666667,3,1,2,80,0,1
244948,-66.6666666666667,3,1,2,5,0,1
245027,-66.6666666666667,3,1,2,80,0,1
245261,-66.6666666666667,3,1,2,5,0,1
245339,-66.6666666666667,3,1,2,80,0,1
245573,-66.6666666666667,3,1,2,5,0,1
245652,-66.6666666666667,3,1,2,80,0,1
245886,-66.6666666666667,3,1,2,5,0,1
245964,-66.6666666666667,3,1,2,80,0,1
246198,-66.6666666666667,3,1,2,5,0,1
246277,-66.6666666666667,3,1,2,80,0,1
246511,-66.6666666666667,3,1,2,5,0,1
246589,-66.6666666666667,3,1,2,80,0,1
246823,-66.6666666666667,3,1,2,5,0,1
246902,-66.6666666666667,3,1,2,80,0,1
246980,-66.6666666666667,3,1,2,5,0,1
247058,-66.6666666666667,3,1,2,80,0,1
247839,-66.6666666666667,3,1,2,65,0,1
247995,-66.6666666666667,3,1,2,80,0,1
248308,-66.6666666666667,3,1,2,5,0,1
248464,-66.6666666666667,3,1,2,80,0,1
248777,-66.6666666666667,3,1,2,65,0,1
248933,-66.6666666666667,3,1,2,80,0,1
249245,-66.6666666666667,3,1,2,5,0,1
249402,-66.6666666666667,3,1,2,80,0,1
249714,-66.6666666666667,3,1,2,65,0,1
249870,-66.6666666666667,3,1,2,80,0,1
250339,-66.6666666666667,3,1,2,80,0,1
250652,-66.6666666666667,3,1,2,80,0,1
250964,-66.6666666666667,3,1,2,80,0,1
251277,-66.6666666666667,3,1,2,80,0,1
251745,-66.6666666666667,3,1,2,80,0,1
252214,-66.6666666666667,3,1,2,80,0,1
252683,-66.6666666666667,3,1,2,80,0,1
253152,-66.6666666666667,3,1,2,80,0,1
253464,-66.6666666666667,3,1,2,65,0,1
253620,-66.6666666666667,3,1,2,80,0,1
253933,-66.6666666666667,3,1,2,5,0,1
254089,-66.6666666666667,3,1,2,80,0,1
254402,-66.6666666666667,3,1,2,5,0,1
254558,-66.6666666666667,3,1,2,70,0,1
255027,-100,3,2,5,45,0,0
270027,-100,3,2,2,55,0,0
285027,-133.333333333333,3,2,2,35,0,0
285183,-133.333333333333,3,2,2,5,0,0
285964,-133.333333333333,3,2,2,35,0,0
295339,-133.333333333333,3,2,2,35,0,0
296433,-133.333333333333,3,2,2,5,0,0
300183,468.75,4,2,10,10,1,0
300495,-100,4,2,10,5,0,0
300651,-100,4,2,10,10,0,0
301160,468.75,4,2,10,10,1,0
301238,-100,4,2,10,5,0,0
303111,468.75,4,2,10,10,1,0
303708,468.75,4,2,10,10,1,0
303786,-100,4,2,10,5,0,0
304411,-100,4,2,10,10,0,0
304667,468.75,4,2,10,10,1,0
304745,-100,4,2,10,5,0,0
306528,468.75,4,2,10,10,1,0
307534,468.75,4,2,10,10,1,0
308002,-100,4,2,10,5,0,0
310308,468.75,4,2,10,10,1,0
311276,468.75,4,2,10,10,1,0
311354,-100,4,2,10,5,0,0
313110,468.75,4,2,10,10,1,0
313188,-100,4,2,10,5,0,0
314360,-100,4,2,10,10,0,0
315049,468.75,4,2,10,10,1,0
315361,-100,4,2,10,5,0,0
315837,468.75,4,2,10,10,1,0
315915,-100,4,2,10,5,0,0
317780,468.75,4,2,10,10,1,0
318717,-200,4,2,10,10,0,0
319889,-200,4,2,11,5,0,0
320592,-100,4,2,11,15,0,0
320709,-200,4,2,11,35,0,0
326373,-200,4,2,10,5,0,0

[Colours]
Combo1 : 255,142,255
Combo2 : 106,255,255
Combo3 : 255,172,89
Combo4 : 0,160,238

[HitObjects]
136,64,27,6,0,P|72:128|136:232,1,220,2|2,0:0|0:0,0:0:0:0:
296,288,2839,2,0,L|392:280,2,73.3333333333334,0|0|0,0:0|0:0|0:0,0:0:0:0:
176,232,3777,6,0,P|144:128|184:16,1,220,2|2,0:0|0:0,0:0:0:0:
368,296,6589,1,0,0:0:0:0:
272,304,6901,1,0,0:0:0:0:
176,312,7214,1,0,0:0:0:0:
328,224,7527,6,0,L|432:240,1,73.3333333333334,2|0,0:0|0:0,0:0:0:0:
248,136,8152,2,0,L|192:144,1,36.6666666666667
280,64,10339,2,0,L|184:72,2,73.3333333333334,0|0|0,0:0|0:0|0:0,0:0:0:0:
128,128,11277,6,0,P|80:168|112:312,1,220,2|0,0:0|0:0,0:0:0:0:
392,272,13152,2,0,P|432:224|376:80,1,220,2|0,0:0|0:0,0:0:0:0:
136,96,15027,6,0,P|176:120|344:96,1,220,2|2,0:0|0:0,0:0:0:0:
168,296,17839,2,0,L|136:216,2,73.3333333333333
288,344,18777,6,0,L|512:360,1,220,2|2,0:0|0:0,0:0:0:0:
208,184,21589,2,0,L|312:192,2,73.3333333333333,0|0|0,0:0|0:0|0:0,0:0:0:0:
336,128,22527,6,0,L|416:96,1,73.3333333333333,2|0,0:0|0:0,0:0:0:0:
240,304,23152,2,0,L|304:280,1,36.6666666666667
72,224,25339,2,0,L|32:128,2,73.3333333333333
200,272,26277,6,0,L|312:264,2,102.666663533529,2|0|0,0:0|0:0|0:0,0:0:0:0:
368,192,27214,2,0,L|392:72,2,102.666663533529,0|0|0,0:0|0:0|0:0,0:0:0:0:
232,352,28152,2,0,L|216:240,2,102.666663533529,2|0|0,0:0|0:0|0:0,0:0:0:0:
96,200,29089,2,0,L|112:88,2,102.666663533529,0|0|0,0:0|0:0|0:0,0:0:0:0:
256,136,30027,6,0,P|312:168|232:360,1,307.999990600586,2|2,0:0|0:0,0:0:0:0:
72,304,31277,2,0,L|64:192,1,102.666663533529,0|0,0:0|0:0,0:0:0:0:
216,144,31902,2,0,L|232:40,2,102.666663533529,0|0|0,0:0|0:0|0:0,0:0:0:0:
336,256,32839,2,0,L|456:240,2,102.666663533529,2|0|0,0:0|0:0|0:0,0:0:0:0:
184,328,33777,6,0,P|48:280|32:120,1,307.999990600586,2|2,0:0|0:0,0:0:0:0:
176,72,35027,2,0,L|296:56,1,102.666663533529,0|0,0:0|0:0,0:0:0:0:
416,168,35652,2,0,L|304:152,2,102.666663533529,0|0|0,0:0|0:0|0:0,0:0:0:0:
240,304,36589,2,0,L|232:200,2,102.666663533529,2|0|0,0:0|0:0|0:0,0:0:0:0:
424,344,37527,6,0,L|440:240,1,102.666663533529,2|0,0:0|0:0,0:0:0:0:
272,200,38152,2,0,L|264:120,1,51.3333317667644,0|0,0:0|0:0,0:0:0:0:
352,104,38464,2,0,L|472:72,2,102.666663533529,0|0|0,0:0|0:0|0:0,0:0:0:0:
200,248,39402,6,0,L|88:232,2,102.666663533529,0|0|0,0:0|0:0|0:0,0:0:0:0:
328,272,40339,1,2,0:0:0:0:
184,312,40652,1,0,0:0:0:0:
416,344,40964,1,0,0:0:0:0:
192,224,41277,6,0,L|152:88,2,102.666663533529,2|0|0,0:0|0:0|0:0,0:0:0:0:
360,128,42214,2,0,L|416:40,2,102.666663533529,0|0|0,0:0|0:0|0:0,0:0:0:0:
184,240,43152,2,0,L|72:224,2,102.666663533529,2|0|0,0:0|0:0|0:0,0:0:0:0:
376,344,44089,2,0,L|488:328,2,102.666663533529,0|0|0,0:0|0:0|0:0,0:0:0:0:
184,272,45027,6,0,L|112:144,2,102.666663533529,2|0|0,0:0|0:0|0:0,0:0:0:0:
376,112,45964,2,0,L|224:128,2,102.666663533529,2|0|0,0:0|0:0|0:0,0:0:0:0:
184,248,46902,2,0,L|320:240,2,102.666663533529,0|0|0,0:0|0:0|0:0,0:0:0:0:
384,344,47839,2,0,L|448:248,2,102.666663533529,2|0|0,0:0|0:0|0:0,0:0:0:0:
208,240,48777,6,0,L|176:128,2,102.666663533529,2|0|0,0:0|0:0|0:0,0:0:0:0:
32,352,49714,2,0,L|56:240,2,102.666663533529,2|0|0,0:0|0:0|0:0,0:0:0:0:
216,192,50652,2,0,L|272:72,2,102.666663533529,0|0|0,0:0|0:0|0:0,0:0:0:0:
400,312,51589,2,0,L|368:192,2,102.666663533529,2|0|0,0:0|0:0|0:0,0:0:0:0:
256,168,52527,6,0,L|120:176,2,102.666663533529,2|0|0,0:0|0:0|0:0,0:0:0:0:
144,264,53464,2,0,L|24:272,2,102.666663533529,0|0|0,0:0|0:0|0:0,0:0:0:0:
272,328,54402,2,0,L|392:320,2,102.666663533529,0|0|0,0:0|0:0|0:0,0:0:0:0:
352,232,55339,2,0,L|472:224,2,102.666663533529,0|0|0,0:0|0:0|0:0,0:0:0:0:
192,184,56277,6,0,L|176:64,1,102.666663533529,2|0,0:0|0:0,0:0:0:0:
328,24,56902,1,0,0:0:0:0:
192,184,57214,2,0,L|72:176,1,102.666663533529,0|0,0:0|0:0,0:0:0:0:
280,256,57839,1,0,0:0:0:0:
96,352,58152,6,0,L|112:240,1,102.666663533529,0|0,0:0|0:0,0:0:0:0:
224,176,58777,1,0,0:0:0:0:
384,128,59089,2,0,L|272:128,2,102.666663533529,0|0|0,0:0|0:0|0:0,0:0:0:0:
472,128,59870,1,8,1:0:0:0:
168,312,60027,6,0,L|152:248,1,51.3333317667644,2|0,0:0|0:0,0:0:0:0:
64,184,60339,2,0,L|80:112,1,51.3333317667644,0|0,0:0|0:0,0:0:0:0:
168,64,60652,2,0,L|224:48,1,51.3333317667644
336,144,60964,6,0,L|272:136,1,51.3333317667644,2|0,0:0|0:0,0:0:0:0:
192,240,61277,2,0,L|240:224,1,51.3333317667644,0|0,0:0|0:0,0:0:0:0:
352,288,61589,2,0,L|416:272,1,51.3333317667644,0|0,0:0|0:0,0:0:0:0:
248,344,61902,6,0,L|240:280,1,51.3333317667644,2|0,0:0|0:0,0:0:0:0:
336,208,62214,2,0,L|352:152,1,51.3333317667644,0|0,0:0|0:0,0:0:0:0:
240,112,62527,2,0,L|216:56,1,51.3333317667644,0|0,0:0|0:0,0:0:0:0:
88,248,62839,6,0,L|104:184,1,51.3333317667644,2|0,0:0|0:0,0:0:0:0:
240,184,63152,2,0,L|256:112,1,51.3333317667644,0|0,0:0|0:0,0:0:0:0:
144,88,63464,2,0,L|128:40,1,51.3333317667644,0|0,0:0|0:0,0:0:0:0:
256,104,63777,6,0,L|280:152,1,51.3333317667644,2|0,0:0|0:0,0:0:0:0:
184,216,64089,2,0,L|160:264,1,51.3333317667644,0|0,0:0|0:0,0:0:0:0:
296,344,64402,2,0,L|352:328,1,51.3333317667644,0|0,0:0|0:0,0:0:0:0:
208,272,64714,6,0,L|144:240,1,51.3333317667644,2|0,0:0|0:0,0:0:0:0:
280,176,65027,2,0,L|288:112,1,51.3333317667644,0|0,0:0|0:0,0:0:0:0:
184,80,65339,2,0,L|176:16,1,51.3333317667644,0|0,0:0|0:0,0:0:0:0:
72,144,65652,6,0,L|88:224,1,51.3333317667644,2|0,0:0|0:0,0:0:0:0:
208,232,65964,2,0,L|224:296,1,51.3333317667644,0|0,0:0|0:0,0:0:0:0:
96,352,66277,2,0,L|112:296,1,51.3333317667644,0|0,0:0|0:0,0:0:0:0:
248,256,66589,6,0,L|272:184,1,51.3333317667644,2|0,0:0|0:0,0:0:0:0:
376,160,66902,2,0,L|352:72,1,51.3333317667644,0|0,0:0|0:0,0:0:0:0:
248,96,67214,2,0,L|264:32,1,51.3333317667644,0|0,0:0|0:0,0:0:0:0:
88,328,67527,6,0,L|72:264,1,51.3333317667644,2|0,0:0|0:0,0:0:0:0:
192,232,67839,2,0,L|208:168,1,51.3333317667644,0|0,0:0|0:0,0:0:0:0:
336,152,68152,2,0,L|312:88,1,51.3333317667644,0|0,0:0|0:0,0:0:0:0:
192,56,68464,6,0,L|184:0,1,51.3333317667644,2|0,0:0|0:0,0:0:0:0:
304,240,68777,2,0,L|320:192,1,51.3333317667644,0|0,0:0|0:0,0:0:0:0:
208,360,69089,2,0,L|200:304,1,51.3333317667644,0|0,0:0|0:0,0:0:0:0:
80,248,69402,6,0,L|96:192,1,51.3333317667644,2|0,0:0|0:0,0:0:0:0:
224,160,69714,2,0,L|240:104,1,51.3333317667644,0|0,0:0|0:0,0:0:0:0:
120,64,70027,2,0,L|104:16,1,51.3333317667644,0|0,0:0|0:0,0:0:0:0:
240,96,70339,6,0,L|304:80,1,51.3333317667644,2|0,0:0|0:0,0:0:0:0:
448,184,70652,2,0,L|392:176,1,51.3333317667644
240,256,70964,2,0,L|304:248,1,51.3333317667644,0|0,0:0|0:0,0:0:0:0:
424,320,71277,6,0,L|360:312,1,51.3333317667644,2|0,0:0|0:0,0:0:0:0:
232,352,71589,2,0,L|160:344,1,51.3333317667644,0|0,0:0|0:0,0:0:0:0:
40,248,71902,2,0,L|112:232,1,51.3333317667644,0|0,0:0|0:0,0:0:0:0:
240,160,72214,6,0,L|304:144,1,51.3333317667644,2|0,0:0|0:0,0:0:0:0:
152,104,72527,2,0,L|80:96,1,51.3333317667644,0|0,0:0|0:0,0:0:0:0:
256,48,72839,2,0,L|320:40,1,51.3333317667644,0|0,0:0|0:0,0:0:0:0:
200,176,73152,6,0,L|184:112,1,51.3333317667644,2|0,0:0|0:0,0:0:0:0:
320,296,73464,2,0,L|328:224,1,51.3333317667644,0|0,0:0|0:0,0:0:0:0:
184,368,73777,2,0,L|176:304,1,51.3333317667644,0|0,0:0|0:0,0:0:0:0:
288,240,74089,6,0,L|344:224,1,51.3333317667644,2|0,0:0|0:0,0:0:0:0:
112,152,74402,2,0,L|48:136,1,51.3333317667644,0|0,0:0|0:0,0:0:0:0:
352,96,74714,2,0,L|416:80,1,51.3333317667644,0|0,0:0|0:0,0:0:0:0:
136,64,75027,6,0,L|72:48,1,51.3333317667644,2|0,0:0|0:0,0:0:0:0:
192,160,75339,2,0,L|248:144,1,51.3333317667644,0|0,0:0|0:0,0:0:0:0:
96,256,75652,2,0,L|88:192,1,51.3333317667644,0|0,0:0|0:0,0:0:0:0:
352,344,75964,6,0,L|368:288,1,51.3333317667644,0|0,0:0|0:0,0:0:0:0:
464,232,76277,2,0,L|456:176,1,51.3333317667644,0|0,0:0|0:0,0:0:0:0:
336,120,76589,2,0,L|312:64,1,51.3333317667644,0|0,0:0|0:0,0:0:0:0:
88,160,76902,6,0,L|80:232,1,51.3333317667644,2|0,0:0|0:0,0:0:0:0:
200,304,77214,2,0,L|208:240,1,51.3333317667644,0|0,0:0|0:0,0:0:0:0:
80,192,77527,2,0,L|72:128,1,51.3333317667644,0|0,0:0|0:0,0:0:0:0:
328,40,77839,6,0,L|384:64,1,51.3333317667644,0|0,0:0|0:0,0:0:0:0:
464,144,78152,2,0,L|472:208,1,51.3333317667644,0|0,0:0|0:0,0:0:0:0:
368,288,78464,2,0,L|320:312,1,51.3333317667644,0|0,0:0|0:0,0:0:0:0:
72,248,78777,6,0,L|48:176,1,51.3333317667644,2|0,0:0|0:0,0:0:0:0:
192,144,79089,2,0,L|200:80,1,51.3333317667644
328,216,79402,2,0,L|344:152,1,51.3333317667644
96,352,79714,6,0,L|80:296,1,51.3333317667644,0|0,0:0|0:0,0:0:0:0:
192,240,80027,2,0,L|208:168,1,51.3333317667644,0|0,0:0|0:0,0:0:0:0:
64,136,80339,2,0,L|56:64,1,51.3333317667644,0|0,0:0|0:0,0:0:0:0:
360,160,80652,6,0,L|376:80,1,51.3333317667644,2|0,0:0|0:0,0:0:0:0:
280,280,80964,2,0,L|272:208,1,51.3333317667644,0|0,0:0|0:0,0:0:0:0:
384,360,81277,2,0,L|400:296,1,51.3333317667644,0|0,0:0|0:0,0:0:0:0:
160,104,81589,6,0,L|168:160,1,51.3333317667644,0|0,0:0|0:0,0:0:0:0:
264,184,81902,2,0,L|272:248,1,51.3333317667644,0|0,0:0|0:0,0:0:0:0:
368,272,82214,2,0,L|376:328,1,51.3333317667644,0|0,0:0|0:0,0:0:0:0:
112,320,82527,6,0,L|104:256,1,51.3333317667644,2|0,0:0|0:0,0:0:0:0:
200,216,82839,2,0,L|216:160,1,51.3333317667644,0|0,0:0|0:0,0:0:0:0:
320,144,83152,2,0,L|344:88,1,51.3333317667644,0|0,0:0|0:0,0:0:0:0:
64,72,83464,6,0,L|88:128,1,51.3333317667644,0|0,0:0|0:0,0:0:0:0:
200,160,83777,2,0,L|224:208,1,51.3333317667644,0|0,0:0|0:0,0:0:0:0:
120,272,84089,2,0,L|96:328,1,51.3333317667644,0|0,0:0|0:0,0:0:0:0:
376,320,84402,6,0,L|448:320,1,51.3333317667644,0|0,0:0|0:0,0:0:0:0:
288,240,84714,2,0,L|216:240,1,51.3333317667644,0|0,0:0|0:0,0:0:0:0:
376,184,85027,2,0,L|432:184,1,51.3333317667644,0|0,0:0|0:0,0:0:0:0:
176,136,85339,6,0,L|112:136,1,51.3333317667644,0|0,0:0|0:0,0:0:0:0:
272,64,85652,2,0,L|328:64,1,51.3333317667644
184,168,85964,2,0,L|248:168,1,51.3333317667644,0|0,0:0|0:0,0:0:0:0:
480,280,86277,6,0,L|416:280,1,51.3333317667644,2|0,0:0|0:0,0:0:0:0:
304,336,86589,2,0,L|240:336,1,51.3333317667644,0|0,0:0|0:0,0:0:0:0:
368,224,86902,2,0,L|432:224,1,51.3333317667644,0|0,0:0|0:0,0:0:0:0:
168,160,87214,6,0,L|80:160,1,51.3333317667644,0|0,0:0|0:0,0:0:0:0:
256,80,87527,2,0,L|328:72,1,51.3333317667644,0|0,0:0|0:0,0:0:0:0:
176,32,87839,2,0,L|112:32,1,51.3333317667644,0|0,0:0|0:0,0:0:0:0:
400,160,88152,6,0,L|408:224,1,51.3333317667644,0|0,0:0|0:0,0:0:0:0:
312,256,88464,2,0,L|320:336,1,51.3333317667644,0|0,0:0|0:0,0:0:0:0:
200,216,88777,2,0,L|192:144,1,51.3333317667644,0|0,0:0|0:0,0:0:0:0:
424,96,89089,6,0,L|432:32,1,51.3333317667644,2|0,0:0|0:0,0:0:0:0:
312,208,89402,2,0,L|296:152,1,51.3333317667644,0|0,0:0|0:0,0:0:0:0:
176,120,89714,2,0,L|160:56,1,51.3333317667644,0|0,0:0|0:0,0:0:0:0:
416,264,90027,6,0,L|432:176,1,73.3333333333333,2|0,0:0|0:0,0:0:0:0:
296,160,90339,2,0,L|288:88,1,73.3333333333333,0|0,0:0|0:0,0:0:0:0:
160,280,90652,2,0,L|176:192,1,73.3333333333333,0|0,0:0|0:0,0:0:0:0:
400,320,90964,6,0,L|472:336,1,73.3333333333333,0|0,0:0|0:0,0:0:0:0:
328,224,91277,2,0,L|408:240,1,73.3333333333333,0|0,0:0|0:0,0:0:0:0:
264,152,91589,2,0,L|192:144,1,73.3333333333333,0|0,0:0|0:0,0:0:0:0:
448,64,91902,6,0,L|432:136,1,73.3333333333333,2|0,0:0|0:0,0:0:0:0:
288,168,92214,2,0,L|272:248,1,73.3333333333333,0|0,0:0|0:0,0:0:0:0:
144,128,92527,2,0,L|112:48,1,73.3333333333333
384,304,92839,6,0,L|280:312,1,73.3333333333333
192,216,93152,2,0,L|288:224,1,73.3333333333333
408,184,93464,2,0,L|320:168,1,73.3333333333333
88,64,93777,6,0,L|0:96,1,73.3333333333333,2|0,0:0|0:0,0:0:0:0:
160,200,94089,2,0,L|248:176,1,73.3333333333333,0|0,0:0|0:0,0:0:0:0:
80,360,94402,2,0,L|64:288,1,73.3333333333333,0|0,0:0|0:0,0:0:0:0:
352,288,94714,6,0,L|432:272,1,73.3333333333333
288,136,95027,2,0,L|192:120,1,73.3333333333333
328,208,95339,2,0,L|440:192,1,73.3333333333333
64,328,95652,6,0,L|48:248,1,73.3333333333333,2|0,0:0|0:0,0:0:0:0:
184,176,95964,2,0,L|208:104,1,73.3333333333333,0|0,0:0|0:0,0:0:0:0:
320,312,96277,2,0,L|344:240,1,73.3333333333333,0|0,0:0|0:0,0:0:0:0:
112,328,96589,6,0,L|88:240,1,73.3333333333333,0|0,0:0|0:0,0:0:0:0:
224,200,96902,2,0,L|248:128,1,73.3333333333333,0|0,0:0|0:0,0:0:0:0:
376,120,97214,2,0,L|400:48,1,73.3333333333333,0|0,0:0|0:0,0:0:0:0:
160,88,97527,6,0,L|200:184,1,73.3333333333333,2|0,0:0|0:0,0:0:0:0:
312,200,97839,2,0,L|296:288,1,73.3333333333333,0|0,0:0|0:0,0:0:0:0:
168,272,98152,2,0,L|152:352,1,73.3333333333333,0|0,0:0|0:0,0:0:0:0:
408,208,98464,6,0,L|432:96,1,73.3333333333333,0|0,0:0|0:0,0:0:0:0:
264,120,98777,2,0,L|240:48,1,73.3333333333333,0|0,0:0|0:0,0:0:0:0:
400,192,99089,2,0,L|384:272,1,73.3333333333333,0|0,0:0|0:0,0:0:0:0:
120,320,99402,6,0,L|48:328,1,73.3333333333333,0|0,0:0|0:0,0:0:0:0:
200,240,99714,2,0,L|320:224,1,73.3333333333333,0|0,0:0|0:0,0:0:0:0:
128,168,100027,2,0,L|104:88,1,73.3333333333333,0|0,0:0|0:0,0:0:0:0:
360,96,100339,6,0,L|264:96,1,73.3333333333333,0|0,0:0|0:0,0:0:0:0:
408,176,100652,2,0,L|328:176,1,73.3333333333333,0|0,0:0|0:0,0:0:0:0:
472,288,100964,2,0,L|480:184,1,73.3333333333333,0|0,0:0|0:0,0:0:0:0:
192,272,101277,6,0,L|56:272,1,73.3333333333333,2|0,0:0|0:0,0:0:0:0:
240,208,101589,2,0,L|336:208,1,73.3333333333333
216,128,101902,2,0,L|296:128,1,73.3333333333333,0|0,0:0|0:0,0:0:0:0:
64,64,102214,6,0,L|88:160,1,73.3333333333333,0|0,0:0|0:0,0:0:0:0:
192,160,102527,2,0,L|208:240,1,73.3333333333333,0|0,0:0|0:0,0:0:0:0:
104,272,102839,2,0,L|128:376,1,73.3333333333333,0|0,0:0|0:0,0:0:0:0:
416,336,103152,6,0,P|464:240|424:152,1,146.666666666667,8|0,0:0|0:0,0:0:0:0:
120,40,103620,2,0,P|88:112|120:200,1,146.666666666667,8|0,0:0|0:0,0:0:0:0:
336,272,104089,2,0,L|432:288,2,73.3333333333333,8|8|8,0:0|0:0|0:0,0:0:0:0:
72,328,104558,2,0,P|48:248|120:136,1,220,4|2,0:0|0:0,0:0:0:0:
240,48,107839,6,0,B|336:152|240:200|160:232|280:344,1,330.000012588501,0|2,0:0|0:0,0:0:0:0:
64,208,111589,6,0,P|56:128|96:224,1,330.000012588501,0|2,0:0|0:0,0:0:0:0:
384,264,115300,6,0,P|280:232|88:352,1,343.750013113022,0|2,0:0|0:0,0:0:0:0:
448,344,118152,5,0,0:0:0:0:
144,216,119402,2,0,L|136:96,1,110.000004196167
376,64,120027,6,0,P|432:112|304:304,1,330.000012588501,2|0,0:0|0:0,0:0:0:0:
120,304,121902,1,2,0:0:0:0:
296,208,122839,2,0,L|344:80,2,110.000004196167,0|0|0,0:0|0:0|0:0,0:0:0:0:
168,328,123777,6,0,P|96:248|224:96,1,330.000012588501,2|0,0:0|0:0,0:0:0:0:
456,64,125652,1,2,0:0:0:0:
336,160,125964,2,0,L|216:152,2,110.000004196167,0|0|0,0:0|0:0|0:0,0:0:0:0:
208,256,126902,2,0,L|144:256,1,55.0000020980836
392,352,127527,6,0,P|440:280|304:112,1,330.000012588501,2|0,0:0|0:0,0:0:0:0:
64,32,129402,2,0,P|24:88|160:280,1,330.000012588501,2|0,0:0|0:0,0:0:0:0:
288,344,130652,2,0,L|408:336,1,110.000004196167
200,272,131277,6,0,P|160:160|288:232,1,330.000012588501,2|0,0:0|0:0,0:0:0:0:
72,240,133152,2,0,P|80:136|272:64,1,330.000012588501,2|0,0:0|0:0,0:0:0:0:
72,352,135027,6,0,B|56:264|56:264|120:264|120:264|80:200|104:88,1,330.000012588501,2|0,0:0|0:0,0:0:0:0:
408,32,136902,1,2,0:0:0:0:
272,112,137839,2,0,L|136:88,2,110.000004196167,0|0|0,0:0|0:0|0:0,0:0:0:0:
96,352,138777,6,0,P|48:280|144:64,1,330.000012588501,2|0,0:0|0:0,0:0:0:0:
328,48,140652,1,2,0:0:0:0:
184,208,141589,2,0,L|320:200,2,110.000004196167,0|0|0,0:0|0:0|0:0,0:0:0:0:
320,304,142527,6,0,L|352:152,1,110.000004196167,2|0,0:0|0:0,0:0:0:0:
216,112,143152,1,0,0:0:0:0:
352,32,143464,2,0,P|392:80|264:272,1,330.000012588501,0|2,0:0|0:0,0:0:0:0:
64,336,145339,2,0,L|192:328,2,110.000004196167,0|0|0,0:0|0:0|0:0,0:0:0:0:
248,280,146277,6,0,P|320:216|240:56,1,275.000010490418,2|0,0:0|0:0,0:0:0:0:
253,70,147097,1,0,0:0:0:0:
241,77,147136,1,0,0:0:0:0:
231,87,147175,1,0,0:0:0:0:
224,99,147214,1,0,0:0:0:0:
219,111,147253,1,0,0:0:0:0:
215,124,147292,1,0,0:0:0:0:
213,137,147331,1,0,0:0:0:0:
215,150,147370,1,0,0:0:0:0:
219,163,147409,1,0,0:0:0:0:
225,175,147448,1,0,0:0:0:0:
232,186,147487,1,0,0:0:0:0:
240,196,147527,1,0,0:0:0:0:
251,204,147566,1,0,0:0:0:0:
263,210,147605,1,0,0:0:0:0:
464,224,148152,5,2,0:0:0:0:
272,208,149089,1,0,0:0:0:0:
408,144,149402,2,0,L|416:16,1,110.000004196167,0|0,0:0|0:0,0:0:0:0:
256,128,150027,6,0,P|160:200|280:344,1,330.000012588501,2|0,0:0|0:0,0:0:0:0:
440,336,151902,1,2,0:0:0:0:
280,232,152839,2,0,L|288:120,1,110.000004196167,0|0,0:0|0:0,0:0:0:0:
448,72,153464,1,0,0:0:0:0:
280,24,153777,6,0,B|248:192|248:192|264:264|408:304,1,330.000012588501,2|0,0:0|0:0,0:0:0:0:
152,336,155652,1,2,0:0:0:0:
288,264,155964,2,0,L|296:136,1,110.000004196167,0|0,0:0|0:0,0:0:0:0:
128,80,156589,1,0,0:0:0:0:
296,128,156902,2,0,L|416:112,1,110.000004196167,0|0,0:0|0:0,0:0:0:0:
208,336,157527,6,0,P|144:280|232:88,1,330.000012588501,2|0,0:0|0:0,0:0:0:0:
416,80,159402,1,2,0:0:0:0:
216,128,160339,1,0,0:0:0:0:
336,184,160652,2,0,L|328:320,1,110.000004196167,0|0,0:0|0:0,0:0:0:0:
168,352,161277,6,0,B|112:304|112:232|184:184|272:272|320:272|376:208|400:128|176:64,1,495.000018882752,2|0,0:0|0:0,0:0:0:0:
411,341,163152,6,0,P|360:288|414:151,1,220.000008392334,2|2,2:0|0:0,0:0:0:0:
452,154,163933,1,2,0:0:0:0:
506,153,164089,1,2,0:0:0:0:
264,144,164558,2,0,L|128:128,1,110.000004196167,2|0,0:0|0:0,0:0:0:0:
400,344,165027,6,0,P|448:288|368:120,1,275.000010490418,4|0,3:2|0:0,0:0:0:0:
112,24,165964,2,0,P|64:80|120:256,1,275.000010490418,2|0,0:0|0:0,0:0:0:0:
240,360,166902,6,0,P|280:320|184:136,1,275.000010490418,0|0,0:0|0:0,0:0:0:0:
464,32,167839,2,0,P|400:80|480:232,1,275.000010490418,2|0,0:0|0:0,0:0:0:0:
360,296,168777,6,0,L|72:304,1,275.000010490418,0|0,0:0|0:0,0:0:0:0:
232,224,169714,2,0,L|304:224,1,55.0000020980836,2|0,0:0|0:0,0:0:0:0:
152,136,170027,2,0,L|88:136,1,55.0000020980836,0|0,0:0|0:0,0:0:0:0:
264,64,170339,2,0,L|344:64,1,55.0000020980836,0|0,0:0|0:0,0:0:0:0:
88,352,170652,6,0,P|48:272|176:96,1,330.000012588501,2|0,0:0|0:0,0:0:0:0:
344,160,171902,2,0,L|440:176,2,55.0000020980836,0|0|0,0:0|0:0|0:0,0:0:0:0:
416,296,172527,6,0,P|472:216|392:48,1,275.000010490418,0|0,0:0|0:0,0:0:0:0:
168,368,173464,2,0,P|144:280|280:152,1,275.000010490418,2|0,0:0|0:0,0:0:0:0:
360,136,174402,6,0,P|448:144|416:296,1,275.000010490418
288,352,175339,2,0,L|264:272,1,55.0000020980836,2|0,0:0|0:0,0:0:0:0:
384,248,175652,2,0,L|400:192,1,55.0000020980836,0|0,0:0|0:0,0:0:0:0:
144,144,175964,2,0,L|120:88,1,55.0000020980836,0|0,0:0|0:0,0:0:0:0:
368,56,176277,6,0,P|424:104|312:296,1,330.000012588501,2|0,0:0|0:0,0:0:0:0:
168,312,177527,2,0,L|48:320,1,110.000004196167,0|0,0:0|0:0,0:0:0:0:
240,240,178152,2,0,L|360:256,2,110.000004196167,2|0|0,0:0|0:0|0:0,0:0:0:0:
456,128,179089,2,0,L|344:136,2,110.000004196167,0|0|0,0:0|0:0|0:0,0:0:0:0:
80,24,180027,6,0,P|32:88|104:256,1,275.000010490418,0|0,0:0|0:0,0:0:0:0:
376,352,180964,2,0,P|416:288|320:120,1,275.000010490418,2|0,0:0|0:0,0:0:0:0:
224,80,181902,6,0,L|504:64,1,275.000010490418
176,344,182839,2,0,P|128:256|240:112,1,275.000010490418,2|0,0:0|0:0,0:0:0:0:
336,72,183777,6,0,L|56:80,1,275.000010490418
216,168,184714,2,0,L|224:232,1,55.0000020980836,2|0,0:0|0:0,0:0:0:0:
360,248,185027,2,0,L|368:320,1,55.0000020980836
248,320,185339,2,0,L|256:384,1,55.0000020980836,0|0,0:0|0:0,0:0:0:0:
480,128,185652,6,0,L|360:152,2,110.000004196167,2|0|0,0:0|0:0|0:0,0:0:0:0:
272,80,186589,1,2,0:0:0:0:
272,224,186902,1,0,0:0:0:0:
448,328,187214,1,0,0:0:0:0:
56,24,187527,6,0,P|16:112|120:280,1,275.000010490418,0|0,0:0|0:0,0:0:0:0:
376,224,188464,2,0,P|408:160|264:40,1,275.000010490418,2|0,0:0|0:0,0:0:0:0:
200,128,189402,6,0,P|256:184|152:352,1,275.000010490418,0|0,0:0|0:0,0:0:0:0:
64,328,190339,2,0,L|48:240,1,55.0000020980836,2|0,0:0|0:0,0:0:0:0:
296,208,190652,2,0,L|320:152,1,55.0000020980836,0|0,0:0|0:0,0:0:0:0:
64,120,190964,2,0,L|48:48,1,55.0000020980836,0|0,0:0|0:0,0:0:0:0:
336,56,191277,6,0,P|416:104|328:288,1,330.000012588501,2|0,0:0|0:0,0:0:0:0:
184,256,192527,2,0,L|48:272,1,110.000004196167,0|0,0:0|0:0,0:0:0:0:
248,160,193152,2,0,L|368:176,2,110.000004196167,2|0|0,0:0|0:0|0:0,0:0:0:0:
152,152,193933,1,8,1:0:0:0:
424,48,194089,6,0,P|464:144|448:192,1,110.000004196167
104,320,194558,2,0,P|96:240|128:192,1,110.000004196167,8|0,0:0|0:0,0:0:0:0:
240,160,195027,6,0,L|352:144,2,110.000004196167,2|0|0,3:2|0:0|0:0,0:0:0:0:
400,344,195964,2,0,L|408:224,1,110.000004196167,2|0,3:2|0:0,0:0:0:0:
280,168,196589,1,0,0:0:0:0:
128,288,196902,6,0,L|280:280,2,110.000004196167,0|0|0,3:2|0:0|0:0,0:0:0:0:
320,208,197839,2,0,L|440:200,1,110.000004196167,2|0,3:2|0:0,0:0:0:0:
136,112,198464,1,0,0:0:0:0:
352,184,198777,6,0,L|352:312,1,110.000004196167,2|0,3:2|0:0,0:0:0:0:
128,360,199402,1,0,0:0:0:0:
312,168,199714,2,0,L|168:176,2,110.000004196167,2|0|0,3:2|0:0|0:0,0:0:0:0:
120,128,200652,6,0,L|48:32,2,110.000004196167,0|0|0,3:2|0:0|0:0,0:0:0:0:
272,232,201589,2,0,L|144:248,1,110.000004196167,2|0,3:2|0:0,0:0:0:0:
400,304,202214,1,0,0:0:0:0:
144,328,202527,6,0,P|128:256|160:176,1,110.000004196167,2|0,3:2|0:0,0:0:0:0:
280,168,203152,1,0,0:0:0:0:
72,56,203464,2,0,L|184:64,2,110.000004196167,2|0|0,3:2|0:0|0:0,0:0:0:0:
232,128,204402,6,0,L|376:120,1,110.000004196167,0|0,3:2|0:0,0:0:0:0:
488,104,205027,1,0,0:0:0:0:
280,240,205339,2,0,L|408:224,1,110.000004196167,2|0,3:2|0:0,0:0:0:0:
144,184,205964,1,0,0:0:0:0:
408,32,206277,6,0,L|392:144,1,110.000004196167,2|0,3:2|0:0,0:0:0:0:
240,208,206902,1,0,0:0:0:0:
323,158,207058,1,0,0:0:0:0:
334,150,207097,1,0,0:0:0:0:
343,140,207136,1,0,0:0:0:0:
349,127,207175,1,0,0:0:0:0:
355,114,207214,5,0,3:2:0:0:
359,101,207253,1,0,0:0:0:0:
360,87,207292,1,0,0:0:0:0:
360,73,207331,1,0,0:0:0:0:
355,59,207370,1,0,0:0:0:0:
347,47,207409,1,0,0:0:0:0:
338,36,207448,1,0,0:0:0:0:
326,29,207487,1,0,0:0:0:0:
313,23,207527,1,0,0:0:0:0:
299,20,207566,1,0,0:0:0:0:
285,19,207605,1,0,0:0:0:0:
271,20,207644,5,0,0:0:0:0:
184,80,207839,2,0,L|104:80,1,55.0000020980836,0|0,0:0|0:0,0:0:0:0:
360,288,208152,6,0,L|432:296,2,55.0000020980836,10|0|0,3:2|0:0|0:0,0:0:0:0:
232,232,208620,2,0,L|168:240,1,55.0000020980836,0|0,0:0|0:0,0:0:0:0:
408,160,208933,1,8,0:0:0:0:
320,96,209089,2,0,L|232:104,2,55.0000020980836,2|2|0,0:3|0:3|1:0,0:0:0:0:
88,200,209558,2,0,L|0:208,2,55.0000020980836,10|2|4,1:3|3:2|3:0,0:0:0:0:
240,256,210027,6,0,L|384:264,2,110.000004196167,4|0|0,3:2|3:0|0:0,0:0:0:0:
408,136,210964,2,0,L|288:144,1,110.000004196167,2|0,3:2|3:0,0:0:0:0:
96,88,211589,1,0,0:0:0:0:
288,32,211902,6,0,L|272:144,1,110.000004196167,0|0,3:0|3:0,0:0:0:0:
96,240,212527,1,0,0:0:0:0:
256,328,212839,2,0,L|384:312,2,110.000004196167,2|0|0,3:2|0:0|0:0,0:0:0:0:
464,224,213777,6,0,L|304:200,2,110.000004196167,2|0|0,3:2|0:0|0:0,0:0:0:0:
232,144,214714,2,0,L|224:24,1,110.000004196167,2|0,3:2|0:0,0:0:0:0:
295,20,215183,1,0,0:0:0:0:
366,12,215339,1,0,0:0:0:0:
208,264,215652,6,0,L|80:256,1,110.000004196167,2|0,3:2|0:0,0:0:0:0:
201,222,216120,1,0,0:0:0:0:
336,216,216277,1,0,0:0:0:0:
128,144,216589,2,0,L|128:24,1,110.000004196167,2|0,3:2|0:0,0:0:0:0:
312,24,217058,2,0,L|376:24,2,55.0000020980836,10|0|0,3:2|0:0|0:0,0:0:0:0:
40,248,217527,6,0,L|152:248,2,73.3333333333333,10|0|0,3:2|0:0|0:0,0:0:0:0:
384,160,217995,2,0,L|464:160,1,73.3333333333333,10|0,3:2|0:0,0:0:0:0:
328,128,218308,1,0,0:0:0:0:
232,216,218464,1,10,3:2:0:0:
232,328,218620,1,0,0:0:0:0:
336,376,218777,1,0,0:0:0:0:
88,128,218933,2,0,L|16:144,2,73.3333333333333,10|0|0,3:2|0:0|0:0,0:0:0:0:
192,72,219402,6,0,L|296:80,2,73.3333333333333,10|0|0,3:2|0:0|0:0,0:0:0:0:
424,168,219870,2,0,L|416:264,1,73.3333333333333,10|0,3:2|0:0,0:0:0:0:
328,304,220183,1,0,0:0:0:0:
56,216,220339,2,0,L|144:216,1,73.3333333333333,10|0,3:2|0:0,0:0:0:0:
280,216,220652,1,0,0:0:0:0:
40,112,220808,2,0,L|128:112,2,73.3333333333333,10|0|0,3:2|0:0|0:0,0:0:0:0:
312,88,221277,6,0,L|416:88,1,73.3333333333333,10|0,3:2|0:0,0:0:0:0:
96,200,221589,1,0,0:0:0:0:
208,288,221745,2,0,L|128:288,1,73.3333333333333,10|0,3:2|0:0,0:0:0:0:
392,200,222058,1,0,0:0:0:0:
136,104,222214,6,0,L|40:104,1,73.3333333333333,10|0,3:2|0:0,0:0:0:0:
376,48,222527,1,0,0:0:0:0:
248,96,222683,2,0,L|136:96,1,73.3333333333333,10|0,3:2|0:0,0:0:0:0:
480,184,222995,1,0,0:0:0:0:
256,192,223620,12,8,224558,0:3:0:0:
104,344,225027,6,0,B|48:224|144:192|248:216|288:112|240:56,1,330.000012588501,12|0,0:0|0:0,0:0:0:0:
432,72,225964,2,0,P|320:144|480:208,1,330.000012588501,10|0,0:0|0:0,0:0:0:0:
192,264,226902,2,0,P|344:360|456:216,3,330.000012588501,12|8|10|8,2:0|0:0|0:0|0:0,0:0:0:0:
112,40,228777,6,0,P|24:144|152:248,1,330.000012588501,14|8,0:0|0:0,0:0:0:0:
360,280,229714,2,0,L|240:264,1,110.000004196167,10|0,0:0|0:0,0:0:0:0:
128,160,230027,2,0,L|272:152,1,110.000004196167,2|0,0:0|0:0,0:0:0:0:
400,88,230339,2,0,L|288:64,1,110.000004196167,2|0,0:0|0:0,0:0:0:0:
32,296,230652,6,0,P|160:320|256:280,2,220.000008392334,12|2|2,0:0|0:0|0:0,0:0:0:0:
464,240,231589,2,0,P|368:200|248:232,2,220.000008392334,8|2|2,0:0|0:0|0:0,0:0:0:0:
48,352,232527,6,0,L|32:0,1,330.000012588501,12|8,0:0|0:0,0:0:0:0:
424,48,233464,2,0,P|312:128|472:192,1,330.000012588501,10|8,0:0|0:0,0:0:0:0:
240,176,234402,2,0,P|200:288|256:184,1,330.000012588501,10|8,0:0|0:0,0:0:0:0:
80,192,235339,6,0,L|72:80,1,110.000004196167,10|0,0:0|0:0,0:0:0:0:
200,344,235652,2,0,L|216:216,1,110.000004196167,2|0,0:0|0:0,0:0:0:0:
464,160,235964,2,0,L|440:48,1,110.000004196167,2|0,0:0|0:0,0:0:0:0:
160,48,236277,6,0,P|96:144|200:160,1,220.000008392334,14|0,0:0|0:0,0:0:0:0:
304,296,236902,1,0,0:0:0:0:
56,360,237214,2,0,L|296:344,2,220.000008392334,8|0|0,0:0|0:0|0:0,0:0:0:0:
264,224,238152,6,0,L|488:248,1,220.000008392334,10|2,0:0|0:0,0:0:0:0:
176,280,238777,1,0,0:0:0:0:
352,312,239089,2,0,L|368:80,1,220.000008392334,8|0,0:0|0:0,0:0:0:0:
64,64,239558,1,8,3:0:0:0:
176,112,239714,1,8,3:0:0:0:
64,168,239870,1,2,3:2:0:0:
416,344,240027,6,0,P|472:264|432:160,1,146.666666666667,14|2,0:0|0:0,0:0:0:0:
96,128,240495,1,2,3:2:0:0:
296,64,240964,6,0,L|128:64,1,146.666666666667,10|0,0:0|0:0,0:0:0:0:
440,120,241433,1,2,3:2:0:0:
272,336,241902,6,0,L|424:272,1,146.666666666667,14|0,0:0|0:0,0:0:0:0:
80,144,242370,1,2,3:2:0:0:
448,80,242839,2,0,P|320:112|224:88,2,220.000008392334,10|2|0,0:0|2:0|0:0,0:0:0:0:
64,352,243777,6,0,P|0:240|144:96,1,330.000012588501,14|8,0:0|0:0,0:0:0:0:
384,56,244714,2,0,L|248:64,1,110.000004196167,10|0,0:0|0:0,0:0:0:0:
144,112,245027,2,0,L|264:120,1,110.000004196167,2|0,0:0|0:0,0:0:0:0:
128,176,245339,2,0,L|248:184,1,110.000004196167,2|0,0:0|0:0,0:0:0:0:
472,280,245652,5,14,0:0:0:0:
328,288,245964,1,2,0:0:0:0:
192,304,246277,1,2,0:0:0:0:
400,288,246589,5,8,0:0:0:0:
256,296,246901,1,10,0:0:0:0:
120,312,247214,1,0,0:0:0:0:
48,328,247370,1,0,0:0:0:0:
280,40,247527,6,0,B|360:144|360:144|160:232,1,330.000012588501,14|8,0:0|0:0,0:0:0:0:
416,352,248464,2,0,P|352:224|488:136,1,330.000012588501,10|8,0:0|0:0,0:0:0:0:
184,88,249402,2,0,B|416:112|416:112|264:152,1,330.000012588501,10|8,0:0|0:0,0:0:0:0:
104,336,250339,6,0,L|88:208,1,110.000004196167,10|0,0:0|0:0,0:0:0:0:
272,200,250652,2,0,L|288:64,1,110.000004196167,2|0,0:0|0:0,0:0:0:0:
32,96,250964,2,0,L|16:-24,1,110.000004196167,2|0,0:0|0:0,0:0:0:0:
480,144,251277,6,0,P|376:112|248:160,2,220.000008392334,14|2|0,0:0|2:0|0:0,0:0:0:0:
16,288,252214,2,0,P|136:320|256:272,2,220.000008392334,8|2|0,0:0|2:0|0:0,0:0:0:0:
304,272,253152,2,0,L|312:40,1,220.000008392334,10|2,0:0|2:0,0:0:0:0:
152,48,253777,1,0,0:0:0:0:
384,176,254089,2,0,L|144:184,1,220.000008392334,8|0,0:0|0:0,0:0:0:0:
256,176,254558,1,8,3:0:0:0:
144,184,254714,1,8,2:3:0:0:
256,176,254870,1,4,3:0:0:0:
400,160,255027,6,0,L|416:48,1,73.3333333333333,4|0,3:0|0:0,0:0:0:0:
304,320,255339,2,0,L|288:232,1,73.3333333333333,0|0,0:0|0:0,0:0:0:0:
400,160,255652,2,0,L|416:72,1,73.3333333333333,0|0,0:0|0:0,0:0:0:0:
248,64,255964,2,0,L|88:72,2,146.666666666667,0|0|0,3:0|0:0|0:0,0:0:0:0:
72,336,256902,6,0,L|56:240,1,73.3333333333333,0|0,3:0|0:0,0:0:0:0:
160,208,257214,2,0,L|176:128,1,73.3333333333333,0|0,0:0|0:0,0:0:0:0:
296,96,257527,2,0,L|280:16,1,73.3333333333333,0|0,0:0|0:0,0:0:0:0:
112,208,257839,2,0,L|288:192,2,146.666666666667,0|0|0,3:0|0:0|0:0,0:0:0:0:
400,352,258777,5,2,3:2:0:0:
455,305,258933,1,0,0:0:0:0:
483,238,259089,1,0,0:0:0:0:
478,166,259245,1,0,0:0:0:0:
440,104,259402,1,0,0:0:0:0:
377,66,259558,1,0,0:0:0:0:
216,40,259714,2,0,L|40:40,2,146.666666666667,0|0|0,3:0|0:0|0:0,0:0:0:0:
88,128,260652,6,0,L|104:208,1,73.3333333333333,0|0,3:2|0:0,0:0:0:0:
208,224,260964,2,0,L|224:296,1,73.3333333333333,0|0,0:0|0:0,0:0:0:0:
320,320,261277,2,0,L|336:392,1,73.3333333333333,0|0,0:0|0:0,0:0:0:0:
168,224,261589,2,0,L|328:240,2,146.666666666667,0|0|0,3:0|0:0|0:0,0:0:0:0:
344,96,262527,6,0,L|352:184,1,73.3333333333333,2|0,3:2|0:0,0:0:0:0:
256,200,262839,2,0,L|264:304,1,73.3333333333333,0|0,0:0|0:0,0:0:0:0:
360,288,263152,2,0,L|368:376,1,73.3333333333333,0|0,0:0|0:0,0:0:0:0:
200,224,263464,2,0,L|48:232,2,146.666666666667,0|0|0,3:2|0:0|0:0,0:0:0:0:
344,32,264402,5,2,3:2:0:0:
277,59,264558,1,0,0:0:0:0:
237,120,264714,1,0,0:0:0:0:
237,192,264870,1,0,0:0:0:0:
277,252,265027,1,0,0:0:0:0:
343,280,265183,1,0,0:0:0:0:
176,344,265339,2,0,L|0:352,2,146.666666666667,0|0|0,3:2|0:0|0:0,0:0:0:0:
96,256,266277,6,0,L|176:248,1,73.3333333333333,2|0,3:2|0:0,0:0:0:0:
288,144,266589,2,0,L|200:160,1,73.3333333333333,0|0,0:0|0:0,0:0:0:0:
328,48,266902,2,0,L|240:72,1,73.3333333333333,0|0,0:0|0:0,0:0:0:0:
376,144,267214,2,0,L|216:128,2,146.666666666667,0|0|0,3:2|0:0|0:0,0:0:0:0:
192,304,268152,6,0,L|304:296,1,73.3333333333333,0|0,3:2|0:0,0:0:0:0:
192,304,268464,2,0,L|32:296,1,146.666666666667,0|0,0:0|0:0,0:0:0:0:
304,168,269089,2,0,L|176:176,1,73.3333333333333,0|0,3:2|0:0,0:0:0:0:
304,168,269402,2,0,L|464:192,1,146.666666666667,0|0,0:0|0:0,0:0:0:0:
112,32,270027,6,0,L|56:176,2,146.666666666667,2|0|0,0:0|0:0|0:0,0:0:0:0:
320,128,270964,2,0,L|136:144,2,146.666666666667,2|0|0,0:0|0:0|0:0,0:0:0:0:
128,312,271902,2,0,L|112:152,2,146.666666666667,0|0|0,0:0|0:0|0:0,0:0:0:0:
288,336,272839,1,0,0:0:0:0:
160,280,273152,1,0,0:0:0:0:
400,224,273464,1,0,0:0:0:0:
256,136,273777,6,0,L|88:144,2,146.666666666667,2|0|0,0:0|0:0|0:0,0:0:0:0:
440,344,274714,2,0,L|464:168,2,146.666666666667,2|0|0,0:0|0:0|0:0,0:0:0:0:
216,208,275652,2,0,L|376:200,2,146.666666666667,0|0|0,0:0|0:0|0:0,0:0:0:0:
80,224,276589,1,0,0:0:0:0:
240,200,276902,1,0,0:0:0:0:
24,144,277214,1,0,0:0:0:0:
168,64,277527,6,0,L|328:80,1,146.666666666667,2|0,0:0|0:0,0:0:0:0:
128,232,278152,2,0,L|112:152,1,73.3333333333333,0|0,0:0|0:0,0:0:0:0:
208,288,278464,2,0,L|392:280,2,146.666666666667,0|0|0,0:0|0:0|0:0,0:0:0:0:
424,184,279402,6,0,L|256:200,2,146.666666666667,0|0|0,0:0|0:0|0:0,0:0:0:0:
224,120,280339,1,0,0:0:0:0:
344,200,280652,1,0,0:0:0:0:
136,256,280964,1,0,0:0:0:0:
288,352,281277,6,0,L|304:200,1,146.666666666667,2|0,0:0|0:0,0:0:0:0:
152,112,281902,1,0,0:0:0:0:
352,48,282214,2,0,L|200:56,2,146.666666666667,0|0|0,0:0|0:0|0:0,0:0:0:0:
144,160,283152,6,0,L|320:144,2,146.666666666667,2|0|0,0:0|0:0|0:0,0:0:0:0:
344,224,284089,1,0,0:0:0:0:
184,280,284402,1,0,0:0:0:0:
424,176,284558,2,0,L|440:80,1,73.3333333333333,8|8,0:0|3:0,0:0:0:0:
336,48,284870,1,4,3:0:0:0:
224,72,285027,6,0,P|168:144|264:344,1,330.000012588501,0|2,0:0|0:0,0:0:0:0:
80,232,287800,6,0,P|240:184|448:240,1,385.000014686585,0|2,0:0|0:0,0:0:0:0:
96,312,291589,6,0,P|26:208|180:55,1,357.500013637543,0|2,0:0|0:0,0:0:0:0:
304,112,295652,2,0,L|168:120,1,110.000004196167
424,184,296277,5,2,0:0:0:0:
80,336,300183,6,0,P|40:224|136:120,1,220
328,56,301160,6,0,B|456:80|456:80|344:96|344:96|464:136|472:136|344:160|344:160|472:192|472:192|336:208|336:208,1,660
248,288,303111,6,0,L|96:304,1,146.666666666667,0|0,0:0|0:0,0:0:0:0:
320,232,303708,2,0,P|376:144|200:0,1,366.666666666667
64,112,304667,6,0,B|192:112|192:112|64:144|64:144|200:144|200:144|56:184|56:184|216:184|216:184,1,660
216,288,306528,6,0,L|408:304,1,165
208,320,307231,1,0,0:0:0:0:
368,224,307534,2,0,L|392:64,1,146.666666666667
192,40,308080,1,0,0:0:0:0:
360,80,308393,6,0,P|472:184|355:325,1,366.666666666667
88,216,310308,2,0,L|240:208,2,146.666666666667
240,160,311276,6,0,B|344:160|440:120|440:120|336:144|200:112|200:112|312:136|408:96|408:96,1,641.666666666667
88,320,313110,2,0,P|40:192|256:24,1,440,0|0,0:0|0:0,0:0:0:0:
456,176,314360,2,0,L|304:152,1,146.666666666667,0|0,0:0|0:0,0:0:0:0:
96,208,315049,6,0,P|56:160|120:40,1,201.666666666667
248,304,315837,2,0,B|424:288|424:288|224:272|224:272|392:256|392:256|240:248|240:248,1,660
88,192,317780,2,0,L|248:176,2,146.666666666667
272,56,318717,6,0,P|344:160|296:296,1,275
96,352,320592,6,0,B|152:256|88:16|88:16|96:248|128:336|128:336|160:96|112:16|112:16|88:304|88:304|136:56|136:56|88:296|88:296|152:352|152:352|48:40|48:40|96:336|96:336|136:128|136:128|512:120,1,3080
