osu file format v14

[General]
AudioFilename: audio.mp3
AudioLeadIn: 0
PreviewTime: 104987
Countdown: 0
SampleSet: Normal
StackLeniency: 0.7
Mode: 1
LetterboxInBreaks: 0
WidescreenStoryboard: 0

[Editor]
Bookmarks: 327155
DistanceSpacing: 1
BeatDivisor: 6
GridSize: 8
TimelineZoom: 2.5

[Metadata]
Title:Goodbye To A World
TitleUnicode:Goodbye To A World
Artist:Porter Robinson
ArtistUnicode:Porter Robinson
Creator:Ascendance
Version:Chromoxx' Divergence
Source:
Tags:avanna worlds Indie Pop synthpop edm vocaloid chromoxx
BeatmapID:1240449
BeatmapSetID:584073

[Difficulty]
HPDrainRate:5
CircleSize:3.6
OverallDifficulty:6
ApproachRate:8.6
SliderMultiplier:1.4
SliderTickRate:3

[Events]
//Background and Video events
0,0,"chromoxx best ctb mapper.jpg",0,0
//Break Periods
//Storyboard Layer 0 (Background)
//Storyboard Layer 1 (Fail)
//Storyboard Layer 2 (Pass)
//Storyboard Layer 3 (Foreground)
//Storyboard Sound Samples

[TimingPoints]
27,468.75,4,1,0,30,1,0
27,-133.333333333333,4,1,0,30,0,0
14558,-125,4,1,0,35,0,0
29558,-117.647058823529,4,1,0,40,0,0
44870,-111.111111111111,4,1,0,45,0,0
59948,-105.263157894737,4,1,0,50,0,0
74870,-100,4,1,0,55,0,0
89948,-95.2380952380952,4,1,0,60,0,0
91823,-90.9090909090909,4,1,0,60,0,0
93698,-86.9565217391304,4,1,0,60,0,0
95573,-83.3333333333333,4,1,0,60,0,0
97448,-80,4,1,0,60,0,0
101198,-76.9230769230769,4,1,0,60,0,0
103073,-74.0740740740741,4,1,0,60,0,0
103230,-76.9230769230769,4,1,0,60,0,0
103542,-74.0740740740741,4,1,0,60,0,0
103698,-76.9230769230769,4,1,0,60,0,0
104011,-74.0740740740741,4,1,0,60,0,0
104480,-50,4,1,0,60,0,0
104792,-100,4,1,0,40,0,0
105261,-133.333333333333,4,1,0,40,0,0
119792,-125,4,1,0,45,0,0
133855,-117.647058823529,4,1,0,50,0,0
149948,-111.111111111111,4,1,0,55,0,0
161355,-111.111111111111,4,1,0,20,0,0
163073,-100,4,1,0,70,0,0
164870,-83.3333333333333,4,1,0,80,0,0
165183,-83.3333333333333,4,1,0,60,0,0
165808,-83.3333333333333,4,1,0,80,0,0
166120,-83.3333333333333,4,1,0,60,0,0
166745,-83.3333333333333,4,1,0,80,0,0
167058,-83.3333333333333,4,1,0,60,0,0
167683,-83.3333333333333,4,1,0,80,0,0
167995,-83.3333333333333,4,1,0,60,0,0
168620,-83.3333333333333,4,1,0,80,0,0
168933,-83.3333333333333,4,1,0,60,0,0
169558,-83.3333333333333,4,1,0,80,0,0
170808,-83.3333333333333,4,1,0,60,0,0
172370,-83.3333333333333,4,1,0,80,0,0
172683,-83.3333333333333,4,1,0,60,0,0
173308,-83.3333333333333,4,1,0,80,0,0
173620,-83.3333333333333,4,1,0,60,0,0
174245,-83.3333333333333,4,1,0,80,0,0
174558,-83.3333333333333,4,1,0,60,0,0
175183,-83.3333333333333,4,1,0,80,0,0
176433,-83.3333333333333,4,1,0,60,0,0
177995,-83.3333333333333,4,1,0,80,0,0
178308,-83.3333333333333,4,1,0,60,0,0
179870,-83.3333333333333,4,1,0,80,0,0
180183,-83.3333333333333,4,1,0,60,0,0
180808,-83.3333333333333,4,1,0,80,0,0
181120,-83.3333333333333,4,1,0,60,0,0
181745,-83.3333333333333,4,1,0,80,0,0
182058,-83.3333333333333,4,1,0,60,0,0
182683,-83.3333333333333,4,1,0,80,0,0
182995,-83.3333333333333,4,1,0,60,0,0
183620,-83.3333333333333,4,1,0,80,0,0
183933,-83.3333333333333,4,1,0,60,0,0
184558,-83.3333333333333,4,1,0,80,0,0
185808,-83.3333333333333,4,1,0,60,0,0
187370,-83.3333333333333,4,1,0,80,0,0
187683,-83.3333333333333,4,1,0,60,0,0
188308,-83.3333333333333,4,1,0,80,0,0
188620,-83.3333333333333,4,1,0,60,0,0
189245,-83.3333333333333,4,1,0,80,0,0
189558,-83.3333333333333,4,1,0,60,0,0
190183,-83.3333333333333,4,1,0,80,0,0
191433,-83.3333333333333,4,1,0,60,0,0
192995,-83.3333333333333,4,1,0,80,0,0
193308,-83.3333333333333,4,1,0,60,0,0
194870,-100,4,1,0,50,0,0
217448,-95.2380952380952,4,1,0,50,0,0
218464,-90.9090909090909,4,1,0,50,0,0
219323,-86.9565217391304,4,1,0,50,0,0
220261,-83.3333333333333,4,1,0,50,0,0
221198,-80,4,1,0,50,0,0
222136,-76.9230769230769,4,1,0,50,0,0
223073,-90.9090909090909,4,1,0,50,0,0
224948,-66.6666666666667,4,1,0,90,0,1
254558,-66.6666666666667,4,1,0,90,0,0
255027,-83.3333333333333,4,1,0,60,0,0
285105,-83.3333333333333,4,1,0,20,0,0
285339,-133.333333333333,4,1,0,20,0,0
288698,-133.333333333333,4,1,0,40,0,0
288855,-133.333333333333,4,1,0,20,0,0
292448,-133.333333333333,4,1,0,40,0,0
292605,-133.333333333333,4,1,0,20,0,0
296198,-133.333333333333,4,1,0,40,0,0
296355,-133.333333333333,4,1,0,20,0,0
300183,468.75,4,1,0,50,1,0
301160,468.75,4,1,0,50,1,0
303111,468.75,4,1,0,50,1,0
303708,468.75,4,1,0,50,1,0
304667,468.75,4,1,0,50,1,0
306528,468.75,4,1,0,50,1,0
307534,468.75,4,1,0,50,1,0
310308,468.75,4,1,0,50,1,0
311276,468.75,4,1,0,50,1,0
313110,468.75,4,1,0,50,1,0
315049,468.75,4,1,0,50,1,0
315837,468.75,4,1,0,50,1,0
317780,468.75,4,1,0,50,1,0

[HitObjects]
328,184,27,5,4,0:0:0:0:
344,112,964,1,8,0:0:0:0:
344,112,2839,1,0,0:0:0:0:
344,112,3152,1,8,0:0:0:0:
248,104,3464,1,8,0:0:0:0:
256,88,3777,1,4,0:0:0:0:
312,80,4714,1,8,0:0:0:0:
312,80,6589,1,0,0:0:0:0:
312,80,6902,1,8,0:0:0:0:
304,96,7214,1,8,0:0:0:0:
224,120,7527,1,4,0:0:0:0:
280,112,7839,1,8,0:0:0:0:
280,112,8152,1,8,0:0:0:0:
280,112,8308,1,8,0:0:0:0:
296,168,10339,1,0,0:0:0:0:
296,168,10652,1,8,0:0:0:0:
296,168,10964,1,8,0:0:0:0:
320,176,11277,1,4,0:0:0:0:
320,168,13152,1,0,0:0:0:0:
328,176,15027,1,4,0:0:0:0:
328,176,15964,1,8,0:0:0:0:
288,208,16277,1,8,0:0:0:0:
288,208,16589,1,8,0:0:0:0:
288,208,16902,1,0,0:0:0:0:
328,176,17839,1,0,0:0:0:0:
328,184,18152,1,8,0:0:0:0:
328,184,18464,1,8,0:0:0:0:
328,176,18777,1,4,0:0:0:0:
328,176,19714,1,8,0:0:0:0:
288,208,20027,1,8,0:0:0:0:
288,208,20339,1,8,0:0:0:0:
288,208,20652,1,0,0:0:0:0:
328,176,21589,1,0,0:0:0:0:
328,176,21902,1,8,0:0:0:0:
328,176,22214,1,8,0:0:0:0:
288,216,22527,1,4,0:0:0:0:
288,216,22839,1,8,0:0:0:0:
288,216,23152,1,8,0:0:0:0:
288,216,23308,1,8,0:0:0:0:
240,200,23464,1,0,0:0:0:0:
240,200,23777,1,8,0:0:0:0:
240,200,24089,1,8,0:0:0:0:
240,200,24402,1,0,0:0:0:0:
248,200,25339,1,0,0:0:0:0:
248,200,25652,1,8,0:0:0:0:
248,200,25964,1,8,0:0:0:0:
272,192,26277,1,4,0:0:0:0:
272,200,26589,1,0,0:0:0:0:
272,192,26902,1,8,0:0:0:0:
272,200,27214,1,0,0:0:0:0:
272,200,27527,1,0,0:0:0:0:
272,200,27839,1,8,0:0:0:0:
272,200,28152,1,0,0:0:0:0:
272,200,28464,1,8,0:0:0:0:
272,200,28777,1,8,0:0:0:0:
272,200,29089,1,0,0:0:0:0:
264,144,30027,1,4,0:0:0:0:
280,144,30339,1,8,0:0:0:0:
280,144,30495,1,0,0:0:0:0:
280,144,30652,1,8,0:0:0:0:
264,144,30964,1,0,0:0:0:0:
264,144,31277,1,8,0:0:0:0:
264,152,31589,1,8,0:0:0:0:
216,128,31902,1,0,0:0:0:0:
264,160,32214,1,8,0:0:0:0:
288,160,32370,1,0,0:0:0:0:
264,160,32527,1,8,0:0:0:0:
224,136,32839,1,0,0:0:0:0:
224,136,33152,1,8,0:0:0:0:
224,136,33464,1,8,0:0:0:0:
224,144,33777,1,4,0:0:0:0:
328,152,34089,1,8,0:0:0:0:
328,152,34245,1,0,0:0:0:0:
328,152,34402,1,8,0:0:0:0:
304,168,34714,1,0,0:0:0:0:
304,168,35027,1,8,0:0:0:0:
304,176,35339,1,8,0:0:0:0:
304,168,35652,1,0,0:0:0:0:
304,168,35964,1,8,0:0:0:0:
304,168,36120,1,0,0:0:0:0:
280,192,36277,1,8,0:0:0:0:
280,192,36589,1,0,0:0:0:0:
280,192,36902,1,8,0:0:0:0:
280,192,37214,1,8,0:0:0:0:
312,176,37527,1,4,0:0:0:0:
304,176,37839,1,8,0:0:0:0:
296,176,37995,1,0,0:0:0:0:
296,176,38152,1,8,0:0:0:0:
296,176,38308,1,8,0:0:0:0:
240,96,38464,1,0,0:0:0:0:
240,96,38777,1,8,0:0:0:0:
256,112,39089,1,8,0:0:0:0:
248,112,39402,1,0,0:0:0:0:
256,112,39714,1,8,0:0:0:0:
256,112,39870,1,0,0:0:0:0:
304,152,40027,1,8,0:0:0:0:
280,152,40339,1,0,0:0:0:0:
272,144,40652,1,8,0:0:0:0:
272,144,40964,1,8,0:0:0:0:
296,144,41277,1,4,0:0:0:0:
336,144,41589,1,8,0:0:0:0:
328,152,41745,1,0,0:0:0:0:
328,152,41902,1,8,0:0:0:0:
328,152,42058,1,0,0:0:0:0:
328,152,42214,1,0,0:0:0:0:
320,176,42527,1,8,0:0:0:0:
320,176,42839,1,8,0:0:0:0:
320,176,43152,1,0,0:0:0:0:
320,176,43464,1,8,0:0:0:0:
320,192,43620,1,0,0:0:0:0:
336,184,43777,1,8,0:0:0:0:
320,184,43933,1,0,0:0:0:0:
280,152,44089,1,0,0:0:0:0:
288,216,44402,1,8,0:0:0:0:
288,216,44714,1,8,0:0:0:0:
320,224,45027,1,4,0:0:0:0:
320,224,45339,1,8,0:0:0:0:
232,128,45495,1,0,0:0:0:0:
216,112,45652,1,8,0:0:0:0:
168,128,45808,1,0,0:0:0:0:
216,120,45964,1,0,0:0:0:0:
248,120,46277,1,8,0:0:0:0:
248,128,46433,1,0,0:0:0:0:
208,128,46589,1,8,0:0:0:0:
208,128,46902,1,0,0:0:0:0:
208,128,47058,1,0,0:0:0:0:
176,128,47214,1,8,0:0:0:0:
184,128,47370,1,0,0:0:0:0:
184,128,47527,1,8,0:0:0:0:
184,136,47839,1,0,0:0:0:0:
208,136,48152,1,8,0:0:0:0:
208,136,48308,1,0,0:0:0:0:
200,136,48464,1,8,0:0:0:0:
200,136,48777,1,4,0:0:0:0:
208,144,49089,1,8,0:0:0:0:
200,144,49245,1,0,0:0:0:0:
200,144,49402,1,8,0:0:0:0:
320,224,49558,1,0,0:0:0:0:
192,152,49714,1,0,0:0:0:0:
200,152,50027,1,8,0:0:0:0:
288,152,50183,1,0,0:0:0:0:
288,152,50339,1,8,0:0:0:0:
288,152,50652,1,0,0:0:0:0:
320,88,50808,1,8,0:0:0:0:
272,168,50964,1,8,0:0:0:0:
272,168,51120,1,0,0:0:0:0:
272,168,51277,1,8,0:0:0:0:
272,168,51589,1,0,0:0:0:0:
272,168,51745,1,0,0:0:0:0:
272,168,51902,1,8,0:0:0:0:
272,168,52058,1,0,0:0:0:0:
272,168,52214,1,8,0:0:0:0:
272,192,52527,1,4,0:0:0:0:
272,192,52839,1,8,0:0:0:0:
272,192,52995,1,0,0:0:0:0:
272,192,53152,1,8,0:0:0:0:
272,192,53308,1,8,0:0:0:0:
272,192,53464,1,0,0:0:0:0:
328,144,53777,1,8,0:0:0:0:
328,144,53933,1,0,0:0:0:0:
328,144,54089,1,8,0:0:0:0:
360,136,54402,1,0,0:0:0:0:
336,136,54558,1,0,0:0:0:0:
360,136,54714,1,8,0:0:0:0:
352,144,54870,1,0,0:0:0:0:
312,136,55027,1,8,0:0:0:0:
312,128,55339,1,8,0:0:0:0:
312,136,55495,1,0,0:0:0:0:
288,144,55652,1,8,0:0:0:0:
288,144,55808,1,0,0:0:0:0:
288,144,55964,1,8,0:0:0:0:
368,208,56277,1,0,0:0:0:0:
368,208,56433,1,0,0:0:0:0:
368,208,56589,1,8,0:0:0:0:
328,200,56745,1,0,0:0:0:0:
328,200,56902,1,8,0:0:0:0:
328,200,57058,1,0,0:0:0:0:
328,208,57214,1,0,0:0:0:0:
328,208,57370,1,0,0:0:0:0:
288,192,57527,1,8,0:0:0:0:
288,192,57683,1,0,0:0:0:0:
288,192,57839,1,8,0:0:0:0:
264,232,57995,1,0,0:0:0:0:
264,232,58152,1,0,0:0:0:0:
264,232,58308,1,0,0:0:0:0:
280,224,58464,1,8,0:0:0:0:
280,224,58620,1,0,0:0:0:0:
240,176,58777,1,8,0:0:0:0:
240,176,58933,1,0,0:0:0:0:
240,176,59089,1,0,0:0:0:0:
240,176,59245,1,0,0:0:0:0:
272,176,59402,1,8,0:0:0:0:
272,176,59558,1,0,0:0:0:0:
264,176,59714,1,8,0:0:0:0:
248,176,59870,1,8,0:0:0:0:
248,176,60027,1,0,0:0:0:0:
248,176,60339,1,8,0:0:0:0:
248,176,60495,1,0,0:0:0:0:
240,168,60652,1,8,0:0:0:0:
240,176,60808,1,8,0:0:0:0:
240,176,60964,1,0,0:0:0:0:
304,192,61120,1,8,0:0:0:0:
240,176,61277,1,8,0:0:0:0:
240,176,61433,1,0,0:0:0:0:
240,120,61589,1,8,0:0:0:0:
264,192,61745,1,8,0:0:0:0:
224,160,61902,1,0,0:0:0:0:
304,152,62058,1,8,0:0:0:0:
240,168,62214,1,8,0:0:0:0:
224,176,62370,1,0,0:0:0:0:
192,192,62527,1,8,0:0:0:0:
256,96,62683,1,8,0:0:0:0:
256,96,62839,1,0,0:0:0:0:
280,144,62995,1,8,0:0:0:0:
232,80,63152,1,8,0:0:0:0:
272,136,63308,1,0,0:0:0:0:
272,136,63464,1,8,0:0:0:0:
272,136,63620,1,8,0:0:0:0:
280,128,63777,1,0,0:0:0:0:
280,128,63933,1,0,0:0:0:0:
272,136,64089,1,8,0:0:0:0:
280,136,64245,1,0,0:0:0:0:
280,136,64402,1,8,0:0:0:0:
320,152,64558,1,8,0:0:0:0:
280,136,64714,1,0,0:0:0:0:
288,136,64870,1,0,0:0:0:0:
288,136,65027,1,8,0:0:0:0:
288,152,65183,1,0,0:0:0:0:
288,152,65339,1,8,0:0:0:0:
288,152,65495,1,8,0:0:0:0:
256,136,65652,1,0,0:0:0:0:
248,168,65808,1,0,0:0:0:0:
256,152,65964,1,8,0:0:0:0:
224,160,66120,1,0,0:0:0:0:
224,160,66277,1,8,0:0:0:0:
224,160,66433,1,8,0:0:0:0:
240,160,66589,1,0,0:0:0:0:
280,160,66745,1,0,0:0:0:0:
248,160,66902,1,8,0:0:0:0:
248,200,67058,1,0,0:0:0:0:
248,200,67214,1,8,0:0:0:0:
248,200,67370,1,0,0:0:0:0:
264,168,67527,1,0,0:0:0:0:
264,168,67683,1,8,0:0:0:0:
264,168,67839,1,8,0:0:0:0:
264,168,67995,1,0,0:0:0:0:
264,168,68152,1,8,0:0:0:0:
264,168,68308,1,0,0:0:0:0:
264,168,68464,1,0,0:0:0:0:
264,168,68620,1,8,0:0:0:0:
264,168,68777,1,8,0:0:0:0:
272,168,68933,1,0,0:0:0:0:
248,152,69089,1,8,0:0:0:0:
248,152,69245,1,0,0:0:0:0:
248,152,69402,1,0,0:0:0:0:
240,152,69558,1,8,0:0:0:0:
240,152,69714,1,8,0:0:0:0:
248,152,69870,1,0,0:0:0:0:
240,120,70027,1,8,0:0:0:0:
240,120,70183,1,0,0:0:0:0:
240,120,70339,1,0,0:0:0:0:
240,128,70495,1,8,0:0:0:0:
240,128,70652,1,8,0:0:0:0:
240,128,70808,1,0,0:0:0:0:
256,128,70964,1,8,0:0:0:0:
256,128,71120,1,8,0:0:0:0:
288,136,71277,1,0,0:0:0:0:
288,136,71433,1,0,0:0:0:0:
288,136,71589,1,8,0:0:0:0:
288,136,71745,1,0,0:0:0:0:
288,136,71902,1,8,0:0:0:0:
288,136,72058,1,8,0:0:0:0:
288,136,72214,1,0,0:0:0:0:
288,136,72370,1,0,0:0:0:0:
288,136,72527,1,8,0:0:0:0:
288,136,72683,1,0,0:0:0:0:
272,136,72839,1,8,0:0:0:0:
272,136,72995,1,8,0:0:0:0:
272,136,73152,1,0,0:0:0:0:
272,136,73308,1,0,0:0:0:0:
288,136,73464,1,8,0:0:0:0:
288,136,73620,1,0,0:0:0:0:
272,136,73777,1,8,0:0:0:0:
272,136,73933,1,8,0:0:0:0:
256,152,74089,1,0,0:0:0:0:
256,152,74245,1,0,0:0:0:0:
272,152,74402,1,8,0:0:0:0:
272,152,74558,1,0,0:0:0:0:
272,152,74714,1,8,0:0:0:0:
312,144,75027,1,4,0:0:0:0:
368,200,75339,1,8,0:0:0:0:
368,200,75495,1,0,0:0:0:0:
376,216,75652,1,8,0:0:0:0:
376,216,75808,1,8,0:0:0:0:
344,224,75964,1,0,0:0:0:0:
296,216,76120,1,8,0:0:0:0:
344,224,76277,1,8,0:0:0:0:
328,216,76433,1,0,0:0:0:0:
328,216,76589,1,8,0:0:0:0:
328,216,76745,1,8,0:0:0:0:
328,216,76902,1,0,0:0:0:0:
304,208,77058,1,0,0:0:0:0:
320,208,77214,1,8,0:0:0:0:
248,200,77370,1,0,0:0:0:0:
248,200,77527,1,8,0:0:0:0:
248,200,77683,1,8,0:0:0:0:
280,160,77839,1,0,0:0:0:0:
208,144,77995,1,0,0:0:0:0:
280,160,78152,1,8,0:0:0:0:
264,168,78308,1,0,0:0:0:0:
264,168,78464,1,8,0:0:0:0:
264,168,78620,1,8,0:0:0:0:
272,176,78777,1,0,0:0:0:0:
256,208,78933,1,8,0:0:0:0:
280,208,79089,1,0,0:0:0:0:
272,176,79245,1,0,0:0:0:0:
240,168,79402,1,8,0:0:0:0:
224,96,79558,1,8,0:0:0:0:
304,208,79714,1,0,0:0:0:0:
224,128,79870,1,8,0:0:0:0:
280,136,80027,1,0,0:0:0:0:
224,144,80183,1,0,0:0:0:0:
216,144,80339,1,8,0:0:0:0:
216,144,80495,1,8,0:0:0:0:
272,160,80652,1,0,0:0:0:0:
272,160,80808,1,0,0:0:0:0:
272,168,80964,1,8,0:0:0:0:
280,168,81120,1,0,0:0:0:0:
280,168,81277,1,8,0:0:0:0:
272,208,81433,1,8,0:0:0:0:
288,168,81589,1,0,0:0:0:0:
272,184,81745,1,0,0:0:0:0:
288,168,81902,1,8,0:0:0:0:
304,168,82058,1,0,0:0:0:0:
256,160,82214,1,8,0:0:0:0:
264,160,82370,1,0,0:0:0:0:
264,160,82527,1,8,0:0:0:0:
272,160,82683,1,8,0:0:0:0:
272,160,82839,1,0,0:0:0:0:
272,152,82995,1,8,0:0:0:0:
272,152,83152,1,8,0:0:0:0:
272,160,83308,1,0,0:0:0:0:
272,152,83464,1,8,0:0:0:0:
272,160,83620,1,8,0:0:0:0:
272,160,83777,1,0,0:0:0:0:
280,96,83933,1,8,0:0:0:0:
248,104,84089,1,8,0:0:0:0:
304,240,84245,1,0,0:0:0:0:
296,136,84402,1,8,0:0:0:0:
296,136,84558,1,8,0:0:0:0:
296,136,84714,1,0,0:0:0:0:
296,136,84870,1,8,0:0:0:0:
272,128,85027,1,8,0:0:0:0:
304,240,85183,1,0,0:0:0:0:
248,136,85339,1,8,0:0:0:0:
248,136,85495,1,8,0:0:0:0:
248,136,85652,1,0,0:0:0:0:
248,136,85808,1,8,0:0:0:0:
208,136,85964,1,8,0:0:0:0:
208,136,86120,1,8,0:0:0:0:
264,144,86277,1,0,0:0:0:0:
264,144,86433,1,0,0:0:0:0:
280,144,86589,1,8,0:0:0:0:
280,144,86745,1,0,0:0:0:0:
256,144,86902,1,8,0:0:0:0:
256,144,87058,1,8,0:0:0:0:
344,176,87214,1,0,0:0:0:0:
304,184,87370,1,0,0:0:0:0:
280,176,87527,1,8,0:0:0:0:
288,160,87683,1,0,0:0:0:0:
304,184,87839,1,8,0:0:0:0:
280,176,87995,1,8,0:0:0:0:
328,208,88152,1,0,0:0:0:0:
296,200,88308,1,0,0:0:0:0:
240,176,88464,1,8,0:0:0:0:
240,176,88620,1,0,0:0:0:0:
256,120,88777,1,8,0:0:0:0:
256,120,88933,1,8,0:0:0:0:
248,136,89089,1,0,0:0:0:0:
280,128,89245,1,8,0:0:0:0:
280,128,89402,1,8,0:0:0:0:
280,128,89558,1,0,0:0:0:0:
280,128,89714,1,8,0:0:0:0:
192,192,89870,1,8,0:0:0:0:
288,144,90027,1,0,0:0:0:0:
368,200,90339,1,8,0:0:0:0:
368,200,90495,1,0,0:0:0:0:
376,216,90652,1,8,0:0:0:0:
376,216,90808,1,8,0:0:0:0:
344,224,90964,1,0,0:0:0:0:
296,216,91120,1,8,0:0:0:0:
344,224,91277,1,8,0:0:0:0:
328,216,91433,1,0,0:0:0:0:
328,216,91589,1,8,0:0:0:0:
328,216,91745,1,8,0:0:0:0:
328,216,91902,1,0,0:0:0:0:
304,208,92058,1,0,0:0:0:0:
320,208,92214,1,8,0:0:0:0:
248,200,92370,1,0,0:0:0:0:
248,200,92527,1,8,0:0:0:0:
248,200,92683,1,8,0:0:0:0:
280,160,92839,1,0,0:0:0:0:
208,144,92995,1,0,0:0:0:0:
280,160,93152,1,8,0:0:0:0:
264,168,93308,1,0,0:0:0:0:
264,168,93464,1,8,0:0:0:0:
264,168,93620,1,8,0:0:0:0:
272,176,93777,1,0,0:0:0:0:
256,208,93933,1,8,0:0:0:0:
280,208,94089,1,0,0:0:0:0:
272,176,94245,1,0,0:0:0:0:
240,168,94402,1,8,0:0:0:0:
224,96,94558,1,8,0:0:0:0:
304,208,94714,1,0,0:0:0:0:
224,128,94870,1,8,0:0:0:0:
280,136,95027,1,0,0:0:0:0:
224,144,95183,1,0,0:0:0:0:
216,144,95339,1,8,0:0:0:0:
216,144,95495,1,8,0:0:0:0:
272,160,95652,1,0,0:0:0:0:
272,160,95808,1,0,0:0:0:0:
272,168,95964,1,8,0:0:0:0:
280,168,96120,1,0,0:0:0:0:
280,168,96277,1,8,0:0:0:0:
272,208,96433,1,8,0:0:0:0:
288,168,96589,1,0,0:0:0:0:
272,184,96745,1,0,0:0:0:0:
288,168,96902,1,8,0:0:0:0:
304,168,97058,1,0,0:0:0:0:
256,160,97214,1,8,0:0:0:0:
264,160,97370,1,0,0:0:0:0:
264,160,97527,1,8,0:0:0:0:
272,160,97683,1,8,0:0:0:0:
272,160,97839,1,0,0:0:0:0:
272,152,97995,1,8,0:0:0:0:
272,152,98152,1,8,0:0:0:0:
272,160,98308,1,0,0:0:0:0:
272,152,98464,1,8,0:0:0:0:
272,160,98620,1,8,0:0:0:0:
272,160,98777,1,0,0:0:0:0:
280,96,98933,1,8,0:0:0:0:
248,104,99089,1,8,0:0:0:0:
304,240,99245,1,0,0:0:0:0:
296,136,99402,1,8,0:0:0:0:
296,136,99558,1,8,0:0:0:0:
296,136,99714,1,0,0:0:0:0:
296,136,99870,1,8,0:0:0:0:
272,128,100027,1,8,0:0:0:0:
304,240,100183,1,0,0:0:0:0:
248,136,100339,1,8,0:0:0:0:
248,136,100495,1,8,0:0:0:0:
248,136,100652,1,0,0:0:0:0:
248,136,100808,1,8,0:0:0:0:
208,136,100964,1,8,0:0:0:0:
208,136,101120,1,8,0:0:0:0:
264,144,101277,1,0,0:0:0:0:
264,144,101433,1,0,0:0:0:0:
280,144,101589,1,8,0:0:0:0:
280,144,101745,1,0,0:0:0:0:
256,144,101902,1,8,0:0:0:0:
256,144,102058,1,8,0:0:0:0:
344,176,102214,1,0,0:0:0:0:
352,144,102370,1,8,0:0:0:0:
352,144,102527,1,8,0:0:0:0:
352,144,102683,1,0,0:0:0:0:
344,152,102839,1,8,0:0:0:0:
344,152,102995,1,0,0:0:0:0:
328,152,103152,1,12,0:0:0:0:
336,152,103308,1,0,0:0:0:0:
336,152,103464,1,0,0:0:0:0:
296,152,103620,1,12,0:0:0:0:
344,152,103777,1,0,0:0:0:0:
344,152,103933,1,0,0:0:0:0:
352,160,104089,1,12,0:0:0:0:
352,160,104245,1,12,0:0:0:0:
352,160,104402,1,12,0:0:0:0:
344,160,104558,1,0,0:0:0:0:
352,152,105027,1,8,0:0:0:0:
360,208,108777,1,0,0:0:0:0:
312,256,112527,1,8,0:0:0:0:
304,272,116277,1,0,0:0:0:0:
384,200,120027,1,0,0:0:0:0:
336,184,120964,1,8,0:0:0:0:
336,184,121902,1,0,0:0:0:0:
328,192,122839,1,8,0:0:0:0:
336,208,123777,1,0,0:0:0:0:
272,240,124714,1,8,0:0:0:0:
272,240,125652,1,0,0:0:0:0:
288,240,126589,1,0,0:0:0:0:
224,160,127527,1,8,0:0:0:0:
232,168,128464,1,0,0:0:0:0:
232,176,129402,1,8,0:0:0:0:
232,176,130339,1,0,0:0:0:0:
272,224,131277,1,8,0:0:0:0:
280,264,132214,1,0,0:0:0:0:
264,272,133152,1,8,0:0:0:0:
264,272,134089,1,0,0:0:0:0:
304,304,135027,1,8,0:0:0:0:
304,304,135964,1,0,0:0:0:0:
304,304,136902,1,8,0:0:0:0:
336,232,137839,1,0,0:0:0:0:
336,232,138152,1,8,0:0:0:0:
336,232,138464,1,8,0:0:0:0:
336,232,138777,1,0,0:0:0:0:
336,240,139714,1,8,0:0:0:0:
352,168,140652,1,0,0:0:0:0:
352,176,141589,1,8,0:0:0:0:
320,200,141902,1,0,0:0:0:0:
320,200,142214,1,0,0:0:0:0:
320,200,142527,1,8,0:0:0:0:
320,200,143464,1,0,0:0:0:0:
320,200,144402,1,8,0:0:0:0:
320,200,145339,1,0,0:0:0:0:
296,192,145652,1,8,0:0:0:0:
296,192,145964,1,8,0:0:0:0:
296,192,146277,1,0,0:0:0:0:
296,192,147214,1,8,0:0:0:0:
296,192,148152,1,0,0:0:0:0:
296,192,149089,1,8,0:0:0:0:
288,200,149402,1,0,0:0:0:0:
288,200,149714,1,0,0:0:0:0:
288,200,150027,1,8,0:0:0:0:
312,176,150964,1,0,0:0:0:0:
312,176,151902,1,8,0:0:0:0:
312,176,152839,1,0,0:0:0:0:
312,176,153152,1,8,0:0:0:0:
312,176,153464,1,8,0:0:0:0:
312,176,153777,1,0,0:0:0:0:
312,176,154714,1,8,0:0:0:0:
288,176,155652,1,0,0:0:0:0:
192,184,155964,1,8,0:0:0:0:
304,200,156277,1,8,0:0:0:0:
256,136,156589,1,8,0:0:0:0:
272,160,156902,1,0,0:0:0:0:
240,144,157214,1,0,0:0:0:0:
240,144,157527,1,8,0:0:0:0:
320,184,158464,1,0,0:0:0:0:
312,184,159402,1,8,0:0:0:0:
280,184,160339,1,0,0:0:0:0:
280,184,160652,1,8,0:0:0:0:
280,184,160964,1,8,0:0:0:0:
280,184,161277,1,0,0:0:0:0:
256,192,161745,12,0,162995,0:0:0:0:
400,208,163152,5,4,0:0:0:0:
400,208,164089,1,12,0:0:0:0:
376,208,164558,1,4,0:0:0:0:
376,208,165027,1,12,0:0:0:0:
256,160,165339,1,8,0:0:0:0:
296,232,165495,1,8,0:0:0:0:
264,224,165652,1,0,0:0:0:0:
256,112,165964,1,12,0:0:0:0:
336,264,166277,1,8,0:0:0:0:
336,264,166433,1,0,0:0:0:0:
240,224,166589,1,8,0:0:0:0:
256,112,166902,1,4,0:0:0:0:
328,216,167214,1,8,0:0:0:0:
328,216,167370,1,8,0:0:0:0:
288,232,167527,1,0,0:0:0:0:
256,112,167839,1,12,0:0:0:0:
288,232,168152,1,8,0:0:0:0:
208,216,168308,1,0,0:0:0:0:
208,216,168464,1,8,0:0:0:0:
256,112,168777,1,4,0:0:0:0:
216,216,169089,1,8,0:0:0:0:
216,216,169245,1,8,0:0:0:0:
216,216,169402,1,0,0:0:0:0:
256,112,169714,1,12,0:0:0:0:
256,112,170027,1,12,0:0:0:0:
256,112,170339,1,12,0:0:0:0:
256,112,170652,1,4,0:0:0:0:
256,216,170964,1,8,0:0:0:0:
256,216,171120,1,0,0:0:0:0:
280,208,171277,1,8,0:0:0:0:
280,208,171433,1,8,0:0:0:0:
280,208,171589,1,0,0:0:0:0:
328,216,171902,1,8,0:0:0:0:
328,216,172058,1,0,0:0:0:0:
328,216,172214,1,8,0:0:0:0:
288,168,172527,1,4,0:0:0:0:
336,216,172839,1,8,0:0:0:0:
336,216,172995,1,8,0:0:0:0:
272,184,173152,1,0,0:0:0:0:
288,168,173464,1,12,0:0:0:0:
248,160,173777,1,8,0:0:0:0:
176,152,173933,1,0,0:0:0:0:
176,152,174089,1,8,0:0:0:0:
288,176,174402,1,4,0:0:0:0:
328,184,174714,1,8,0:0:0:0:
328,184,174870,1,8,0:0:0:0:
304,184,175027,1,0,0:0:0:0:
288,176,175339,1,12,0:0:0:0:
288,176,175652,1,4,0:0:0:0:
288,176,175964,1,12,0:0:0:0:
288,176,176277,1,12,0:0:0:0:
288,248,176589,1,0,0:0:0:0:
304,192,176745,1,0,0:0:0:0:
320,192,176902,1,8,0:0:0:0:
288,248,177058,1,0,0:0:0:0:
288,248,177214,1,8,0:0:0:0:
320,200,177527,1,0,0:0:0:0:
320,200,177683,1,0,0:0:0:0:
264,192,177839,1,8,0:0:0:0:
296,176,178152,1,4,0:0:0:0:
304,224,178464,1,8,0:0:0:0:
304,224,178620,1,0,0:0:0:0:
288,248,178777,1,8,0:0:0:0:
288,248,178933,1,8,0:0:0:0:
224,200,179089,1,0,0:0:0:0:
312,224,179402,1,8,0:0:0:0:
312,224,179558,1,0,0:0:0:0:
312,224,179714,1,8,0:0:0:0:
304,192,180027,1,4,0:0:0:0:
344,232,180339,1,8,0:0:0:0:
344,232,180495,1,8,0:0:0:0:
344,232,180652,1,0,0:0:0:0:
304,192,180964,1,12,0:0:0:0:
336,232,181277,1,8,0:0:0:0:
264,224,181433,1,0,0:0:0:0:
264,224,181589,1,8,0:0:0:0:
304,192,181902,1,4,0:0:0:0:
264,224,182214,1,8,0:0:0:0:
264,224,182370,1,8,0:0:0:0:
264,224,182527,1,0,0:0:0:0:
304,192,182839,1,12,0:0:0:0:
272,192,183152,1,8,0:0:0:0:
280,176,183308,1,0,0:0:0:0:
272,192,183464,1,8,0:0:0:0:
304,192,183777,1,4,0:0:0:0:
320,200,184089,1,8,0:0:0:0:
320,200,184245,1,8,0:0:0:0:
320,200,184402,1,0,0:0:0:0:
288,208,184714,1,12,0:0:0:0:
288,208,185027,1,12,0:0:0:0:
288,208,185339,1,12,0:0:0:0:
288,208,185652,1,4,0:0:0:0:
328,208,185964,1,8,0:0:0:0:
328,208,186120,1,0,0:0:0:0:
288,200,186277,1,8,0:0:0:0:
328,208,186433,1,8,0:0:0:0:
280,192,186589,1,0,0:0:0:0:
280,192,186902,1,8,0:0:0:0:
216,200,187058,1,0,0:0:0:0:
216,200,187214,1,8,0:0:0:0:
288,216,187527,1,4,0:0:0:0:
312,192,187839,1,8,0:0:0:0:
296,192,187995,1,8,0:0:0:0:
304,192,188152,1,0,0:0:0:0:
288,216,188464,1,12,0:0:0:0:
296,192,188777,1,8,0:0:0:0:
248,192,188933,1,0,0:0:0:0:
240,192,189089,1,8,0:0:0:0:
288,216,189402,1,4,0:0:0:0:
216,184,189714,1,8,0:0:0:0:
200,176,189870,1,8,0:0:0:0:
200,176,190027,1,0,0:0:0:0:
288,216,190339,1,12,0:0:0:0:
288,216,190652,1,4,0:0:0:0:
288,216,190964,1,12,0:0:0:0:
288,216,191277,1,12,0:0:0:0:
200,176,191589,1,0,0:0:0:0:
200,176,191745,1,0,0:0:0:0:
232,168,191902,1,8,0:0:0:0:
232,168,192058,1,0,0:0:0:0:
232,168,192214,1,8,0:0:0:0:
280,168,192527,1,0,0:0:0:0:
280,168,192683,1,0,0:0:0:0:
192,144,192839,1,8,0:0:0:0:
288,216,193152,1,4,0:0:0:0:
208,144,193464,1,8,0:0:0:0:
208,144,193620,1,8,0:0:0:0:
208,144,193777,1,0,0:0:0:0:
288,208,194089,1,12,0:0:0:0:
352,184,194245,1,0,0:0:0:0:
352,184,194402,1,0,0:0:0:0:
288,208,194558,1,12,0:0:0:0:
256,208,195027,1,0,0:0:0:0:
240,104,195339,1,0,0:0:0:0:
296,128,195495,1,8,0:0:0:0:
160,192,195808,1,0,0:0:0:0:
216,88,195964,1,0,0:0:0:0:
216,88,196120,1,0,0:0:0:0:
200,88,196277,1,0,0:0:0:0:
216,88,196433,1,8,0:0:0:0:
216,96,196745,1,0,0:0:0:0:
344,160,196902,1,0,0:0:0:0:
344,160,197058,1,8,0:0:0:0:
320,160,197214,1,0,0:0:0:0:
248,176,197370,1,8,0:0:0:0:
336,152,197683,1,0,0:0:0:0:
264,112,197839,1,8,0:0:0:0:
264,112,197995,1,0,0:0:0:0:
272,112,198152,1,0,0:0:0:0:
336,144,198308,1,8,0:0:0:0:
312,240,198464,1,8,0:0:0:0:
280,128,198620,1,8,0:0:0:0:
320,128,198777,1,0,0:0:0:0:
328,208,199089,1,0,0:0:0:0:
328,208,199245,1,8,0:0:0:0:
272,184,199402,1,0,0:0:0:0:
272,184,199558,1,0,0:0:0:0:
256,192,199714,1,0,0:0:0:0:
280,168,200027,1,0,0:0:0:0:
264,176,200183,1,8,0:0:0:0:
256,176,200339,1,8,0:0:0:0:
248,160,200495,1,0,0:0:0:0:
248,168,200652,1,0,0:0:0:0:
264,168,200964,1,0,0:0:0:0:
264,168,201120,1,8,0:0:0:0:
200,160,201277,1,0,0:0:0:0:
240,176,201433,1,0,0:0:0:0:
200,160,201589,1,0,0:0:0:0:
240,192,201902,1,0,0:0:0:0:
240,192,202058,1,8,0:0:0:0:
240,192,202214,1,8,0:0:0:0:
248,192,202370,1,8,0:0:0:0:
272,192,202527,1,0,0:0:0:0:
296,192,202683,1,0,0:0:0:0:
288,200,202839,1,0,0:0:0:0:
280,200,202995,1,8,0:0:0:0:
288,208,203308,1,0,0:0:0:0:
288,208,203464,1,0,0:0:0:0:
216,128,203620,1,0,0:0:0:0:
280,160,203777,1,0,0:0:0:0:
240,152,203933,1,8,0:0:0:0:
272,168,204245,1,0,0:0:0:0:
272,168,204402,1,0,0:0:0:0:
272,168,204558,1,8,0:0:0:0:
272,168,204714,1,0,0:0:0:0:
264,168,204870,1,8,0:0:0:0:
304,168,205183,1,0,0:0:0:0:
304,168,205339,1,8,0:0:0:0:
280,152,205495,1,0,0:0:0:0:
296,168,205652,1,0,0:0:0:0:
288,152,205808,1,8,0:0:0:0:
288,160,205964,1,8,0:0:0:0:
296,160,206120,1,8,0:0:0:0:
296,152,206277,1,0,0:0:0:0:
312,160,206589,1,0,0:0:0:0:
312,160,206745,1,8,0:0:0:0:
312,160,206902,1,0,0:0:0:0:
312,168,207058,1,0,0:0:0:0:
304,168,207214,1,0,0:0:0:0:
320,168,207527,1,0,0:0:0:0:
320,168,207683,1,8,0:0:0:0:
296,152,207839,1,8,0:0:0:0:
312,168,207995,1,0,0:0:0:0:
312,152,208152,1,8,0:0:0:0:
280,192,208464,1,0,0:0:0:0:
336,192,208620,1,0,0:0:0:0:
280,152,208777,1,0,0:0:0:0:
312,176,208933,1,8,0:0:0:0:
304,176,209089,1,0,0:0:0:0:
320,176,209402,1,0,0:0:0:0:
320,176,209558,1,8,0:0:0:0:
312,176,209714,1,0,0:0:0:0:
312,184,209870,1,0,0:0:0:0:
304,160,210027,1,0,0:0:0:0:
280,176,210339,1,0,0:0:0:0:
280,176,210495,1,8,0:0:0:0:
320,200,210652,1,0,0:0:0:0:
320,200,210808,1,0,0:0:0:0:
320,200,210964,1,0,0:0:0:0:
312,200,211120,1,8,0:0:0:0:
296,176,211277,1,0,0:0:0:0:
296,176,211433,1,8,0:0:0:0:
288,184,211745,1,0,0:0:0:0:
296,192,211902,1,8,0:0:0:0:
280,160,212058,1,0,0:0:0:0:
288,184,212214,1,0,0:0:0:0:
288,184,212370,1,8,0:0:0:0:
264,160,212527,1,8,0:0:0:0:
312,192,212683,1,0,0:0:0:0:
296,176,212839,1,8,0:0:0:0:
296,176,212995,1,0,0:0:0:0:
304,176,213152,1,0,0:0:0:0:
296,176,213308,1,8,0:0:0:0:
224,152,213620,1,0,0:0:0:0:
344,192,213777,1,8,0:0:0:0:
360,168,213933,1,0,0:0:0:0:
360,168,214089,1,0,0:0:0:0:
248,152,214245,1,8,0:0:0:0:
288,160,214402,1,0,0:0:0:0:
336,128,214558,1,0,0:0:0:0:
320,144,214714,1,8,0:0:0:0:
304,120,214870,1,8,0:0:0:0:
272,120,215027,1,0,0:0:0:0:
272,120,215183,1,8,0:0:0:0:
360,128,215652,1,0,0:0:0:0:
248,160,215808,1,0,0:0:0:0:
360,128,215964,1,8,0:0:0:0:
384,160,216120,1,0,0:0:0:0:
240,160,216277,1,8,0:0:0:0:
368,144,216433,1,8,0:0:0:0:
304,136,216589,1,0,0:0:0:0:
240,160,216745,1,0,0:0:0:0:
288,136,216902,1,8,0:0:0:0:
240,144,217058,1,0,0:0:0:0:
224,128,217214,1,8,0:0:0:0:
280,128,217370,1,8,0:0:0:0:
296,224,217527,1,0,0:0:0:0:
352,224,217683,1,0,0:0:0:0:
296,224,217839,1,8,0:0:0:0:
304,152,217995,1,8,0:0:0:0:
328,232,218152,1,0,0:0:0:0:
320,232,218308,1,0,0:0:0:0:
360,224,218464,1,8,0:0:0:0:
304,224,218620,1,0,0:0:0:0:
312,152,218777,1,8,0:0:0:0:
312,152,218933,1,8,0:0:0:0:
312,152,219089,1,0,0:0:0:0:
328,160,219245,1,0,0:0:0:0:
328,160,219402,1,8,0:0:0:0:
328,160,219558,1,8,0:0:0:0:
336,160,219714,1,0,0:0:0:0:
336,160,219870,1,8,0:0:0:0:
360,160,220027,1,0,0:0:0:0:
360,160,220183,1,0,0:0:0:0:
400,168,220339,1,8,0:0:0:0:
400,168,220495,1,0,0:0:0:0:
400,168,220652,1,0,0:0:0:0:
400,168,220808,1,8,0:0:0:0:
392,168,220964,1,0,0:0:0:0:
392,168,221120,1,0,0:0:0:0:
392,168,221277,1,8,0:0:0:0:
392,168,221433,1,0,0:0:0:0:
392,168,221589,1,8,0:0:0:0:
392,176,221745,1,8,0:0:0:0:
408,176,221902,1,0,0:0:0:0:
408,176,222058,1,0,0:0:0:0:
424,176,222214,1,8,0:0:0:0:
344,176,222370,1,8,0:0:0:0:
424,176,222527,1,0,0:0:0:0:
320,168,222683,1,8,0:0:0:0:
320,168,222839,1,8,0:0:0:0:
256,192,223152,12,0,224323,0:0:0:0:
336,168,224558,5,8,0:0:0:0:
360,176,224714,1,0,0:0:0:0:
336,168,224870,1,0,0:0:0:0:
376,208,225027,1,0,0:0:0:0:
248,176,225105,1,0,0:0:0:0:
320,160,225183,1,0,0:0:0:0:
320,168,225261,1,0,0:0:0:0:
320,160,225339,1,0,0:0:0:0:
320,160,225417,1,0,0:0:0:0:
320,160,225495,1,0,0:0:0:0:
400,192,225964,1,8,0:0:0:0:
400,192,226042,1,8,0:0:0:0:
400,192,226120,1,8,0:0:0:0:
400,192,226198,1,8,0:0:0:0:
400,192,226277,1,8,0:0:0:0:
400,192,226355,1,8,0:0:0:0:
400,192,226433,1,8,0:0:0:0:
440,232,226902,1,0,0:0:0:0:
440,232,227058,1,8,0:0:0:0:
440,232,227136,1,8,0:0:0:0:
368,152,227214,1,8,0:0:0:0:
424,184,227370,1,0,0:0:0:0:
424,184,227527,1,8,0:0:0:0:
368,168,227605,1,0,0:0:0:0:
376,176,227683,1,0,0:0:0:0:
408,168,227839,1,8,0:0:0:0:
408,168,227995,1,0,0:0:0:0:
408,168,228073,1,0,0:0:0:0:
320,160,228152,1,0,0:0:0:0:
320,160,228230,1,0,0:0:0:0:
320,160,228308,1,8,0:0:0:0:
384,216,228464,1,0,0:0:0:0:
384,216,228620,1,8,0:0:0:0:
408,224,228777,1,0,0:0:0:0:
408,224,228933,1,8,0:0:0:0:
408,224,229011,1,8,0:0:0:0:
408,224,229089,1,8,0:0:0:0:
384,208,229245,1,0,0:0:0:0:
384,208,229402,1,8,0:0:0:0:
432,208,229480,1,8,0:0:0:0:
384,208,229558,1,0,0:0:0:0:
440,208,229636,1,0,0:0:0:0:
432,208,229714,1,8,0:0:0:0:
360,64,229870,1,0,0:0:0:0:
344,96,230027,1,8,0:0:0:0:
344,96,230183,1,0,0:0:0:0:
344,96,230339,1,8,0:0:0:0:
344,96,230495,1,8,0:0:0:0:
320,144,230652,1,0,0:0:0:0:
360,224,230730,1,0,0:0:0:0:
320,144,230808,1,0,0:0:0:0:
384,288,230964,1,8,0:0:0:0:
384,288,231120,1,0,0:0:0:0:
344,184,231277,1,8,0:0:0:0:
304,176,231355,1,8,0:0:0:0:
200,136,231433,1,0,0:0:0:0:
192,104,231589,1,8,0:0:0:0:
192,104,231745,1,0,0:0:0:0:
272,176,231823,1,0,0:0:0:0:
264,168,231902,1,0,0:0:0:0:
272,176,231980,1,0,0:0:0:0:
264,136,232058,1,8,0:0:0:0:
392,160,232214,1,0,0:0:0:0:
296,168,232370,1,8,0:0:0:0:
392,224,232527,1,0,0:0:0:0:
392,224,232605,1,0,0:0:0:0:
312,256,232683,1,0,0:0:0:0:
392,224,232761,1,0,0:0:0:0:
280,176,232839,1,0,0:0:0:0:
344,240,232995,1,8,0:0:0:0:
240,216,233073,1,0,0:0:0:0:
272,160,233152,1,0,0:0:0:0:
320,160,233230,1,0,0:0:0:0:
344,160,233308,1,0,0:0:0:0:
240,184,233464,1,8,0:0:0:0:
232,136,233542,1,8,0:0:0:0:
256,176,233620,1,0,0:0:0:0:
264,128,233698,1,0,0:0:0:0:
272,120,233777,1,0,0:0:0:0:
272,120,233855,1,0,0:0:0:0:
296,168,233933,1,8,0:0:0:0:
272,120,234089,1,0,0:0:0:0:
368,96,234245,1,8,0:0:0:0:
328,160,234402,1,0,0:0:0:0:
304,144,234480,1,0,0:0:0:0:
216,144,234558,1,0,0:0:0:0:
304,144,234714,1,8,0:0:0:0:
296,160,234870,1,0,0:0:0:0:
272,152,234948,1,0,0:0:0:0:
240,176,235027,1,8,0:0:0:0:
240,176,235183,1,0,0:0:0:0:
296,160,235339,1,8,0:0:0:0:
224,160,235417,1,0,0:0:0:0:
304,160,235495,1,0,0:0:0:0:
312,152,235573,1,0,0:0:0:0:
312,160,235652,1,8,0:0:0:0:
208,128,235808,1,0,0:0:0:0:
256,88,235964,1,8,0:0:0:0:
296,152,236120,1,0,0:0:0:0:
176,144,236277,1,8,0:0:0:0:
328,152,236355,1,8,0:0:0:0:
336,160,236433,1,0,0:0:0:0:
304,152,236511,1,0,0:0:0:0:
304,152,236589,1,8,0:0:0:0:
304,176,236745,1,0,0:0:0:0:
336,168,236823,1,0,0:0:0:0:
344,168,236902,1,8,0:0:0:0:
328,176,237058,1,0,0:0:0:0:
376,176,237214,1,8,0:0:0:0:
336,176,237292,1,8,0:0:0:0:
368,176,237370,1,0,0:0:0:0:
304,168,237527,1,8,0:0:0:0:
376,168,237683,1,0,0:0:0:0:
384,168,237761,1,0,0:0:0:0:
368,168,237839,1,0,0:0:0:0:
384,176,237917,1,0,0:0:0:0:
344,160,237995,1,8,0:0:0:0:
336,152,238152,1,0,0:0:0:0:
304,192,238308,1,8,0:0:0:0:
304,192,238386,1,8,0:0:0:0:
288,184,238464,1,8,0:0:0:0:
288,184,238620,1,0,0:0:0:0:
296,184,238777,1,8,0:0:0:0:
280,208,238855,1,0,0:0:0:0:
336,192,238933,1,8,0:0:0:0:
296,216,239089,1,0,0:0:0:0:
288,192,239167,1,0,0:0:0:0:
304,224,239245,1,0,0:0:0:0:
208,200,239323,1,0,0:0:0:0:
248,192,239402,1,8,0:0:0:0:
336,192,239558,1,0,0:0:0:0:
336,192,239714,1,8,0:0:0:0:
336,192,239870,1,8,0:0:0:0:
280,64,240027,1,0,0:0:0:0:
280,64,240105,1,0,0:0:0:0:
304,64,240183,1,0,0:0:0:0:
304,64,240261,1,0,0:0:0:0:
304,56,240339,1,0,0:0:0:0:
312,64,240417,1,0,0:0:0:0:
312,64,240495,1,0,0:0:0:0:
320,56,240964,1,8,0:0:0:0:
328,64,241042,1,8,0:0:0:0:
328,64,241120,1,8,0:0:0:0:
328,64,241198,1,8,0:0:0:0:
328,64,241277,1,8,0:0:0:0:
328,64,241355,1,8,0:0:0:0:
328,64,241433,1,8,0:0:0:0:
336,160,241902,1,0,0:0:0:0:
328,216,241980,1,0,0:0:0:0:
280,208,242058,1,0,0:0:0:0:
336,160,242136,1,0,0:0:0:0:
288,208,242214,1,0,0:0:0:0:
280,240,242292,1,0,0:0:0:0:
288,208,242370,1,0,0:0:0:0:
320,208,242839,1,8,0:0:0:0:
320,208,242995,1,0,0:0:0:0:
368,240,243073,1,0,0:0:0:0:
320,208,243152,1,0,0:0:0:0:
368,240,243230,1,0,0:0:0:0:
304,240,243308,1,8,0:0:0:0:
304,240,243464,1,0,0:0:0:0:
304,240,243620,1,8,0:0:0:0:
328,168,243698,1,8,0:0:0:0:
336,176,243777,1,0,0:0:0:0:
336,176,243933,1,8,0:0:0:0:
312,168,244089,1,0,0:0:0:0:
320,176,244167,1,0,0:0:0:0:
320,176,244245,1,8,0:0:0:0:
288,144,244402,1,8,0:0:0:0:
288,144,244480,1,8,0:0:0:0:
288,144,244558,1,0,0:0:0:0:
288,144,244636,1,0,0:0:0:0:
288,144,244714,1,8,0:0:0:0:
304,104,244870,1,0,0:0:0:0:
304,104,245027,1,8,0:0:0:0:
240,120,245105,1,8,0:0:0:0:
304,104,245183,1,0,0:0:0:0:
304,104,245339,1,8,0:0:0:0:
304,104,245495,1,8,0:0:0:0:
272,112,245652,1,0,0:0:0:0:
320,136,245730,1,0,0:0:0:0:
312,120,245808,1,0,0:0:0:0:
344,216,245886,1,0,0:0:0:0:
320,136,245964,1,8,0:0:0:0:
272,128,246120,1,0,0:0:0:0:
344,208,246277,1,8,0:0:0:0:
240,128,246355,1,8,0:0:0:0:
208,168,246433,1,0,0:0:0:0:
200,160,246511,1,0,0:0:0:0:
240,192,246589,1,8,0:0:0:0:
368,216,246745,1,0,0:0:0:0:
368,208,246902,1,8,0:0:0:0:
360,208,247058,1,0,0:0:0:0:
328,200,247527,1,0,0:0:0:0:
344,200,247683,1,8,0:0:0:0:
344,200,247761,1,8,0:0:0:0:
312,200,247839,1,8,0:0:0:0:
312,200,247995,1,0,0:0:0:0:
328,200,248152,1,8,0:0:0:0:
352,232,248230,1,0,0:0:0:0:
328,200,248308,1,0,0:0:0:0:
320,224,248464,1,8,0:0:0:0:
288,224,248542,1,8,0:0:0:0:
264,216,248620,1,0,0:0:0:0:
224,208,248698,1,0,0:0:0:0:
224,208,248777,1,8,0:0:0:0:
240,200,248933,1,0,0:0:0:0:
240,200,249089,1,8,0:0:0:0:
248,200,249167,1,8,0:0:0:0:
240,200,249245,1,8,0:0:0:0:
248,200,249323,1,8,0:0:0:0:
232,200,249402,1,0,0:0:0:0:
232,200,249558,1,8,0:0:0:0:
224,200,249636,1,0,0:0:0:0:
224,192,249714,1,8,0:0:0:0:
224,192,249870,1,0,0:0:0:0:
288,200,250027,1,8,0:0:0:0:
264,200,250105,1,8,0:0:0:0:
312,256,250183,1,0,0:0:0:0:
264,200,250339,1,8,0:0:0:0:
320,208,250417,1,0,0:0:0:0:
336,200,250495,1,0,0:0:0:0:
336,200,250573,1,0,0:0:0:0:
304,192,250652,1,8,0:0:0:0:
240,208,250808,1,0,0:0:0:0:
280,192,250964,1,8,0:0:0:0:
264,168,251042,1,0,0:0:0:0:
336,160,251120,1,0,0:0:0:0:
320,200,251277,1,8,0:0:0:0:
304,152,251355,1,8,0:0:0:0:
376,168,251433,1,0,0:0:0:0:
376,168,251511,1,0,0:0:0:0:
376,168,251589,1,8,0:0:0:0:
376,168,251745,1,0,0:0:0:0:
376,168,251823,1,0,0:0:0:0:
376,168,251902,1,8,0:0:0:0:
400,160,252058,1,0,0:0:0:0:
400,160,252214,1,8,0:0:0:0:
400,160,252292,1,8,0:0:0:0:
392,160,252370,1,8,0:0:0:0:
392,160,252527,1,0,0:0:0:0:
392,152,252683,1,8,0:0:0:0:
416,152,252761,1,0,0:0:0:0:
408,152,252839,1,0,0:0:0:0:
416,160,252995,1,8,0:0:0:0:
360,152,253152,1,0,0:0:0:0:
368,160,253230,1,0,0:0:0:0:
368,160,253308,1,0,0:0:0:0:
368,160,253386,1,0,0:0:0:0:
352,160,253464,1,8,0:0:0:0:
336,152,253620,1,0,0:0:0:0:
344,144,253777,1,8,0:0:0:0:
368,144,253855,1,8,0:0:0:0:
344,136,253933,1,8,0:0:0:0:
352,136,254089,1,0,0:0:0:0:
408,144,254167,1,0,0:0:0:0:
224,112,254245,1,8,0:0:0:0:
208,104,254323,1,8,0:0:0:0:
216,104,254402,1,0,0:0:0:0:
408,144,254558,1,8,0:0:0:0:
288,136,255027,1,0,0:0:0:0:
352,136,255183,1,0,0:0:0:0:
240,104,255339,1,8,0:0:0:0:
232,96,255495,1,0,0:0:0:0:
232,96,255652,1,8,0:0:0:0:
224,96,255808,1,0,0:0:0:0:
224,88,255964,1,8,0:0:0:0:
216,88,256120,1,8,0:0:0:0:
216,88,256277,1,0,0:0:0:0:
216,80,256433,1,8,0:0:0:0:
216,80,256589,1,8,0:0:0:0:
216,80,256745,1,8,0:0:0:0:
320,192,256902,1,0,0:0:0:0:
320,192,257058,1,0,0:0:0:0:
328,152,257214,1,8,0:0:0:0:
328,152,257370,1,0,0:0:0:0:
328,152,257527,1,8,0:0:0:0:
272,144,257683,1,0,0:0:0:0:
272,144,257839,1,8,0:0:0:0:
272,144,257995,1,8,0:0:0:0:
256,144,258152,1,0,0:0:0:0:
256,144,258308,1,8,0:0:0:0:
256,144,258464,1,8,0:0:0:0:
256,144,258620,1,8,0:0:0:0:
304,152,258777,1,0,0:0:0:0:
272,136,258933,1,8,0:0:0:0:
272,168,259089,1,8,0:0:0:0:
320,160,259245,1,0,0:0:0:0:
312,160,259402,1,8,0:0:0:0:
304,160,259558,1,0,0:0:0:0:
304,160,259714,1,8,0:0:0:0:
224,200,259870,1,8,0:0:0:0:
336,144,260027,1,0,0:0:0:0:
248,216,260183,1,0,0:0:0:0:
336,136,260339,1,8,0:0:0:0:
336,136,260495,1,8,0:0:0:0:
344,136,260652,1,0,0:0:0:0:
288,128,260808,1,8,0:0:0:0:
240,192,260964,1,8,0:0:0:0:
288,136,261120,1,0,0:0:0:0:
272,136,261277,1,8,0:0:0:0:
272,136,261433,1,0,0:0:0:0:
232,128,261589,1,8,0:0:0:0:
240,192,261745,1,8,0:0:0:0:
232,128,261902,1,0,0:0:0:0:
208,128,262058,1,0,0:0:0:0:
208,128,262214,1,8,0:0:0:0:
208,128,262370,1,8,0:0:0:0:
208,128,262527,1,0,0:0:0:0:
208,128,262683,1,8,0:0:0:0:
256,192,262839,1,0,0:0:0:0:
256,176,262995,1,0,0:0:0:0:
240,168,263152,1,8,0:0:0:0:
280,192,263308,1,0,0:0:0:0:
288,184,263464,1,8,0:0:0:0:
296,184,263620,1,8,0:0:0:0:
296,184,263777,1,0,0:0:0:0:
264,176,263933,1,8,0:0:0:0:
296,184,264089,1,8,0:0:0:0:
256,88,264245,1,0,0:0:0:0:
296,184,264402,1,0,0:0:0:0:
232,144,264558,1,8,0:0:0:0:
256,144,264714,1,0,0:0:0:0:
232,144,264870,1,0,0:0:0:0:
288,112,265027,1,8,0:0:0:0:
288,112,265183,1,0,0:0:0:0:
256,104,265339,1,8,0:0:0:0:
256,104,265495,1,8,0:0:0:0:
256,120,265652,1,0,0:0:0:0:
256,120,265808,1,8,0:0:0:0:
256,120,265964,1,8,0:0:0:0:
256,120,266120,1,0,0:0:0:0:
256,120,266277,1,0,0:0:0:0:
264,120,266433,1,8,0:0:0:0:
264,120,266589,1,8,0:0:0:0:
256,128,266745,1,0,0:0:0:0:
256,128,266902,1,8,0:0:0:0:
240,128,267058,1,8,0:0:0:0:
232,128,267214,1,0,0:0:0:0:
304,208,267370,1,8,0:0:0:0:
256,200,267527,1,8,0:0:0:0:
240,192,267683,1,0,0:0:0:0:
264,176,267839,1,8,0:0:0:0:
264,176,267995,1,8,0:0:0:0:
264,176,268152,1,0,0:0:0:0:
264,176,268308,1,8,0:0:0:0:
264,176,268464,1,8,0:0:0:0:
248,176,268620,1,0,0:0:0:0:
248,176,268777,1,8,0:0:0:0:
248,176,268933,1,8,0:0:0:0:
256,184,269089,1,0,0:0:0:0:
256,184,269245,1,8,0:0:0:0:
256,184,269402,1,8,0:0:0:0:
240,184,269558,1,0,0:0:0:0:
240,184,269714,1,8,0:0:0:0:
240,184,269870,1,8,0:0:0:0:
240,184,270027,1,0,0:0:0:0:
248,192,270339,1,8,0:0:0:0:
248,192,270495,1,0,0:0:0:0:
248,192,270652,1,8,0:0:0:0:
344,224,270964,1,0,0:0:0:0:
344,224,271120,1,0,0:0:0:0:
256,200,271277,1,8,0:0:0:0:
256,200,271433,1,0,0:0:0:0:
216,192,271589,1,8,0:0:0:0:
216,192,271902,1,0,0:0:0:0:
216,192,272058,1,0,0:0:0:0:
216,192,272214,1,8,0:0:0:0:
216,192,272370,1,8,0:0:0:0:
224,192,272527,1,0,0:0:0:0:
224,192,272683,1,0,0:0:0:0:
224,192,272839,1,8,0:0:0:0:
272,192,273152,1,0,0:0:0:0:
272,192,273308,1,8,0:0:0:0:
272,192,273464,1,8,0:0:0:0:
272,192,273620,1,8,0:0:0:0:
272,192,273777,1,0,0:0:0:0:
248,176,274089,1,8,0:0:0:0:
248,176,274245,1,0,0:0:0:0:
248,176,274402,1,8,0:0:0:0:
272,192,274714,1,0,0:0:0:0:
272,192,274870,1,0,0:0:0:0:
264,184,275027,1,8,0:0:0:0:
256,160,275183,1,0,0:0:0:0:
256,160,275339,1,8,0:0:0:0:
320,184,275652,1,0,0:0:0:0:
320,184,275808,1,0,0:0:0:0:
320,184,275964,1,8,0:0:0:0:
312,184,276120,1,8,0:0:0:0:
272,192,276277,1,0,0:0:0:0:
272,192,276433,1,0,0:0:0:0:
256,184,276589,1,8,0:0:0:0:
256,184,276902,1,0,0:0:0:0:
192,168,277058,1,8,0:0:0:0:
256,184,277214,1,8,0:0:0:0:
256,184,277370,1,8,0:0:0:0:
192,168,277527,1,0,0:0:0:0:
240,176,277839,1,8,0:0:0:0:
240,176,277995,1,0,0:0:0:0:
176,160,278152,1,8,0:0:0:0:
192,160,278308,1,8,0:0:0:0:
192,160,278464,1,0,0:0:0:0:
176,160,278620,1,0,0:0:0:0:
176,160,278777,1,8,0:0:0:0:
192,176,278933,1,0,0:0:0:0:
192,176,279089,1,8,0:0:0:0:
192,176,279402,1,0,0:0:0:0:
264,224,279558,1,0,0:0:0:0:
272,232,279714,1,8,0:0:0:0:
272,232,279870,1,8,0:0:0:0:
232,224,280027,1,0,0:0:0:0:
272,232,280183,1,0,0:0:0:0:
232,224,280339,1,8,0:0:0:0:
232,168,280652,1,0,0:0:0:0:
272,168,280808,1,8,0:0:0:0:
272,168,280964,1,8,0:0:0:0:
272,168,281120,1,8,0:0:0:0:
272,168,281277,1,0,0:0:0:0:
296,168,281589,1,8,0:0:0:0:
296,176,281745,1,0,0:0:0:0:
296,176,281902,1,8,0:0:0:0:
304,168,282214,1,0,0:0:0:0:
312,168,282370,1,0,0:0:0:0:
312,168,282527,1,8,0:0:0:0:
264,168,282683,1,0,0:0:0:0:
264,168,282839,1,8,0:0:0:0:
320,176,283152,1,0,0:0:0:0:
320,176,283464,1,8,0:0:0:0:
320,176,283620,1,0,0:0:0:0:
296,176,283777,1,8,0:0:0:0:
296,176,284089,1,0,0:0:0:0:
320,176,284245,1,0,0:0:0:0:
264,128,284402,1,0,0:0:0:0:
320,160,284558,1,8,0:0:0:0:
256,128,284714,1,8,0:0:0:0:
272,144,284870,1,8,0:0:0:0:
280,144,285027,1,0,0:0:0:0:
256,192,285261,12,0,288542,0:0:0:0:
336,176,288777,5,0,0:0:0:0:
256,192,289011,12,0,292292,0:0:0:0:
344,216,292527,5,8,0:0:0:0:
256,192,292761,12,0,296042,0:0:0:0:
360,240,296277,5,0,0:0:0:0:
256,192,296511,12,0,300027,0:0:0:0:
