osu file format v14

[General]
AudioFilename: audio.mp3
AudioLeadIn: 0
PreviewTime: 91843
Countdown: 0
SampleSet: None
StackLeniency: 0.4
Mode: 0
LetterboxInBreaks: 0
WidescreenStoryboard: 0

[Editor]
Bookmarks: 8365,29234,31843,42278,50104,52712,68365,73582,91843,93799,93962,94125,94288,94452,99017,99587,119886,120538,125430,130647,138799,141408,159669,162278,183147,203365,203528,203691,203854,204017,208582,209234,224234,224886,229452,230104,234995,240212,245104,245756,250321,250973,254886,256191,261082,269234,271843
DistanceSpacing: 0.4
BeatDivisor: 4
GridSize: 8
TimelineZoom: 2.599999

[Metadata]
Title:Flicker
TitleUnicode:Flicker
Artist:Porter Robinson
ArtistUnicode:Porter Robinson
Creator:TheShadowOfDark
Version:hs
Source:
Tags:
BeatmapID:2191983
BeatmapSetID:1039673

[Difficulty]
HPDrainRate:5
CircleSize:4
OverallDifficulty:8
ApproachRate:9
SliderMultiplier:2
SliderTickRate:1

[Events]
//Background and Video events
0,0,"bgxD.jpg",0,0
//Break Periods
2,52912,67765
2,189343,192930
//Storyboard Layer 0 (Background)
//Storyboard Layer 1 (Fail)
//Storyboard Layer 2 (Pass)
//Storyboard Layer 3 (Foreground)
//Storyboard Layer 4 (Overlay)
//Storyboard Sound Samples

[TimingPoints]
539,652.173913043478,4,2,1,100,1,0
539,-100,4,2,1,40,0,0
8365,-83.3333333333333,4,2,1,70,0,0
10973,-71.4285714285714,4,2,1,70,0,0
20756,-125,4,2,1,70,0,0
21408,-71.4285714285714,4,2,1,70,0,0
31843,-62.5,4,2,1,70,0,0
47495,-111.111111111111,4,2,1,60,0,0
50104,-71.4285714285714,4,2,1,70,0,0
68365,-100,4,2,1,60,0,0
68854,-100,4,2,1,60,0,0
69017,-100,4,2,1,5,0,0
69180,-100,4,2,1,60,0,0
69343,-100,4,2,1,5,0,0
69506,-100,4,2,1,60,0,0
70158,-100,4,2,1,60,0,0
70321,-100,4,2,1,5,0,0
70484,-100,4,2,1,60,0,0
70647,-100,4,2,1,5,0,0
70810,-100,4,2,1,60,0,0
70973,-100,4,2,1,5,0,0
71136,-100,4,2,1,50,0,0
73582,-142.857142857143,4,2,1,40,0,0
93799,-100,4,2,1,70,0,0
94370,-100,4,2,1,5,0,0
94452,-50,4,2,1,80,0,1
99017,-250,4,2,1,80,0,0
99587,-250,4,2,1,5,0,0
99669,-50,4,2,1,80,0,1
110104,-58.8235294117647,4,2,1,80,0,1
114669,-58.8235294117647,4,2,1,80,0,0
115321,-50,4,2,1,80,0,1
119886,-250,4,2,1,80,0,0
120457,-250,4,2,1,5,0,0
120538,-50,4,2,1,80,0,1
130973,-58.8235294117647,4,2,1,80,0,1
140756,-58.8235294117647,4,2,1,80,0,1
141408,-83.3333333333333,4,2,1,70,0,0
151191,-125,4,2,1,70,0,0
151843,-83.3333333333333,4,2,1,70,0,0
161625,-250,4,2,1,60,0,0
162196,-250,4,2,1,5,0,0
162278,-66.6666666666667,4,2,1,70,0,0
162767,-66.6666666666667,4,2,1,5,0,0
162930,-66.6666666666667,4,2,1,70,0,0
163419,-66.6666666666667,4,2,1,5,0,0
163582,-66.6666666666667,4,2,1,70,0,0
163745,-66.6666666666667,4,2,1,5,0,0
163908,-66.6666666666667,4,2,1,70,0,0
164071,-66.6666666666667,4,2,1,5,0,0
164234,-66.6666666666667,4,2,1,70,0,0
164723,-66.6666666666667,4,2,1,5,0,0
164886,-66.6666666666667,4,2,1,70,0,0
165375,-66.6666666666667,4,2,1,5,0,0
165538,-66.6666666666667,4,2,1,70,0,0
166028,-66.6666666666667,4,2,1,5,0,0
166191,-66.6666666666667,4,2,1,70,0,0
166680,-66.6666666666667,4,2,1,5,0,0
166843,-66.6666666666667,4,2,1,70,0,0
167821,-66.6666666666667,4,2,1,5,0,0
167984,-66.6666666666667,4,2,1,70,0,0
168066,-66.6666666666667,4,2,1,5,0,0
168147,-66.6666666666667,4,2,1,70,0,0
168229,-66.6666666666667,4,2,1,5,0,0
168310,-66.6666666666667,4,2,1,70,0,0
168636,-66.6666666666667,4,2,1,5,0,0
168799,-66.6666666666667,4,2,1,70,0,0
169288,-66.6666666666667,4,2,1,5,0,0
169452,-66.6666666666667,4,2,1,70,0,0
169941,-66.6666666666667,4,2,1,5,0,0
170104,-66.6666666666667,4,2,1,70,0,0
170593,-66.6666666666667,4,2,1,5,0,0
170756,-66.6666666666667,4,2,1,70,0,0
172957,-66.6666666666667,4,2,1,5,0,0
173038,-66.6666666666667,4,2,1,70,0,0
173609,-66.6666666666667,4,2,1,5,0,0
173691,-66.6666666666667,4,2,1,70,0,0
174261,-66.6666666666667,4,2,1,5,0,0
174343,-66.6666666666667,4,2,1,70,0,0
175240,-66.6666666666667,4,2,1,5,0,0
175321,-66.6666666666667,4,2,1,70,0,0
175566,-66.6666666666667,4,2,1,5,0,0
175647,-66.6666666666667,4,2,1,70,0,0
176218,-66.6666666666667,4,2,1,5,0,0
176299,-66.6666666666667,4,2,1,70,0,0
176870,-66.6666666666667,4,2,1,5,0,0
176952,-66.6666666666667,4,2,1,70,0,0
178174,-66.6666666666667,4,2,1,5,0,0
178256,-66.6666666666667,4,2,1,70,0,0
178827,-66.6666666666667,4,2,1,5,0,0
178908,-66.6666666666667,4,2,1,70,0,0
179479,-66.6666666666667,4,2,1,5,0,0
179560,-66.6666666666667,4,2,1,70,0,0
183147,-500,4,2,1,50,0,0
183229,-500,4,2,1,5,0,0
188365,-500,4,2,1,20,0,0
193582,-100,4,2,1,50,0,0
203365,-100,4,2,1,70,0,0
203935,-100,4,2,1,5,0,0
204017,-50,4,2,1,80,0,1
208582,-250,4,2,1,80,0,0
209153,-250,4,2,1,5,0,0
209234,-50,4,2,1,80,0,1
219669,-58.8235294117647,4,2,1,80,0,1
224234,-58.8235294117647,4,2,1,80,0,0
224886,-50,4,2,1,80,0,1
229452,-250,4,2,1,80,0,0
230022,-250,4,2,1,5,0,0
230104,-50,4,2,1,80,0,1
240538,-58.8235294117647,4,2,1,80,0,1
245104,-35.7142857142857,4,2,1,80,0,1
245756,-50,4,2,1,80,0,1
250321,-250,4,2,1,80,0,0
250892,-250,4,2,1,5,0,0
250973,-50,4,2,1,80,0,1
255538,-90.9090909090909,4,2,1,80,0,0
255702,-90.9090909090909,4,2,1,5,0,0
255865,-90.9090909090909,4,2,1,80,0,0
256028,-90.9090909090909,4,2,1,5,0,0
256191,-50,4,2,1,80,0,1
261408,-58.8235294117647,4,2,1,80,0,1
269234,-100,4,2,1,60,0,0
271843,-100,4,2,1,40,0,0

[Colours]
Combo1 : 0,107,215
Combo2 : 212,212,212
Combo3 : 255,255,0
Combo4 : 0,236,230
Combo5 : 0,187,94
Combo6 : 255,81,255
Combo7 : 244,38,95

[HitObjects]
28,89,539,5,2,0:0:0:0:
22,100,865,2,0,L|27:199,1,100,2|0,0:0|0:0,0:0:0:0:
114,264,1517,2,0,L|103:64,1,200,2|2,0:0|0:0,0:0:0:0:
103,64,2495,1,2,0:0:0:0:
194,103,2658,1,0,0:0:0:0:
286,61,2821,2,0,L|287:117,1,50,2|0,0:0|0:0,0:0:0:0:
197,217,3147,5,2,0:0:0:0:
191,202,3473,2,0,L|193:102,1,100,2|0,0:0|0:0,0:0:0:0:
280,260,4125,2,0,L|285:47,1,200,2|2,0:0|0:0,0:0:0:0:
285,60,5104,1,2,0:0:0:0:
239,172,5267,1,0,0:0:0:0:
372,149,5430,2,0,L|373:87,1,50,2|0,0:0|0:0,0:0:0:0:
488,14,5756,5,2,0:0:0:0:
496,31,6082,2,0,L|499:148,1,100,2|0,0:0|0:0,0:0:0:0:
372,149,6734,2,0,L|362:359,1,200,2|2,0:0|0:0,0:0:0:0:
362,348,7712,1,2,0:0:0:0:
288,271,7875,1,0,0:0:0:0:
204,324,8038,2,0,L|212:418,1,50,2|0,0:0|0:0,0:0:0:0:
288,271,8365,5,2,3:2:0:0:
97,231,8528,1,2,3:2:0:0:
285,159,8691,1,2,3:2:0:0:
204,324,8854,1,2,3:2:0:0:
147,124,9017,1,8,0:3:0:0:
19,304,9180,2,0,B|14:176,1,119.999996337891,2|8,3:2|0:3,0:0:0:0:
121,26,9669,5,10,3:0:0:0:
2,48,9832,1,2,3:2:0:0:
147,124,9995,1,2,3:2:0:0:
266,102,10158,1,2,3:2:0:0:
121,26,10321,5,10,3:2:0:0:
97,231,10484,1,10,3:2:0:0:
303,254,10647,1,10,3:2:0:0:
326,49,10810,1,10,3:2:0:0:
147,124,10973,6,0,L|156:307,2,139.999995727539,6|2|8,3:2|3:2|0:0,0:0:0:0:
305,375,11952,1,2,0:0:0:0:
321,215,12115,2,0,L|314:379,1,139.999995727539,0|0,3:2|3:2,0:0:0:0:
235,316,12604,2,0,L|241:166,1,139.999995727539,2|10,3:2|0:0,0:0:0:0:
403,170,13093,1,0,0:0:0:0:
323,121,13256,1,2,0:0:0:0:
405,76,13419,1,0,0:0:0:0:
240,176,13582,6,0,L|233:22,2,139.999995727539,2|2|8,3:2|3:2|0:0,0:0:0:0:
484,255,14560,1,2,0:0:0:0:
403,170,14723,2,0,L|396:334,1,139.999995727539,0|0,3:2|3:2,0:0:0:0:
316,384,15212,2,0,L|309:234,1,139.999995727539,2|10,3:2|0:0,0:0:0:0:
241,166,15702,1,0,0:0:0:0:
166,226,15865,1,2,0:0:0:0:
101,158,16028,1,0,0:0:0:0:
11,222,16191,6,0,L|16:372,2,139.999995727539,2|2|8,0:0|3:2|0:0,0:0:0:0:
171,63,17169,1,2,0:0:0:0:
166,226,17332,2,0,L|160:75,1,139.999995727539,0|0,3:2|3:2,0:0:0:0:
246,26,17821,2,0,L|240:165,1,139.999995727539,2|10,3:2|0:0,0:0:0:0:
304,237,18310,1,0,0:0:0:0:
376,175,18473,1,2,0:0:0:0:
461,217,18636,1,0,0:0:0:0:
304,237,18799,6,0,L|303:319,1,69.9999978637696,2|0,3:2|0:0,0:0:0:0:
200,258,19125,1,8,0:1:0:0:
239,165,19289,1,8,0:1:0:0:
291,245,19452,2,0,L|290:327,1,69.9999978637696,8|0,0:0|0:0,0:0:0:0:
187,266,19778,1,8,0:1:0:0:
228,171,19941,2,0,L|226:42,2,69.9999978637696,8|0|0,0:1|3:2|0:0,0:0:0:0:
187,266,20430,1,8,0:1:0:0:
101,217,20593,1,8,0:1:0:0:
21,296,20756,6,0,L|13:162,1,120,2|0,0:0|0:0,0:0:0:0:
101,217,21408,6,0,L|96:367,2,139.999995727539,2|0|8,0:0|3:2|0:0,0:0:0:0:
382,304,22386,1,2,0:0:0:0:
295,384,22549,2,0,L|290:244,1,139.999995727539,0|0,3:2|3:2,0:0:0:0:
336,154,23038,2,0,L|340:14,1,139.999995727539,2|10,3:2|0:0,0:0:0:0:
194,157,23528,1,0,0:0:0:0:
252,93,23691,2,0,L|254:23,1,69.9999978637696,2|0,0:0|0:0,0:0:0:0:
7,36,24017,6,0,L|14:194,2,139.999995727539,2|2|8,0:0|3:2|0:0,0:0:0:0:
202,168,24995,1,2,0:0:0:0:
198,17,25158,2,0,L|193:156,1,139.999995727539,0|0,3:2|3:2,0:0:0:0:
326,199,25647,2,0,L|328:129,1,69.9999978637696,2|0,3:2|0:0,0:0:0:0:
186,256,25973,2,0,L|183:186,1,69.9999978637696,10|0,0:0|0:0,0:0:0:0:
341,292,26299,2,0,L|343:222,1,69.9999978637696,2|0,0:0|0:0,0:0:0:0:
452,63,26625,6,0,L|457:240,2,139.999995727539,2|2|8,0:0|3:2|0:0,0:0:0:0:
257,248,27604,1,2,0:0:0:0:
341,292,27767,2,0,L|337:152,1,139.999995727539,0|0,3:2|3:2,0:0:0:0:
253,108,28256,2,0,L|256:247,1,139.999995727539,2|10,3:2|0:0,0:0:0:0:
262,358,28745,1,0,0:0:0:0:
170,228,28908,2,0,L|172:320,1,69.9999978637696,2|0,0:0|0:0,0:0:0:0:
340,214,29234,5,2,3:2:0:0:
262,358,29397,1,2,3:2:0:0:
157,145,29560,1,2,3:2:0:0:
256,247,29723,1,2,3:2:0:0:
339,85,29886,1,8,0:3:0:0:
143,153,30049,2,0,L|147:319,1,139.999995727539,2|8,3:2|0:3,0:0:0:0:
262,358,30538,5,10,3:0:0:0:
420,233,30702,1,2,3:2:0:0:
256,247,30865,1,2,3:2:0:0:
446,350,31028,1,2,3:2:0:0:
434,125,31191,5,10,3:2:0:0:
434,125,31272,1,10,3:2:0:0:
434,125,31354,1,10,3:2:0:0:
341,292,31517,1,10,3:2:0:0:
262,57,31680,1,10,3:2:0:0:
447,270,31843,6,0,L|445:350,1,80,2|0,3:2|0:0,0:0:0:0:
256,247,32169,2,0,L|254:167,1,80,2|0,0:0|0:0,0:0:0:0:
435,45,32495,2,0,L|433:125,1,80,10|0,0:0|0:0,0:0:0:0:
323,100,32821,1,2,0:0:0:0:
511,29,32984,2,0,L|509:109,1,80,2|0,0:0|0:0,0:0:0:0:
447,270,33310,5,2,0:0:0:0:
401,158,33473,1,2,0:0:0:0:
346,311,33636,1,0,3:2:0:0:
320,192,33799,1,10,0:0:0:0:
239,334,33962,1,0,0:0:0:0:
234,212,34125,1,2,0:0:0:0:
135,342,34288,1,2,0:0:0:0:
231,132,34452,6,0,L|234:240,1,80,2|0,0:0|0:0,0:0:0:0:
47,74,34778,2,0,L|44:153,1,80,2|0,0:0|0:0,0:0:0:0:
248,21,35104,2,0,L|251:129,1,80,10|0,0:0|0:0,0:0:0:0:
104,240,35430,1,2,0:0:0:0:
158,76,35593,1,2,0:0:0:0:
320,192,35756,5,2,0:0:0:0:
335,190,35837,1,0,0:0:0:0:
350,188,35918,1,2,0:0:0:0:
365,187,36000,1,0,0:0:0:0:
380,186,36082,1,2,0:0:0:0:
500,174,36245,1,2,3:2:0:0:
369,106,36408,1,10,0:0:0:0:
489,94,36571,1,0,0:0:0:0:
358,26,36734,1,2,0:0:0:0:
478,14,36897,1,2,0:0:0:0:
369,106,37060,6,0,L|359:27,1,80,2|0,0:0|0:0,0:0:0:0:
500,174,37386,2,0,L|490:253,1,80,2|0,3:2|0:0,0:0:0:0:
343,384,37712,2,0,L|333:305,1,80,10|0,0:0|0:0,0:0:0:0:
320,192,38038,1,2,0:0:0:0:
192,348,38202,1,2,3:2:0:0:
163,123,38365,5,2,0:0:0:0:
228,269,38528,1,0,3:2:0:0:
164,114,38691,1,2,3:2:0:0:
118,276,38854,1,0,0:0:0:0:
165,105,39017,1,10,0:0:0:0:
30,212,39180,1,0,0:0:0:0:
166,96,39343,1,2,0:0:0:0:
4,106,39506,1,2,0:0:0:0:
167,87,39669,6,0,B|168:172|168:172|144:229,2,106.666666666667,2|0|2,3:2|0:0|0:0,0:0:0:0:
245,233,40321,2,0,B|244:148|244:148|257:115,2,106.666666666667,10|0|2,0:0|0:0|0:0,0:0:0:0:
339,162,40973,2,0,B|339:82,1,80,2|0,3:2|0:0,0:0:0:0:
154,204,41299,2,0,B|154:283,1,80,2|0,0:0|0:0,0:0:0:0:
349,170,41625,2,0,B|349:90,1,80,10|0,0:0|0:0,0:0:0:0:
164,212,41952,2,0,B|164:291,1,80,2|0,0:0|0:0,0:0:0:0:
334,315,42278,6,0,B|334:143,1,160,2|10,0:0|0:1,0:0:0:0:
334,155,42685,1,8,0:1:0:0:
334,155,42767,1,8,0:1:0:0:
334,155,42848,1,8,0:1:0:0:
334,155,42930,1,8,0:0:0:0:
164,212,43256,1,2,0:0:0:0:
83,175,43419,1,0,0:0:0:0:
11,227,43582,2,0,L|5:147,2,80,0|0|0,0:0|0:0|0:0,0:0:0:0:
20,314,44071,1,0,3:2:0:0:
92,263,44234,1,10,0:0:0:0:
172,299,44397,1,0,3:2:0:0:
244,248,44560,2,0,L|250:168,1,80,2|0,0:0|0:0,0:0:0:0:
312,347,44886,6,0,L|326:159,2,160,10|2|8,0:1|0:0|0:0,0:0:0:0:
84,251,45865,1,2,0:0:0:0:
14,310,46028,1,0,0:0:0:0:
164,302,46191,2,0,B|168:234|168:234|151:199,2,106.666666666667,2|0|2,0:0|0:0|0:0,0:0:0:0:
70,147,46843,2,0,B|67:216|67:216|83:250,2,106.666666666667,10|0|2,0:0|0:0|0:0,0:0:0:0:
144,10,47495,5,10,0:1:0:0:
160,20,47821,2,0,B|150:205,1,179.999994506836,2|2,0:0|0:0,0:0:0:0:
241,306,48799,2,0,B|236:216,1,89.9999972534181,2|0,0:0|0:0,0:0:0:0:
71,140,49452,2,0,B|66:236,1,89.9999972534181,2|0,0:0|0:0,0:0:0:0:
347,208,50104,5,2,3:2:0:0:
151,199,50267,1,2,3:2:0:0:
241,306,50430,1,2,3:2:0:0:
279,103,50593,1,2,3:2:0:0:
392,297,50756,1,8,0:3:0:0:
446,75,50919,2,0,L|443:232,1,139.999995727539,2|8,3:2|0:3,0:0:0:0:
284,13,51408,5,10,3:0:0:0:
347,208,51571,1,2,3:2:0:0:
159,93,51734,1,2,3:2:0:0:
367,71,51897,1,2,3:2:0:0:
160,237,52060,5,2,3:2:0:0:
279,103,52223,1,2,3:2:0:0:
308,302,52386,1,2,3:2:0:0:
159,93,52549,1,2,3:2:0:0:
436,155,52712,5,10,0:1:0:0:
85,228,68365,5,2,0:0:0:0:
47,326,68528,1,2,0:0:0:0:
146,364,68691,1,2,0:0:0:0:
183,265,68854,2,0,L|180:195,1,50,2|0,0:0|0:0,0:0:0:0:
194,286,69180,2,0,L|191:216,1,50,2|0,0:0|0:0,0:0:0:0:
398,214,69506,5,2,0:0:0:0:
459,299,69669,1,2,0:0:0:0:
398,384,69832,1,2,0:0:0:0:
298,351,69995,1,2,0:0:0:0:
298,246,70158,2,0,L|304:178,1,50,2|0,0:0|0:0,0:0:0:0:
311,265,70484,2,0,L|317:197,1,50,2|0,0:0|0:0,0:0:0:0:
324,284,70810,2,0,L|330:216,1,50,2|0,0:0|0:0,0:0:0:0:
256,192,71136,12,0,72278,1:0:0:0:
8,69,72930,5,2,0:0:0:0:
8,69,73582,6,0,L|20:223,1,139.999995727539,2|0,3:2|3:2,0:0:0:0:
32,354,74560,1,2,0:0:0:0:
144,300,74886,2,0,L|137:384,1,69.9999978637696,0|0,3:2|0:0,0:0:0:0:
18,208,75538,2,0,L|24:292,1,69.9999978637696,0|0,3:2|0:0,0:0:0:0:
144,300,76191,6,0,L|154:160,1,139.999995727539,0|2,3:2|3:2,0:0:0:0:
169,84,77006,1,2,0:0:0:0:
230,37,77169,1,2,0:0:0:0:
306,41,77332,2,0,L|314:159,1,104.999996795654,2|2,0:0|0:0,0:0:0:0:
220,212,78147,1,2,3:2:0:0:
408,120,78473,1,2,0:0:0:0:
377,357,78799,6,0,L|379:207,1,139.999995727539,2|0,3:2|3:2,0:0:0:0:
408,120,79778,1,2,0:0:0:0:
310,110,80104,2,0,L|306:41,1,69.9999978637696,0|0,3:2|0:0,0:0:0:0:
224,142,80756,2,0,L|219:211,1,69.9999978637696,0|0,3:2|0:0,0:0:0:0:
133,86,81408,6,0,L|122:235,1,139.999995727539,0|2,3:2|0:0,0:0:0:0:
113,302,82223,1,2,0:0:0:0:
157,364,82386,1,2,0:0:0:0:
233,368,82549,2,0,L|228:253,1,104.999996795654,2|2,0:0|0:0,0:0:0:0:
133,86,83365,1,2,3:2:0:0:
113,302,83691,1,2,0:0:0:0:
304,237,84017,6,0,L|294:88,1,139.999995727539,2|0,3:2|3:2,0:0:0:0:
384,191,84995,1,2,0:0:0:0:
228,263,85321,2,0,L|223:188,1,69.9999978637696,0|0,3:2|0:0,0:0:0:0:
294,97,85973,2,0,L|299:22,1,69.9999978637696,0|0,3:2|0:0,0:0:0:0:
435,122,86625,6,0,L|425:261,1,139.999995727539,0|2,3:2|0:0,0:0:0:0:
417,338,87441,1,2,0:0:0:0:
345,366,87604,1,2,0:0:0:0:
268,356,87767,2,0,L|261:251,1,104.999996795654,2|2,0:0|0:0,0:0:0:0:
252,93,88582,1,2,3:2:0:0:
435,122,88908,1,2,0:0:0:0:
261,251,89234,5,10,3:1:0:0:
256,192,89397,12,0,91843,3:2:0:0:
58,143,93799,6,0,B|62:27|62:27|109:74,1,175,8|0,0:0|0:0,0:0:0:0:
119,232,94452,6,0,L|19:232,1,100,6|0,3:2|0:0,0:0:0:0:
195,73,94778,2,0,L|294:70,1,100,2|0,0:0|0:0,0:0:0:0:
406,253,95104,1,10,0:0:0:0:
235,180,95267,1,0,0:0:0:0:
411,62,95430,1,2,0:0:0:0:
310,299,95593,1,0,0:0:0:0:
413,174,95756,6,0,L|512:171,1,100,2|0,3:2|0:0,0:0:0:0:
294,70,96082,1,2,0:0:0:0:
211,270,96245,2,0,L|112:267,1,100,0|10,0:0|0:0,0:0:0:0:
197,64,96571,1,0,0:0:0:0:
38,192,96734,1,2,0:0:0:0:
235,180,96897,1,0,0:0:0:0:
91,63,97060,5,2,3:2:0:0:
211,270,97223,1,0,0:0:0:0:
294,70,97386,1,2,0:0:0:0:
133,185,97549,1,0,0:0:0:0:
336,268,97712,1,10,0:0:0:0:
235,180,97875,1,0,0:0:0:0:
297,384,98038,1,2,0:0:0:0:
413,157,98202,1,0,0:0:0:0:
413,157,99017,6,0,L|342:156,1,70,4|0,3:1|0:0,0:0:0:0:
235,180,99669,6,0,L|132:178,1,100,6|0,3:2|0:0,0:0:0:0:
233,46,99995,1,2,0:0:0:0:
310,254,100158,1,0,0:0:0:0:
402,73,100321,1,10,0:0:0:0:
512,242,100484,2,0,L|409:240,1,100,0|2,0:0|0:0,0:0:0:0:
235,180,100810,1,0,0:0:0:0:
396,357,100973,6,0,L|514:355,1,100,2|0,3:2|0:0,0:0:0:0:
309,253,101299,1,2,0:0:0:0:
239,382,101462,2,0,L|121:380,1,100,0|10,0:0|0:0,0:0:0:0:
69,184,101788,1,0,0:0:0:0:
9,339,101952,1,2,0:0:0:0:
192,204,102115,1,0,0:0:0:0:
99,78,102278,6,0,L|-19:80,1,100,2|0,3:2|0:0,0:0:0:0:
111,296,102604,2,0,L|229:287,1,100,2|0,0:0|0:0,0:0:0:0:
336,127,102930,1,10,0:0:0:0:
192,204,103093,1,0,0:0:0:0:
408,227,103256,1,2,0:0:0:0:
220,67,103419,1,0,0:0:0:0:
384,42,103582,6,0,L|485:37,1,100,2|0,3:2|0:0,0:0:0:0:
408,227,103908,2,0,L|306:223,1,100,2|0,0:0|0:0,0:0:0:0:
220,67,104234,1,10,0:0:0:0:
192,204,104397,1,0,0:0:0:0:
55,176,104560,1,2,0:0:0:0:
83,39,104723,1,0,0:0:0:0:
111,296,104886,6,0,L|6:291,1,100,2|0,3:2|0:0,0:0:0:0:
192,204,105212,1,2,0:0:0:0:
194,370,105375,1,0,0:0:0:0:
337,286,105538,2,0,L|454:283,1,100,10|0,0:0|0:0,0:0:0:0:
292,200,105865,1,2,0:0:0:0:
402,383,106028,1,0,0:0:0:0:
491,185,106191,6,0,L|386:180,1,100,2|0,3:2|0:0,0:0:0:0:
337,286,106517,1,2,0:0:0:0:
326,97,106680,2,0,L|431:92,1,100,0|10,0:0|0:0,0:0:0:0:
292,200,107006,1,0,0:0:0:0:
197,49,107169,1,2,0:0:0:0:
168,257,107332,1,0,0:0:0:0:
326,97,107495,5,2,3:2:0:0:
337,286,107658,1,0,0:0:0:0:
153,142,107821,2,0,L|46:139,1,100,2|0,0:0|0:0,0:0:0:0:
168,257,108147,1,10,0:0:0:0:
197,49,108310,2,0,L|90:46,1,100,0|2,0:0|0:0,0:0:0:0:
153,142,108636,1,0,0:0:0:0:
326,97,108798,6,0,L|431:92,1,100,2|0,3:2|0:0,0:0:0:0:
413,213,109125,2,0,L|518:208,1,100,2|0,0:0|0:0,0:0:0:0:
442,362,109452,1,10,0:0:0:0:
337,286,109615,1,0,0:0:0:0:
250,381,109778,1,2,0:0:0:0:
337,286,109941,1,0,0:0:0:0:
168,257,110104,6,0,L|61:254,1,85.0000016212464,2|0,3:2|0:0,0:0:0:0:
153,142,110430,1,2,0:0:0:0:
153,142,110593,2,0,L|237:139,1,85.0000016212464,0|10,0:0|0:0,0:0:0:0:
373,189,110919,1,0,0:0:0:0:
275,50,111082,2,0,L|105:54,1,170.000003242493,2|2,0:0|3:2,0:0:0:0:
16,195,111571,5,0,0:0:0:0:
153,142,111734,1,2,0:0:0:0:
54,305,111897,1,0,0:0:0:0:
212,245,112060,1,10,0:0:0:0:
16,195,112223,1,0,0:0:0:0:
172,359,112386,2,0,L|277:356,1,85.0000016212464,2|0,0:0|0:0,0:0:0:0:
373,189,112712,6,0,L|288:191,1,85.0000016212464,2|0,3:2|0:0,0:0:0:0:
391,281,113038,1,2,0:0:0:0:
391,281,113202,2,0,L|475:283,1,85.0000016212464,0|10,0:0|0:0,0:0:0:0:
484,107,113528,1,0,0:0:0:0:
359,179,113691,2,0,L|173:184,1,170.000003242493,2|2,0:0|3:2,0:0:0:0:
16,195,114180,5,0,0:0:0:0:
115,122,114343,1,2,0:0:0:0:
4,73,114506,1,0,0:0:0:0:
43,332,114669,5,10,3:2:0:0:
43,332,114750,1,10,3:2:0:0:
43,332,114832,1,10,3:2:0:0:
121,290,114995,1,10,3:2:0:0:
118,378,115158,1,10,3:2:0:0:
214,128,115321,6,0,L|107:121,1,100,6|0,3:2|0:0,0:0:0:0:
249,28,115647,1,2,0:0:0:0:
306,198,115810,1,0,0:0:0:0:
385,93,115973,2,0,L|505:90,1,100,10|0,0:0|0:0,0:0:0:0:
511,196,116299,1,2,0:0:0:0:
360,23,116462,2,0,L|480:20,1,100,0|2,0:0|3:2,0:0:0:0:
402,244,116788,5,0,0:0:0:0:
284,124,116952,1,2,0:0:0:0:
258,330,117115,1,0,0:0:0:0:
173,238,117278,2,0,L|63:234,1,100,10|0,0:0|0:0,0:0:0:0:
29,322,117604,1,2,0:0:0:0:
190,164,117767,2,0,L|80:160,1,100,0|2,0:0|3:2,0:0:0:0:
168,366,118093,5,0,0:0:0:0:
251,219,118256,1,2,0:0:0:0:
344,366,118419,1,0,0:0:0:0:
402,244,118582,2,0,L|506:242,1,100,10|0,0:0|0:0,0:0:0:0:
309,97,118908,1,2,0:0:0:0:
251,219,119071,1,0,0:0:0:0:
493,58,119234,6,0,L|389:56,1,100,2|0,3:2|0:0,0:0:0:0:
125,136,119560,2,0,L|229:134,1,100,2|0,0:0|0:0,0:0:0:0:
471,242,119886,6,0,L|402:244,1,70,2|0,3:2|0:0,0:0:0:0:
307,286,120538,5,6,3:2:0:0:
449,348,120702,1,0,0:0:0:0:
441,159,120865,2,0,L|324:161,1,100,2|0,0:0|0:0,0:0:0:0:
164,257,121191,1,10,0:0:0:0:
125,136,121354,2,0,L|229:134,1,100,0|2,0:0|0:0,0:0:0:0:
402,244,121680,1,0,0:0:0:0:
467,82,121843,6,0,L|350:84,1,100,2|0,3:2|0:0,0:0:0:0:
224,134,122169,1,2,0:0:0:0:
152,23,122332,2,0,L|256:21,1,100,0|10,0:0|0:0,0:0:0:0:
441,159,122658,1,0,0:0:0:0:
224,134,122821,2,0,L|125:136,1,100,2|0,0:0|0:0,0:0:0:0:
8,262,123147,5,2,3:2:0:0:
47,72,123310,1,0,0:0:0:0:
194,225,123473,2,0,L|94:226,1,100,2|0,0:0|0:0,0:0:0:0:
224,134,123799,1,10,0:0:0:0:
340,270,123962,2,0,L|439:271,1,100,0|2,0:0|0:0,0:0:0:0:
355,170,124288,1,0,0:0:0:0:
164,316,124452,6,0,L|64:317,1,100,2|0,3:2|0:0,0:0:0:0:
194,225,124778,1,2,0:0:0:0:
325,370,124941,2,0,L|424:371,1,100,0|10,0:0|0:0,0:0:0:0:
424,371,125430,1,2,0:0:0:0:
424,371,125756,5,6,3:2:0:0:
340,270,125919,1,0,0:0:0:0:
454,171,126082,2,0,L|354:169,1,100,2|0,0:0|0:0,0:0:0:0:
171,167,126408,1,10,0:0:0:0:
240,275,126571,2,0,L|346:269,1,100,0|2,0:0|0:0,0:0:0:0:
280,87,126897,1,0,0:0:0:0:
171,167,127060,6,0,L|64:169,1,100,2|0,3:2|0:0,0:0:0:0:
145,272,127386,1,2,0:0:0:0:
114,83,127549,2,0,L|7:85,1,100,0|10,0:0|0:0,0:0:0:0:
28,281,127875,1,0,0:0:0:0:
262,192,128038,1,2,0:0:0:0:
71,168,128202,1,0,0:0:0:0:
145,365,128365,6,0,L|255:362,1,100,2|0,3:2|0:0,0:0:0:0:
361,194,128691,2,0,L|251:191,1,100,2|0,0:0|0:0,0:0:0:0:
404,304,129017,1,10,0:0:0:0:
343,96,129180,1,0,0:0:0:0:
245,273,129343,1,2,0:0:0:0:
437,130,129506,1,0,0:0:0:0:
235,45,129669,5,2,3:2:0:0:
361,194,129832,1,0,0:0:0:0:
416,2,129995,1,2,0:0:0:0:
200,151,130158,1,0,0:0:0:0:
455,228,130321,1,10,0:0:0:0:
455,228,130647,1,2,0:0:0:0:
455,228,130973,6,0,L|371:225,1,85.0000016212464,4|0,3:2|0:0,0:0:0:0:
288,317,131299,1,2,0:0:0:0:
288,317,131462,2,0,L|372:320,1,85.0000016212464,0|10,0:0|0:0,0:0:0:0:
336,129,131788,1,0,0:0:0:0:
200,217,131952,2,0,L|370:224,1,170.000003242493,2|2,0:0|3:2,0:0:0:0:
101,71,132441,5,0,0:0:0:0:
94,247,132604,1,2,0:0:0:0:
203,107,132767,1,0,0:0:0:0:
32,156,132930,1,10,0:0:0:0:
200,217,133093,1,0,0:0:0:0:
101,71,133256,2,0,L|2:72,1,85.0000016212464,2|0,0:0|0:0,0:0:0:0:
9,247,133582,6,0,L|93:246,1,85.0000016212464,2|0,3:2|0:0,0:0:0:0:
284,217,133908,1,2,0:0:0:0:
284,217,134071,2,0,L|199:216,1,85.0000016212464,0|10,0:0|0:0,0:0:0:0:
103,364,134397,1,0,0:0:0:0:
214,305,134560,2,0,L|383:303,1,170.000003242493,2|2,0:0|3:2,0:0:0:0:
507,212,135049,5,0,0:0:0:0:
409,377,135212,1,2,0:0:0:0:
365,163,135375,1,0,0:0:0:0:
478,297,135538,1,10,0:0:0:0:
284,217,135702,1,0,0:0:0:0:
427,96,135865,2,0,L|519:96,1,85.0000016212464,2|0,0:0|0:0,0:0:0:0:
269,118,136191,6,0,L|177:118,1,85.0000016212464,2|0,3:2|0:0,0:0:0:0:
220,12,136517,1,2,0:0:0:0:
220,12,136680,2,0,L|312:12,1,85.0000016212464,0|10,0:0|0:0,0:0:0:0:
365,163,137006,1,0,0:0:0:0:
250,103,137169,2,0,L|65:103,1,170.000003242493,2|2,0:0|3:2,0:0:0:0:
16,261,137658,5,0,0:0:0:0:
225,201,137821,1,2,0:0:0:0:
48,176,137984,1,0,0:0:0:0:
201,292,138147,1,10,0:0:0:0:
250,103,138310,1,0,0:0:0:0:
367,256,138473,2,0,L|463:253,1,85.0000016212464,2|0,0:0|0:0,0:0:0:0:
450,154,138799,5,2,3:2:0:0:
412,348,138962,1,2,3:2:0:0:
250,103,139125,1,2,3:2:0:0:
274,338,139288,1,2,3:2:0:0:
371,79,139452,5,2,3:2:0:0:
148,232,139615,1,2,3:2:0:0:
367,256,139778,1,2,3:2:0:0:
136,115,139941,1,2,3:2:0:0:
102,358,140104,5,2,3:2:0:0:
265,185,140267,1,2,3:2:0:0:
29,231,140430,1,2,3:2:0:0:
274,338,140593,1,2,3:2:0:0:
70,63,140756,5,10,3:2:0:0:
70,63,140837,1,10,3:2:0:0:
70,63,140919,1,10,3:2:0:0:
136,115,141082,1,10,3:2:0:0:
152,29,141245,1,10,3:2:0:0:
265,185,141408,5,2,3:2:0:0:
273,163,141734,2,0,L|266:34,1,119.999996337891,2|0,0:0|1:2,0:0:0:0:
204,228,142386,1,2,0:0:0:0:
282,255,142549,1,0,0:0:0:0:
360,228,142712,2,0,L|356:155,1,59.9999981689454,0|0,0:0|0:0,0:0:0:0:
345,310,143038,1,2,0:0:0:0:
201,236,143365,1,2,1:2:0:0:
279,263,143528,1,0,0:0:0:0:
357,236,143691,2,0,L|352:156,1,59.9999981689454,2|0,0:0|0:0,0:0:0:0:
211,367,144016,5,2,0:0:0:0:
198,355,144342,2,0,L|200:220,1,119.999996337891,2|0,0:0|1:2,0:0:0:0:
207,59,144995,1,2,0:0:0:0:
245,138,145158,1,0,0:0:0:0:
295,66,145321,2,0,L|296:6,1,59.9999981689454,0|0,0:0|0:0,0:0:0:0:
207,59,145647,1,2,0:0:0:0:
212,70,145973,1,2,1:2:0:0:
250,149,146136,1,0,0:0:0:0:
300,77,146299,2,0,L|301:10,1,59.9999981689454,2|0,0:0|1:2,0:0:0:0:
86,153,146625,5,2,0:0:0:0:
75,143,146952,2,0,L|69:23,1,119.999996337891,2|0,0:0|1:2,0:0:0:0:
6,290,147604,1,2,0:0:0:0:
77,349,147767,1,0,0:0:0:0:
149,257,147930,2,0,L|146:318,1,59.9999981689454,0|0,0:0|0:0,0:0:0:0:
201,377,148256,1,2,0:0:0:0:
16,295,148582,1,2,1:2:0:0:
87,354,148745,1,0,0:0:0:0:
159,262,148908,2,0,L|156:323,1,59.9999981689454,2|0,0:0|0:0,0:0:0:0:
306,249,149234,6,0,L|302:180,1,59.9999981689454,2|0,0:0|0:0,0:0:0:0:
396,204,149560,1,2,0:0:0:0:
378,292,149723,1,0,0:0:0:0:
296,242,149886,2,0,L|292:173,1,59.9999981689454,0|0,1:2|0:0,0:0:0:0:
386,197,150212,1,2,0:0:0:0:
286,235,150375,2,0,L|277:81,1,119.999996337891,0|0,0:0|0:0,0:0:0:0:
276,18,150865,1,2,0:0:0:0:
360,74,151028,1,0,0:0:0:0:
472,13,151191,6,0,L|468:156,1,120,2|0,1:2|0:0,0:0:0:0:
376,211,151843,5,10,0:1:0:0:
362,193,152169,2,0,L|360:74,1,119.999996337891,2|0,0:0|1:2,0:0:0:0:
447,340,152821,1,2,0:0:0:0:
361,330,152984,1,0,0:0:0:0:
275,320,153147,2,0,L|278:379,1,59.9999981689454,0|0,0:0|0:0,0:0:0:0:
326,250,153473,1,2,0:0:0:0:
455,345,153799,1,2,1:2:0:0:
369,335,153962,1,0,0:0:0:0:
283,325,154125,2,0,L|286:384,1,59.9999981689454,2|0,0:0|0:0,0:0:0:0:
449,204,154451,5,2,0:0:0:0:
460,226,154778,2,0,L|457:345,1,119.999996337891,2|0,0:0|1:2,0:0:0:0:
471,50,155430,1,2,0:0:0:0:
397,98,155593,1,0,0:0:0:0:
313,40,155756,2,0,L|310:106,1,59.9999981689454,0|0,0:0|0:0,0:0:0:0:
358,234,156082,2,0,L|355:174,1,59.9999981689454,2|0,0:0|0:0,0:0:0:0:
218,71,156408,2,0,L|215:130,1,59.9999981689454,2|0,1:2|0:0,0:0:0:0:
207,275,156734,1,2,1:2:0:0:
358,234,156897,1,0,1:2:0:0:
116,213,157060,5,2,0:0:0:0:
100,239,157386,2,0,L|105:379,1,119.999996337891,2|0,0:0|1:2,0:0:0:0:
60,81,158038,1,2,0:0:0:0:
134,129,158201,1,0,0:0:0:0:
218,71,158364,2,0,L|221:137,1,59.9999981689454,0|0,0:0|0:0,0:0:0:0:
139,41,158691,1,2,0:0:0:0:
67,88,159017,1,2,1:2:0:0:
141,136,159180,1,0,0:0:0:0:
225,78,159343,2,0,L|228:144,1,59.9999981689454,2|0,0:0|0:0,0:0:0:0:
139,41,159669,5,2,3:2:0:0:
328,141,159832,1,2,3:2:0:0:
181,206,159995,1,2,3:2:0:0:
361,57,160158,1,2,3:2:0:0:
326,263,160321,5,2,3:2:0:0:
225,78,160484,1,2,3:2:0:0:
434,208,160647,1,2,3:2:0:0:
232,281,160810,1,2,3:2:0:0:
328,141,160973,5,2,3:2:0:0:
335,365,161136,1,2,3:2:0:0:
181,206,161299,1,2,3:2:0:0:
433,304,161462,1,2,3:2:0:0:
231,350,161625,6,0,L|232:279,1,70,10|0,0:0|0:0,0:0:0:0:
328,141,162278,6,0,B|335:365,1,225.000008583069,10|0,3:1|0:0,0:0:0:0:
232,281,162930,2,0,B|241:17,1,225.000008583069,10|0,3:2|0:0,0:0:0:0:
157,86,163582,2,0,B|154:160,1,75.0000028610231,10|0,3:1|0:0,0:0:0:0:
149,311,163908,2,0,B|152:237,1,75.0000028610231,10|0,0:1|0:0,0:0:0:0:
75,117,164234,2,0,B|67:341,1,225.000008583069,10|0,3:2|0:0,0:0:0:0:
246,281,164886,6,0,B|238:56,1,225.000008583069,10|0,3:1|0:0,0:0:0:0:
157,86,165538,2,0,B|149:310,1,225.000008583069,10|0,3:2|0:0,0:0:0:0:
328,251,166191,2,0,B|320:26,1,225.000008583069,10|0,3:1|0:0,0:0:0:0:
246,280,166843,1,10,3:2:0:0:
246,280,167169,1,0,1:2:0:0:
410,220,167332,1,0,1:2:0:0:
322,101,167495,6,0,B|328:251,1,150.000005722046,10|0,3:1|0:0,0:0:0:0:
406,332,167984,2,0,B|407:294,1,37.5000014305115,10|0,0:1|0:0,0:0:0:0:
412,145,168147,2,0,B|413:107,1,37.5000014305115,10|0,3:2|0:0,0:0:0:0:
240,130,168310,2,0,B|245:279,1,150.000005722046,10|0,0:1|0:0,0:0:0:0:
149,310,168799,2,0,B|157:86,1,225.000008583069,10|0,3:1|0:0,0:0:0:0:
322,100,169452,2,0,L|330:325,1,225.000008583069,10|0,3:2|0:0,0:0:0:0:
67,341,170104,6,0,B|75:117,1,225.000008583069,10|0,3:1|0:0,0:0:0:0:
238,56,170756,2,0,B|241:168,1,100.000003814697,10|0,3:2|3:2,0:0:0:0:
244,254,171082,2,0,B|246:322,2,50.0000019073487,0|0|0,3:2|3:2|3:2,0:0:0:0:
328,275,171408,2,0,B|330:325,2,50.0000019073487,0|0|0,3:2|3:2|3:2,0:0:0:0:
412,296,171734,2,0,B|413:345,2,50.0000019073487,0|0|0,3:2|3:2|3:2,0:0:0:0:
495,316,172060,1,10,0:0:0:0:
21,165,172712,6,0,L|30:304,1,112.500004291535,10|0,3:1|0:0,0:0:0:0:
90,345,173038,1,2,0:0:0:0:
32,148,173365,2,0,L|41:287,1,112.500004291535,10|0,3:2|0:0,0:0:0:0:
101,328,173691,1,2,0:0:0:0:
43,131,174017,2,0,L|52:270,1,112.500004291535,10|0,3:1|0:0,0:0:0:0:
112,311,174343,1,2,0:0:0:0:
123,294,174669,1,10,3:2:0:0:
218,169,174832,2,0,L|212:356,1,187.500007152558,10|0,0:1|0:0,0:0:0:0:
298,288,175321,6,0,L|302:148,1,112.500004291535,10|0,3:1|0:0,0:0:0:0:
367,103,175646,1,2,0:0:0:0:
309,304,175973,2,0,L|313:164,1,112.500004291535,10|0,3:2|0:0,0:0:0:0:
379,120,176299,1,2,0:0:0:0:
321,321,176625,2,0,L|325:181,1,112.500004291535,10|0,3:1|0:0,0:0:0:0:
390,136,176951,1,2,0:0:0:0:
402,153,177277,1,10,3:2:0:0:
414,170,177604,1,0,1:2:0:0:
321,321,177767,1,0,1:2:0:0:
228,87,177930,6,0,L|238:225,1,112.500004291535,10|0,3:1|0:0,0:0:0:0:
184,274,178256,1,2,0:0:0:0:
214,71,178583,2,0,L|224:209,1,112.500004291535,10|0,3:2|0:0,0:0:0:0:
171,259,178909,1,2,0:0:0:0:
201,56,179235,2,0,L|211:194,1,112.500004291535,10|0,3:1|0:0,0:0:0:0:
158,244,179561,1,2,0:0:0:0:
144,228,179887,1,10,3:2:0:0:
38,157,180049,2,0,L|60:403,1,225.000008583069,10|10,0:1|3:1,0:0:0:0:
256,192,180620,12,0,182495,1:2:0:0:
499,31,183147,6,0,L|484:357,1,320,2|2,3:2|0:0,0:0:0:0:
5,87,193582,5,2,3:2:0:0:
5,87,193745,2,0,L|4:22,1,50,2|0,0:0|0:0,0:0:0:0:
82,59,194071,2,0,L|83:109,1,50,2|0,0:0|0:0,0:0:0:0:
160,89,194397,2,0,L|159:24,1,50,2|0,0:0|0:0,0:0:0:0:
237,61,194723,2,0,L|238:111,1,50,2|0,0:0|0:0,0:0:0:0:
315,91,195049,2,0,L|314:26,1,50,2|0,0:0|0:0,0:0:0:0:
392,63,195375,1,2,0:0:0:0:
237,61,195538,1,0,1:2:0:0:
486,353,196191,5,2,3:2:0:0:
486,353,196354,2,0,L|488:281,1,50,2|0,0:0|0:0,0:0:0:0:
408,283,196680,2,0,L|407:333,1,50,2|0,0:0|0:0,0:0:0:0:
328,313,197006,2,0,L|330:241,1,50,2|0,0:0|0:0,0:0:0:0:
250,243,197332,2,0,L|249:293,1,50,2|0,0:0|0:0,0:0:0:0:
170,313,197658,2,0,L|172:241,1,50,2|0,0:0|0:0,0:0:0:0:
92,283,197984,2,0,L|91:333,1,50,2|4,0:0|0:3,0:0:0:0:
12,353,198310,2,0,L|14:281,1,50,2|0,0:0|0:0,0:0:0:0:
170,313,198636,1,2,0:0:0:0:
170,313,198799,5,2,0:0:0:0:
40,139,199125,1,2,0:0:0:0:
12,353,199452,1,0,1:2:0:0:
251,193,199778,2,0,L|248:292,2,100,2|0|0,0:0|0:0|0:0,0:0:0:0:
256,51,200756,1,4,0:3:0:0:
486,353,201408,5,0,3:2:0:0:
486,353,203365,6,0,B|498:237|498:237|445:277,1,175,8|0,0:0|0:0,0:0:0:0:
282,368,204017,6,0,L|391:367,1,100,6|0,3:2|0:0,0:0:0:0:
404,166,204343,2,0,L|295:165,1,100,2|0,0:0|0:0,0:0:0:0:
84,229,204669,1,10,0:0:0:0:
196,42,204832,1,0,0:0:0:0:
228,269,204995,1,2,0:0:0:0:
65,95,205158,1,0,0:0:0:0:
16,317,205321,6,0,L|125:312,1,100,2|0,3:2|0:0,0:0:0:0:
304,165,205647,1,2,0:0:0:0:
282,368,205810,2,0,L|173:363,1,100,0|10,0:0|0:0,0:0:0:0:
419,242,206136,1,0,0:0:0:0:
228,269,206299,1,2,0:0:0:0:
448,345,206462,1,0,0:0:0:0:
402,117,206625,5,2,3:2:0:0:
327,295,206788,1,0,0:0:0:0:
512,147,206952,1,2,0:0:0:0:
277,72,207115,1,0,0:0:0:0:
419,242,207278,1,10,0:0:0:0:
436,0,207441,1,0,0:0:0:0:
271,201,207604,1,2,0:0:0:0:
512,147,207767,1,0,0:0:0:0:
512,147,208582,6,0,L|441:144,1,70,4|0,3:1|0:0,0:0:0:0:
271,201,209234,6,0,L|383:197,1,100,6|0,3:2|0:0,0:0:0:0:
281,76,209560,1,2,0:0:0:0:
191,249,209723,1,0,0:0:0:0:
119,99,209886,1,10,0:0:0:0:
273,294,210049,2,0,L|385:290,1,100,0|2,0:0|0:0,0:0:0:0:
208,127,210375,1,0,0:0:0:0:
119,302,210538,6,0,L|7:298,1,100,2|0,3:2|0:0,0:0:0:0:
119,99,210864,1,2,0:0:0:0:
271,201,211028,2,0,L|383:197,1,100,0|10,0:0|0:0,0:0:0:0:
488,101,211353,1,0,0:0:0:0:
288,61,211517,1,2,0:0:0:0:
447,245,211680,1,0,0:0:0:0:
403,11,211843,5,2,3:2:0:0:
271,201,212006,1,0,0:0:0:0:
173,22,212169,2,0,L|52:18,1,100,2|0,0:0|0:0,0:0:0:0:
70,216,212495,1,10,0:0:0:0:
218,102,212658,2,0,L|97:98,1,100,0|2,0:0|0:0,0:0:0:0:
219,276,212984,1,0,0:0:0:0:
316,125,213147,6,0,L|428:121,1,100,2|0,3:2|0:0,0:0:0:0:
477,339,213473,2,0,L|365:335,1,100,2|0,0:0|0:0,0:0:0:0:
243,188,213799,1,10,0:0:0:0:
197,354,213962,1,0,0:0:0:0:
48,135,214125,1,2,0:0:0:0:
94,301,214288,1,0,0:0:0:0:
218,102,214451,6,0,L|323:97,1,100,2|0,3:2|0:0,0:0:0:0:
159,9,214777,1,2,0:0:0:0:
243,188,214940,1,0,0:0:0:0:
318,6,215103,2,0,L|435:3,1,100,10|0,0:0|0:0,0:0:0:0:
439,188,215430,1,2,0:0:0:0:
317,97,215593,1,0,0:0:0:0:
390,298,215756,6,0,L|495:293,1,100,2|0,3:2|0:0,0:0:0:0:
339,190,216082,1,2,0:0:0:0:
273,359,216245,2,0,L|168:354,1,100,0|10,0:0|0:0,0:0:0:0:
219,195,216571,1,0,0:0:0:0:
390,298,216734,1,2,0:0:0:0:
396,105,216897,1,0,0:0:0:0:
254,279,217060,5,2,3:2:0:0:
439,188,217223,1,0,0:0:0:0:
240,107,217386,2,0,L|133:104,1,100,2|0,0:0|0:0,0:0:0:0:
143,264,217712,1,10,0:0:0:0:
339,190,217875,2,0,L|446:187,1,100,0|2,0:0|0:0,0:0:0:0:
386,302,218201,1,0,0:0:0:0:
396,105,218365,6,0,L|501:100,1,100,2|0,3:2|0:0,0:0:0:0:
242,268,218690,2,0,L|137:263,1,100,2|0,0:0|0:0,0:0:0:0:
78,74,219017,1,10,0:0:0:0:
189,165,219180,1,0,0:0:0:0:
78,74,219343,1,2,0:0:0:0:
24,204,219506,1,0,0:0:0:0:
190,41,219669,6,0,L|297:38,1,85.0000016212464,2|0,3:2|0:0,0:0:0:0:
384,137,219995,1,2,0:0:0:0:
384,137,220158,2,0,L|300:134,1,85.0000016212464,0|10,0:0|0:0,0:0:0:0:
417,49,220484,1,0,0:0:0:0:
450,227,220647,2,0,L|247:219,1,170.000003242493,2|2,0:0|3:2,0:0:0:0:
74,237,221136,5,0,0:0:0:0:
98,110,221299,1,2,0:0:0:0:
230,291,221462,1,0,0:0:0:0:
206,164,221625,1,10,0:0:0:0:
59,256,221788,1,0,0:0:0:0:
83,89,221952,2,0,L|197:89,1,85.0000016212464,2|0,0:0|0:0,0:0:0:0:
329,186,222278,6,0,L|443:186,1,85.0000016212464,2|0,3:2|0:0,0:0:0:0:
314,289,222604,1,2,0:0:0:0:
314,289,222767,2,0,L|229:290,1,85.0000016212464,0|10,0:0|0:0,0:0:0:0:
410,339,223093,1,0,0:0:0:0:
329,186,223256,2,0,L|143:191,1,170.000003242493,2|2,0:0|3:2,0:0:0:0:
27,200,223745,5,0,0:0:0:0:
229,290,223908,1,2,0:0:0:0:
29,334,224071,1,0,0:0:0:0:
159,80,224234,5,10,3:2:0:0:
159,80,224315,1,10,3:2:0:0:
159,80,224397,1,10,3:2:0:0:
93,140,224560,1,10,3:2:0:0:
74,54,224723,1,10,3:2:0:0:
329,186,224886,6,0,L|431:185,1,100,6|0,3:2|0:0,0:0:0:0:
374,278,225212,1,2,0:0:0:0:
280,107,225375,1,0,0:0:0:0:
211,286,225538,2,0,L|91:289,1,100,10|0,0:0|0:0,0:0:0:0:
229,189,225864,1,2,0:0:0:0:
179,375,226027,2,0,L|59:378,1,100,0|2,0:0|3:2,0:0:0:0:
156,108,226353,5,0,0:0:0:0:
111,288,226517,1,2,0:0:0:0:
42,157,226680,1,0,0:0:0:0:
229,189,226843,2,0,L|328:185,1,100,10|0,0:0|0:0,0:0:0:0:
358,81,227169,1,2,0:0:0:0:
289,273,227332,2,0,L|388:269,1,100,0|2,0:0|3:2,0:0:0:0:
442,87,227658,5,0,0:0:0:0:
328,185,227821,1,2,0:0:0:0:
264,2,227984,1,0,0:0:0:0:
150,100,228147,2,0,L|46:102,1,100,10|0,0:0|0:0,0:0:0:0:
229,189,228473,1,2,0:0:0:0:
105,11,228636,1,0,0:0:0:0:
9,245,228799,6,0,L|122:247,1,100,2|0,3:2|0:0,0:0:0:0:
251,101,229125,2,0,L|364:103,1,100,2|0,0:0|0:0,0:0:0:0:
358,275,229452,6,0,L|289:273,1,70,2|0,3:2|0:0,0:0:0:0:
196,307,230104,5,6,3:2:0:0:
315,186,230267,1,0,0:0:0:0:
144,193,230430,2,0,L|44:196,1,100,2|0,0:0|0:0,0:0:0:0:
288,272,230756,1,10,0:0:0:0:
343,102,230919,2,0,L|456:104,1,100,0|2,0:0|0:0,0:0:0:0:
315,186,231245,1,0,0:0:0:0:
186,31,231408,6,0,L|86:34,1,100,2|0,3:2|0:0,0:0:0:0:
167,112,231734,1,2,0:0:0:0:
366,18,231897,2,0,L|479:20,1,100,0|10,0:0|0:0,0:0:0:0:
496,204,232223,1,0,0:0:0:0:
343,102,232386,2,0,L|243:100,1,100,2|0,0:0|0:0,0:0:0:0:
90,38,232712,5,2,3:2:0:0:
166,226,232875,1,0,0:0:0:0:
0,144,233038,2,0,L|101:138,1,100,2|0,0:0|0:0,0:0:0:0:
243,100,233365,1,10,0:0:0:0:
356,285,233528,2,0,L|228:280,1,100,0|2,0:0|0:0,0:0:0:0:
99,138,233854,1,0,0:0:0:0:
52,318,234017,6,0,L|151:314,1,100,2|0,3:2|0:0,0:0:0:0:
357,198,234343,1,2,0:0:0:0:
353,374,234506,2,0,L|225:369,1,100,0|10,0:0|0:0,0:0:0:0:
253,370,234995,1,2,0:0:0:0:
253,370,235321,5,6,3:2:0:0:
179,269,235484,1,0,0:0:0:0:
320,275,235647,2,0,L|420:280,1,100,2|0,0:0|0:0,0:0:0:0:
446,369,235973,1,10,0:0:0:0:
357,198,236136,2,0,L|224:192,1,100,0|2,0:0|0:0,0:0:0:0:
81,239,236462,1,0,0:0:0:0:
164,108,236625,6,0,L|281:104,1,100,2|0,3:2|0:0,0:0:0:0:
152,191,236952,1,2,0:0:0:0:
108,28,237115,2,0,L|225:24,1,100,0|10,0:0|0:0,0:0:0:0:
441,151,237441,1,0,0:0:0:0:
263,104,237604,1,2,0:0:0:0:
444,23,237767,1,0,0:0:0:0:
489,240,237930,5,2,3:2:0:0:
348,76,238093,1,0,0:0:0:0:
316,294,238256,1,2,0:0:0:0:
441,151,238419,1,0,0:0:0:0:
473,370,238582,2,0,L|353:370,1,100,10|0,0:0|0:0,0:0:0:0:
144,264,238908,1,2,0:0:0:0:
326,167,239071,1,0,0:0:0:0:
185,363,239234,5,2,3:2:0:0:
145,161,239397,1,0,0:0:0:0:
316,294,239560,1,2,0:0:0:0:
63,296,239723,1,0,0:0:0:0:
326,167,239886,1,10,0:0:0:0:
326,167,240212,1,2,0:0:0:0:
326,167,240538,6,0,L|429:163,1,85.0000016212464,4|0,3:2|0:0,0:0:0:0:
231,290,240865,1,2,0:0:0:0:
231,290,241028,2,0,L|315:293,1,85.0000016212464,0|10,0:0|0:0,0:0:0:0:
469,258,241354,1,0,0:0:0:0:
308,152,241517,2,0,L|477:145,1,170.000003242493,2|2,0:0|3:2,0:0:0:0:
319,34,242006,5,0,0:0:0:0:
204,102,242169,1,2,0:0:0:0:
308,152,242332,1,0,0:0:0:0:
193,3,242495,1,10,0:0:0:0:
139,184,242658,1,0,0:0:0:0:
204,102,242821,2,0,L|104:102,1,85.0000016212464,2|0,0:0|0:0,0:0:0:0:
10,265,243147,6,0,L|110:265,1,85.0000016212464,2|0,3:2|0:0,0:0:0:0:
224,184,243473,1,2,0:0:0:0:
224,184,243636,2,0,L|124:184,1,85.0000016212464,0|10,0:0|0:0,0:0:0:0:
244,266,243962,1,0,0:0:0:0:
204,102,244125,2,0,L|28:102,1,170.000003242493,2|2,0:0|3:2,0:0:0:0:
10,265,244615,5,0,0:0:0:0:
224,184,244778,1,2,0:0:0:0:
153,367,244941,1,0,0:0:0:0:
87,167,245104,6,0,B|190:167|190:167|224:184|224:184|258:167|258:167|358:167,1,279.999991455078,10|0,0:0|0:0,0:0:0:0:
512,272,245593,1,10,3:2:0:0:
486,63,245756,6,0,L|384:62,1,100,6|0,3:2|0:0,0:0:0:0:
307,252,246082,1,2,0:0:0:0:
495,164,246245,1,0,0:0:0:0:
303,102,246408,2,0,L|201:101,1,100,10|0,0:0|0:0,0:0:0:0:
87,167,246734,1,2,0:0:0:0:
120,18,246897,2,0,L|219:15,1,100,0|2,0:0|3:2,0:0:0:0:
318,215,247223,5,0,0:0:0:0:
203,101,247387,1,2,0:0:0:0:
169,282,247550,1,0,0:0:0:0:
303,102,247713,2,0,L|402:98,1,100,10|0,0:0|0:0,0:0:0:0:
457,287,248039,1,2,0:0:0:0:
318,215,248202,2,0,L|219:211,1,100,0|2,0:0|3:2,0:0:0:0:
444,167,248528,5,0,0:0:0:0:
337,311,248691,1,2,0:0:0:0:
303,102,248854,1,0,0:0:0:0:
186,283,249017,2,0,L|87:279,1,100,10|0,0:0|0:0,0:0:0:0:
95,104,249343,1,2,0:0:0:0:
218,210,249506,1,0,0:0:0:0:
159,13,249669,6,0,L|59:11,1,100,2|0,3:2|0:0,0:0:0:0:
303,102,249995,2,0,L|416:104,1,100,2|0,0:0|0:0,0:0:0:0:
106,194,250321,6,0,L|37:192,1,70,2|0,3:2|0:0,0:0:0:0:
86,278,250973,6,0,L|185:276,1,100,6|0,3:2|0:0,0:0:0:0:
353,210,251299,1,2,0:0:0:0:
286,360,251462,1,0,0:0:0:0:
205,192,251625,2,0,L|105:193,1,100,10|0,0:0|0:0,0:0:0:0:
185,276,251952,1,2,0:0:0:0:
303,102,252115,2,0,L|402:103,1,100,0|2,0:0|3:2,0:0:0:0:
153,32,252441,5,0,0:0:0:0:
205,192,252604,1,2,0:0:0:0:
272,0,252767,1,0,0:0:0:0:
117,141,252930,2,0,L|17:142,1,100,10|0,0:0|0:0,0:0:0:0:
153,32,253256,1,2,0:0:0:0:
205,192,253419,2,0,L|304:193,1,100,0|2,0:0|3:2,0:0:0:0:
479,150,253745,5,0,0:0:0:0:
341,309,253908,1,2,0:0:0:0:
318,101,254071,1,0,0:0:0:0:
500,239,254234,2,0,L|379:234,1,100,10|0,0:0|0:0,0:0:0:0:
250,362,254560,1,2,0:0:0:0:
304,193,254723,1,0,0:0:0:0:
506,368,254886,6,0,L|385:363,1,100,2|0,3:2|0:0,0:0:0:0:
155,273,255212,2,0,L|276:268,1,100,2|0,0:0|0:0,0:0:0:0:
479,150,255538,6,0,L|417:146,1,55.0000016784668,10|0,0:0|0:0,0:0:0:0:
318,101,255865,2,0,L|257:98,1,55.0000016784668
155,147,256191,6,0,L|38:142,1,100,6|0,3:2|0:0,0:0:0:0:
99,343,256517,1,2,0:0:0:0:
216,207,256680,1,0,0:0:0:0:
255,366,256843,2,0,L|372:361,1,100,10|0,0:0|0:0,0:0:0:0:
426,228,257169,1,2,0:0:0:0:
298,289,257332,2,0,L|181:284,1,100,0|2,0:0|3:2,0:0:0:0:
0,183,257658,5,0,0:0:0:0:
171,108,257821,1,2,0:0:0:0:
122,230,257984,1,0,0:0:0:0:
47,58,258147,2,0,L|146:56,1,100,10|0,0:0|0:0,0:0:0:0:
338,152,258473,1,2,0:0:0:0:
390,29,258636,2,0,L|291:24,1,100,0|2,0:0|3:2,0:0:0:0:
245,215,258962,5,0,0:0:0:0:
442,154,259125,1,2,0:0:0:0:
251,96,259288,1,0,0:0:0:0:
376,263,259452,2,0,L|485:262,1,100,10|0,0:0|0:0,0:0:0:0:
338,152,259778,1,2,0:0:0:0:
321,346,259941,2,0,L|430:345,1,100,0|2,0:0|3:2,0:0:0:0:
245,215,260267,5,0,0:0:0:0:
178,375,260430,1,2,0:0:0:0:
376,263,260593,1,0,0:0:0:0:
141,189,260756,1,10,0:0:0:0:
141,189,261082,1,2,0:0:0:0:
141,189,261408,6,0,L|43:186,1,85.0000016212464,4|0,3:2|0:0,0:0:0:0:
166,291,261734,1,2,0:0:0:0:
166,291,261897,2,0,L|264:288,1,85.0000016212464,0|10,0:0|0:0,0:0:0:0:
141,189,262223,1,0,0:0:0:0:
130,370,262386,2,0,L|320:364,1,170.000003242493,2|2,0:0|3:2,0:0:0:0:
483,247,262875,5,0,0:0:0:0:
335,291,263038,1,2,0:0:0:0:
480,356,263202,1,0,0:0:0:0:
342,174,263365,1,10,0:0:0:0:
483,247,263528,1,0,0:0:0:0:
335,291,263691,2,0,L|237:288,1,85.0000016212464,2|0,0:0|0:0,0:0:0:0:
141,189,264017,6,0,L|43:186,1,85.0000016212464,2|0,3:2|0:0,0:0:0:0:
180,88,264343,1,2,0:0:0:0:
180,88,264506,2,0,L|278:85,1,85.0000016212464,0|10,0:0|0:0,0:0:0:0:
244,187,264832,1,0,0:0:0:0:
164,74,264995,2,0,L|340:68,1,170.000003242493,2|2,0:0|3:2,0:0:0:0:
467,140,265484,5,0,0:0:0:0:
244,187,265647,1,2,0:0:0:0:
456,244,265810,1,0,0:0:0:0:
333,68,265973,1,10,0:0:0:0:
313,302,266136,1,0,0:0:0:0:
467,140,266299,2,0,L|355:141,1,85.0000016212464,2|0,0:0|0:0,0:0:0:0:
244,187,266625,6,0,L|132:188,1,85.0000016212464,2|0,3:2|0:0,0:0:0:0:
313,302,266952,1,2,0:0:0:0:
313,302,267115,2,0,L|425:303,1,85.0000016212464,0|10,0:0|0:0,0:0:0:0:
322,210,267441,1,0,0:0:0:0:
214,310,267604,2,0,L|44:311,1,170.000003242493,2|2,0:0|3:2,0:0:0:0:
65,119,268093,5,0,0:0:0:0:
134,273,268256,1,2,0:0:0:0:
202,142,268419,1,0,0:0:0:0:
214,310,268582,1,10,0:0:0:0:
322,210,268745,1,0,0:0:0:0:
276,372,268908,2,0,L|177:371,1,85.0000016212464,2|0,0:0|0:0,0:0:0:0:
450,202,269234,5,10,3:1:0:0:
459,223,269560,2,0,L|453:341,1,100,10|0,0:1|0:0,0:0:0:0:
281,163,270212,1,10,0:1:0:0:
276,372,270538,2,0,L|271:173,2,200,10|10|4,0:1|0:1|0:3,0:0:0:0:
