osu file format v14

[General]
AudioFilename: 04. Flicker.mp3
AudioLeadIn: 2000
PreviewTime: 91843
Countdown: 0
SampleSet: Soft
StackLeniency: 0.7
Mode: 0
LetterboxInBreaks: 0
WidescreenStoryboard: 1

[Editor]
Bookmarks: 52696,68349
DistanceSpacing: 1
BeatDivisor: 4
GridSize: 4
TimelineZoom: 1.4

[Metadata]
Title:Flicker
TitleUnicode:Flicker
Artist:Porter Robinson
ArtistUnicode:Porter Robinson
Creator:Cyllinus
Version:ryuu's Easy
Source:
Tags:Worlds electronic ryuu Alonevpk instrumental japanese
BeatmapID:845360
BeatmapSetID:284931

[Difficulty]
HPDrainRate:3
CircleSize:2.7
OverallDifficulty:3
ApproachRate:3
SliderMultiplier:1.6
SliderTickRate:1

[Events]
//Background and Video events
0,0,"stolen bg.jpg",0,0
//Break Periods
2,52912,61707
2,183347,199968
2,201608,202577
//Storyboard Layer 0 (Background)
//Storyboard Layer 1 (Fail)
//Storyboard Layer 2 (Pass)
//Storyboard Layer 3 (Foreground)
//Storyboard Layer 4 (Overlay)
//Storyboard Sound Samples

[TimingPoints]
539,652.173913043478,4,2,1,64,1,0
63147,-100,4,2,1,72,0,0
68365,-100,4,2,1,64,0,0
91843,-100,4,2,1,24,0,0
93799,-100,4,2,1,80,0,0
94370,-100,4,2,1,8,0,0
94452,-100,4,2,1,100,0,1
98365,-100,4,2,1,8,0,0
99017,-100,4,2,1,100,0,1
119886,-100,4,2,1,80,0,0
120457,-100,4,2,1,8,0,0
120538,-100,4,2,1,100,0,1
138799,-100,4,2,1,80,0,0
141408,-100,4,2,1,72,0,0
159669,-100,4,2,1,80,0,0
162196,-100,4,2,1,8,0,0
162278,-100,4,2,1,100,0,0
180538,-100,4,2,1,72,0,0
183147,-100,4,2,1,64,0,0
201408,-100,4,2,1,64,0,0
203365,-100,4,2,1,80,0,0
203935,-100,4,2,1,8,0,0
204017,-100,4,2,1,100,0,1
207930,-100,4,2,1,8,0,0
208582,-100,4,2,1,100,0,1
229452,-100,4,2,1,80,0,0
230022,-100,4,2,1,8,0,0
230104,-100,4,2,1,100,0,1
245104,-100,4,2,1,100,0,0
245430,-100,4,2,1,80,0,0
245756,-100,4,2,1,100,0,1
250321,-100,4,2,1,80,0,0
250892,-100,4,2,1,8,0,0
250973,-100,4,2,1,100,0,1
255538,-100,4,2,1,100,0,0
255783,-100,4,2,1,8,0,0
255865,-100,4,2,1,100,0,0
256191,-100,4,2,1,100,0,1
269234,-100,4,2,1,80,0,0
271843,-100,4,2,1,32,0,0
273799,-100,4,2,1,32,0,0
276408,-100,4,2,1,32,0,0

[Colours]
Combo1 : 70,70,170
Combo2 : 250,250,60
Combo3 : 80,200,210
Combo4 : 80,180,100
Combo5 : 250,80,120

[HitObjects]
224,76,539,6,0,L|336:60,1,80,2|0,0:0|0:0,0:0:0:0:
460,92,1517,2,0,L|452:276,2,160,2|0|0,0:0|0:0|0:0,0:0:0:0:
384,68,3147,6,0,P|345:81|288:80,1,80,2|0,0:0|0:0,0:0:0:0:
196,196,4125,2,0,P|120:192|32:152,2,160,2|2|2,0:0|0:0|0:0,0:0:0:0:
268,236,5756,6,0,L|256:352,1,80,2|0,0:0|0:0,0:0:0:0:
400,244,6734,2,0,L|416:84,2,160,2|0|0,0:0|0:0|0:0,0:0:0:0:
356,312,8365,6,0,P|276:332|184:304,1,160,4|8,0:3|0:3,0:0:0:0:
64,236,9669,2,0,L|52:148,1,80,4|4,0:3|0:3,0:0:0:0:
128,124,10321,2,0,L|136:20,1,80,8|8,0:0|0:0,0:0:0:0:
212,24,10973,6,0,P|296:36|400:12,1,160,4|8,3:2|0:0,0:0:0:0:
498,118,12278,2,0,L|493:233,1,80,0|2,0:0|3:2,0:0:0:0:
490,277,12930,1,8,0:0:0:0:
344,343,13582,6,0,P|260:331|156:355,1,160,0|8,3:0|0:0,0:0:0:0:
53,254,14886,2,0,L|44:142,1,80,0|2,0:0|3:2,0:0:0:0:
52,94,15538,1,8,0:0:0:0:
198,29,16191,6,0,L|202:143,2,80,0|0|8,3:0|3:2|0:0,0:0:0:0:
321,130,17495,2,0,L|312:209,1,80,0|2,0:0|3:2,0:0:0:0:
360,273,18147,1,8,0:0:0:0:
500,196,18799,6,0,L|494:115,1,80,0|2,3:0|3:2,0:0:0:0:
424,75,19452,1,8,0:0:0:0:
399,233,20104,1,0,0:0:0:0:
264,319,20756,2,0,B|228:335|192:319|151:304|88:319,1,160,8|4,0:0|3:2,0:0:0:0:
49,165,22060,5,8,0:0:0:0:
195,229,22712,2,0,L|306:221,1,80,0|2,0:0|3:2,0:0:0:0:
343,181,23365,1,8,0:0:0:0:
449,61,24017,6,0,L|334:54,1,80,0|0,3:0|3:2,0:0:0:0:
291,75,24669,1,8,0:0:0:0:
144,138,25321,2,0,P|102:140|56:125,2,80,0|2|8,0:0|3:2|0:0,0:0:0:0:
203,191,26299,1,2,0:0:0:0:
243,259,26625,6,0,L|429:262,2,160,0|8|0,3:0|0:0|0:0,0:0:0:0:
89,212,28582,1,8,0:0:0:0:
177,78,29234,6,0,P|256:90|337:70,1,160,4|8,0:3|0:3,0:0:0:0:
480,134,30538,2,0,L|472:238,1,80,4|4,0:3|0:3,0:0:0:0:
398,242,31191,2,0,L|406:338,1,80,8|8,0:0|0:0,0:0:0:0:
331,354,31843,6,0,P|295:362|231:350,1,80,4|2,3:2|0:0,0:0:0:0:
199,297,32495,2,0,P|119:285|23:305,1,160,8|0,0:0|0:0,0:0:0:0:
72,144,33799,2,0,L|76:56,1,80,8|2,0:0|0:0,0:0:0:0:
156,48,34452,6,0,P|241:63|328:48,1,160,2|8,0:0|0:0,0:0:0:0:
364,116,35430,2,0,P|360:160|368:208,1,80,0|0,0:0|0:0,0:0:0:0:
440,336,36408,1,8,0:0:0:0:
276,320,37060,6,0,L|188:312,2,80,2|2|8,0:0|3:2|0:0,0:0:0:0:
220,168,38365,2,0,L|396:152,1,160,0|8,0:0|0:0,0:0:0:0:
476,28,39669,5,2,3:2:0:0:
324,72,40321,1,10,0:0:0:0:
168,44,40973,2,0,L|64:52,1,80,2|2,0:0|3:2,0:0:0:0:
88,132,41625,2,0,L|-16:140,1,80,10|2,0:0|0:0,0:0:0:0:
168,320,42930,6,0,L|336:306,1,160,8|0,0:0|0:0,0:0:0:0:
384,248,43908,2,0,P|388:208|372:152,1,80,2|8,0:0|0:0,0:0:0:0:
460,32,44886,6,0,P|384:24|288:48,1,160,2|8,0:0|0:0,0:0:0:0:
156,104,46191,2,0,P|113:113|72:104,2,80,2|0|10,0:0|0:0|0:0,0:0:0:0:
304,40,47495,5,2,0:0:0:0:
376,184,48147,1,8,0:0:0:0:
232,252,48799,1,2,0:0:0:0:
160,108,49452,1,8,0:0:0:0:
304,40,50104,6,0,P|394:48|468:28,1,160,4|8,0:3|0:3,0:0:0:0:
444,192,51408,2,0,L|360:188,1,80,4|4,0:3|0:3,0:0:0:0:
312,252,52060,2,0,L|228:260,1,80,4|4,0:3|0:3,0:0:0:0:
172,316,52712,5,4,0:0:0:0:
256,192,63147,12,0,67060,0:0:0:0:
192,76,68365,6,0,L|360:68,1,160,2|0,3:2|0:0,0:0:0:0:
448,196,69669,2,0,L|280:204,1,160,2|0,0:0|0:0,0:0:0:0:
128,192,70973,5,0,3:0:0:0:
420,328,72278,2,0,P|408:252|432:168,1,160,8|0,0:0|0:0,0:0:0:0:
324,52,73582,6,0,L|224:48,1,80,2|0,3:2|0:0,0:0:0:0:
180,100,74234,1,0,3:0:0:0:
304,200,74886,2,0,L|296:280,1,80,0|0,3:0|0:0,0:0:0:0:
224,316,75538,1,0,3:0:0:0:
72,264,76191,6,0,L|64:96,1,160,0|2,3:0|3:2,0:0:0:0:
216,48,77495,2,0,P|304:32|392:56,2,160,0|2|2,3:0|3:2|3:2,0:0:0:0:
64,104,79452,5,0,3:0:0:0:
156,236,80104,2,0,L|160:328,1,80,0|0,3:0|0:0,0:0:0:0:
236,340,80756,1,0,3:0:0:0:
392,304,81408,6,0,L|404:116,1,160,0|2,3:0|3:2,0:0:0:0:
244,128,82712,2,0,L|236:48,2,80,0|2|2,3:0|0:0|3:2,0:0:0:0:
392,192,84017,6,0,P|384:236|384:272,1,80,2|0,3:2|0:0,0:0:0:0:
420,344,84669,1,0,3:0:0:0:
260,324,85321,2,0,L|92:320,1,160,0|0,3:0|3:0,0:0:0:0:
32,176,86625,5,0,3:0:0:0:
172,96,87278,2,0,P|164:56|168:8,2,80,2|2|0,3:2|0:0|3:0,0:0:0:0:
288,204,88582,1,2,3:2:0:0:
256,192,89234,12,0,91843,3:0:0:0:
112,48,94452,6,0,L|108:144,1,80,4|0,3:2|0:0,0:0:0:0:
176,172,95104,2,0,L|180:268,1,80,8|0,0:0|0:0,0:0:0:0:
136,320,95756,2,0,P|219:305|320:336,1,160,2|8,3:2|0:0,0:0:0:0:
365,351,96734,1,2,0:0:0:0:
426,300,97060,6,0,L|434:108,1,160,0|8,3:0|0:0,0:0:0:0:
383,77,98038,1,2,0:0:0:0:
146,117,99017,1,8,0:0:0:0:
27,224,99669,6,0,L|35:328,1,80,0|2,3:0|0:0,0:0:0:0:
108,329,100321,2,0,P|152:337|208:321,1,80,8|0,0:0|0:0,0:0:0:0:
248,280,100973,2,0,P|332:264|428:292,1,160,2|8,3:2|0:0,0:0:0:0:
492,128,102278,6,0,P|408:144|312:116,1,160,0|8,3:0|0:0,0:0:0:0:
261,99,103256,1,0,0:0:0:0:
201,45,103582,2,0,L|213:237,1,160,2|8,3:2|0:0,0:0:0:0:
124,344,104886,6,0,L|40:336,2,80,2|2|8,3:2|0:0|0:0,0:0:0:0:
179,285,105865,1,2,0:0:0:0:
119,231,106191,2,0,L|295:219,1,160,2|8,3:2|0:0,0:0:0:0:
316,44,107495,6,0,L|492:56,2,160,0|8|2,3:0|0:0|3:2,0:0:0:0:
242,74,109125,2,0,P|196:69|154:81,1,80,2|8,0:0|0:0,0:0:0:0:
78,212,110104,6,0,L|86:296,2,80,4|2|8,3:2|0:0|0:0,0:0:0:0:
234,244,111408,2,0,P|318:264|418:248,1,160,0|8,3:0|0:0,0:0:0:0:
484,124,112712,6,0,L|488:40,2,80,2|2|8,3:2|0:0|0:0,0:0:0:0:
328,164,114017,2,0,P|344:248|324:344,1,160,0|8,3:0|0:0,0:0:0:0:
260,356,114995,1,8,0:0:0:0:
180,344,115321,6,0,L|76:336,1,80,4|2,3:2|0:0,0:0:0:0:
60,268,115973,2,0,P|52:228|56:180,1,80,8|0,0:0|0:0,0:0:0:0:
20,116,116625,2,0,P|104:128|179:105,1,160,2|8,3:2|0:0,0:0:0:0:
244,66,117604,1,2,0:0:0:0:
321,45,117930,6,0,P|397:24|476:36,1,160,0|8,3:0|0:0,0:0:0:0:
463,195,119234,2,0,L|463:275,1,80,0|2,3:0|0:0,0:0:0:0:
401,325,119886,2,0,P|324:345|245:333,1,160,2|4,1:3|3:2,0:0:0:0:
116,228,121191,5,8,0:0:0:0:
160,76,121843,2,0,L|240:72,1,80,2|0,3:2|0:0,0:0:0:0:
309,32,122495,2,0,L|402:37,1,80,8|2,0:0|0:0,0:0:0:0:
446,91,123147,6,0,L|442:263,1,160,0|8,3:0|0:0,0:0:0:0:
314,347,124452,2,0,L|300:261,1,80,2|0,3:2|0:0,0:0:0:0:
324,191,125104,2,0,L|338:93,1,80,8|2,0:0|0:0,0:0:0:0:
263,76,125756,6,0,P|215:80|159:68,1,80,4|2,3:2|0:0,0:0:0:0:
119,28,126408,2,0,P|71:24|15:36,1,80,8|0,0:0|0:0,0:0:0:0:
14,104,127060,2,0,L|22:272,2,160,2|8|2,3:2|0:0|3:2,0:0:0:0:
163,47,129017,6,0,P|197:68|243:76,1,80,8|2,0:0|0:0,0:0:0:0:
313,93,129669,2,0,P|353:97|421:73,1,80,2|2,3:2|0:0,0:0:0:0:
459,130,130321,2,0,L|455:210,1,80,8|2,0:0|0:0,0:0:0:0:
419,281,130973,6,0,P|343:273|259:293,2,160,4|8|0,3:2|0:0|3:0,0:0:0:0:
472,136,132930,1,8,0:0:0:0:
328,68,133582,6,0,L|164:64,2,160,0|8|0,3:0|0:0|3:0,0:0:0:0:
472,136,135538,1,8,0:0:0:0:
336,220,136191,6,0,L|332:304,1,80,0|2,3:0|0:0,0:0:0:0:
396,348,136843,1,8,0:0:0:0:
236,349,137495,2,0,P|159:338|40:353,1,160,0|8,3:0|0:0,0:0:0:0:
19,194,138799,6,0,B|189:181,1,160,4|4,0:3|0:3,0:0:0:0:
250,38,140104,2,0,P|334:54|434:22,1,160,4|8,0:3|0:0,0:0:0:0:
484,22,141082,1,8,0:0:0:0:
490,101,141408,6,0,L|478:277,1,160,4|8,3:2|0:0,0:0:0:0:
328,324,142712,2,0,P|248:340|168:324,1,160,0|8,0:0|0:0,0:0:0:0:
84,184,144017,6,0,P|164:168|244:184,1,160,0|8,0:0|0:0,0:0:0:0:
384,248,145321,2,0,L|394:88,1,160,0|8,0:0|0:0,0:0:0:0:
240,52,146625,6,0,L|160:44,2,80,0|0|8,0:0|0:0|0:0,0:0:0:0:
280,208,147930,1,0,0:0:0:0:
200,348,148582,1,8,0:0:0:0:
108,216,149234,6,0,P|116:136|96:56,2,160,0|8|0,0:0|0:0|0:0,0:0:0:0:
36,360,151191,2,0,L|120:352,1,80,8|2,0:0|0:0,0:0:0:0:
160,284,151843,6,0,L|268:288,1,80,4|0,0:0|0:0,0:0:0:0:
316,316,152495,1,8,0:0:0:0:
432,204,153147,1,0,0:0:0:0:
352,64,153799,2,0,L|252:56,1,80,8|2,0:0|0:0,0:0:0:0:
200,24,154452,5,0,0:0:0:0:
100,152,155104,2,0,P|96:232|120:312,1,160,8|0,0:0|0:0,0:0:0:0:
196,328,156082,2,0,L|300:316,2,80,2|10|10,0:0|0:0|0:0,0:0:0:0:
118,308,157060,6,0,L|100:136,1,160,0|8,0:0|0:0,0:0:0:0:
240,64,158365,2,0,P|344:72|420:48,1,160,0|8,0:0|0:0,0:0:0:0:
460,204,159669,6,0,L|456:284,1,80,4|4,0:3|0:3,0:0:0:0:
396,340,160321,1,4,0:3:0:0:
244,308,160973,2,0,L|156:304,1,80,4|4,0:3|0:3,0:0:0:0:
100,356,161625,6,0,P|116:268|100:196,1,160,2|4,1:2|3:1,0:0:0:0:
28,56,162930,5,0,1:0:0:0:
184,88,163582,2,0,L|280:80,1,80,0|0,3:0|0:0,0:0:0:0:
336,44,164234,1,0,1:0:0:0:
304,200,164886,2,0,L|125:219,2,160,0|0|0,3:0|1:0|3:0,0:0:0:0:
428,100,166843,1,0,1:0:0:0:
476,252,167495,6,0,B|440:276|436:324|436:324|404:300|336:324,1,160,0|0,3:0|1:0,0:0:0:0:
208,304,168799,2,0,P|164:312|112:300,1,80,2|0,3:2|0:0,0:0:0:0:
72,248,169452,1,2,1:2:0:0:
120,96,170104,1,2,3:2:0:0:
280,120,170756,6,0,P|408:148|324:52,1,320,0|0,1:0|1:0,0:0:0:0:
184,60,172712,5,0,3:0:0:0:
96,192,173365,1,0,1:0:0:0:
164,336,174017,1,0,3:0:0:0:
324,352,174669,2,0,L|416:344,1,80,0|0,1:0|0:0,0:0:0:0:
460,288,175321,5,0,3:0:0:0:
320,208,175973,1,0,1:0:0:0:
440,100,176625,1,0,3:0:0:0:
288,52,177278,2,0,P|242:59|192:52,1,80,0|0,1:0|0:0,0:0:0:0:
136,92,177930,5,0,3:0:0:0:
264,188,178582,1,0,1:0:0:0:
208,340,179234,1,0,3:0:0:0:
60,280,179886,2,0,P|52:244|56:188,1,80,0|0,1:0|0:0,0:0:0:0:
256,192,180538,12,0,183147,0:0:0:0:
256,192,201408,5,0,3:0:0:0:
428,44,204017,6,0,L|440:156,1,80,4|0,3:2|0:0,0:0:0:0:
380,180,204669,2,0,L|376:264,1,80,8|0,0:0|0:0,0:0:0:0:
428,324,205321,2,0,P|352:312|268:338,1,160,2|8,3:2|0:0,0:0:0:0:
193,335,206299,1,2,0:0:0:0:
130,284,206625,6,0,L|126:108,1,160,0|8,3:0|0:0,0:0:0:0:
176,61,207604,1,2,0:0:0:0:
397,153,208582,1,8,0:0:0:0:
380,312,209234,6,0,L|492:300,2,80,0|2|8,3:0|0:0|0:0,0:0:0:0:
300,296,210212,1,0,0:0:0:0:
232,340,210538,2,0,P|156:356|72:340,1,160,2|8,3:2|0:0,0:0:0:0:
21,282,211517,1,0,0:0:0:0:
27,202,211843,6,0,L|18:110,1,80,0|2,3:0|0:0,0:0:0:0:
89,84,212495,2,0,P|131:91|175:83,1,80,8|0,0:0|0:0,0:0:0:0:
238,122,213147,2,0,P|222:206|242:294,1,160,2|8,3:2|0:0,0:0:0:0:
392,245,214452,6,0,P|408:161|388:73,2,160,2|8|2,3:2|0:0|3:2,0:0:0:0:
363,319,216082,1,0,0:0:0:0:
292,355,216408,2,0,L|201:350,1,80,8|2,0:0|0:0,0:0:0:0:
132,355,217060,6,0,L|52:351,1,80,0|2,3:0|0:0,0:0:0:0:
27,274,217712,2,0,P|39:239|37:191,1,80,8|0,0:0|0:0,0:0:0:0:
116,179,218365,2,0,P|105:110|124:23,1,160,2|8,3:2|0:0,0:0:0:0:
260,105,219669,6,0,L|348:97,1,80,4|2,3:2|0:0,0:0:0:0:
394,39,220321,1,8,0:0:0:0:
496,161,220973,2,0,P|424:197|324:181,1,160,0|8,3:0|0:0,0:0:0:0:
224,324,222278,6,0,L|120:316,1,80,2|2,3:2|0:0,0:0:0:0:
72,284,222930,1,8,0:0:0:0:
140,152,223582,2,0,P|180:160|232:152,1,80,0|2,3:0|0:0,0:0:0:0:
268,92,224234,2,0,P|308:84|360:92,1,80,8|8,0:0|0:0,0:0:0:0:
420,52,224886,6,0,P|404:132|420:212,2,160,4|8|2,3:2|0:0|3:2,0:0:0:0:
340,59,226517,2,0,L|239:49,1,80,0|8,0:0|0:0,0:0:0:0:
180,46,227169,1,2,0:0:0:0:
130,109,227495,2,0,L|134:189,1,80,0|2,3:0|0:0,0:0:0:0:
89,255,228147,2,0,P|85:293|98:342,1,80,8|2,0:0|0:0,0:0:0:0:
172,348,228799,6,0,L|260:344,1,80,0|2,3:0|0:0,0:0:0:0:
294,276,229452,2,0,P|382:284|466:244,1,160,2|4,1:3|3:2,0:0:0:0:
476,100,230756,6,0,P|435:97|388:105,1,80,8|0,0:0|0:0,0:0:0:0:
325,139,231408,2,0,P|277:143|229:127,1,80,2|0,3:2|0:0,0:0:0:0:
188,80,232060,2,0,L|82:85,1,80,8|2,0:0|0:0,0:0:0:0:
72,155,232712,6,0,B|60:238|82:316,1,160,0|8,3:0|0:0,0:0:0:0:
156,340,233691,1,0,0:0:0:0:
235,348,234017,2,0,L|332:342,1,80,2|0,3:2|0:0,0:0:0:0:
385,304,234669,2,0,P|395:263|393:212,1,80,8|2,0:0|0:0,0:0:0:0:
386,145,235321,6,0,P|314:129|198:153,1,160,4|8,3:2|0:0,0:0:0:0:
232,301,236625,2,0,P|160:317|44:293,1,160,2|8,3:2|0:0,0:0:0:0:
41,232,237604,1,2,0:0:0:0:
68,155,237930,6,0,L|56:59,2,80,2|2|8,3:2|0:0|0:0,0:0:0:0:
147,167,238908,1,2,0:0:0:0:
214,124,239234,2,0,L|297:118,1,80,2|2,3:2|0:0,0:0:0:0:
346,58,239886,2,0,P|383:66|446:54,1,80,8|2,0:0|0:0,0:0:0:0:
497,95,240538,6,0,L|489:263,1,160,4|8,3:2|0:0,0:0:0:0:
345,326,241843,1,2,3:2:0:0:
196,266,242495,1,8,0:0:0:0:
36,304,243147,6,0,L|28:224,1,80,2|2,3:2|0:0,0:0:0:0:
76,160,243799,1,8,0:0:0:0:
200,56,244452,2,0,P|240:64|304:56,1,80,2|2,3:2|0:0,0:0:0:0:
328,128,245104,6,0,B|356:120|392:136|392:136|420:120|420:120|444:136|492:120,1,160,8|4,0:0|3:2,0:0:0:0:
469,283,246408,6,0,P|428:288|374:278,1,80,8|0,0:0|0:0,0:0:0:0:
333,340,247060,2,0,L|249:336,1,80,2|0,3:2|0:0,0:0:0:0:
175,317,247712,2,0,L|79:323,1,80,8|2,0:0|0:0,0:0:0:0:
46,258,248365,2,0,P|70:178|54:78,1,160,0|8,3:0|0:0,0:0:0:0:
214,53,249669,6,0,P|214:93|230:141,1,80,0|2,3:0|0:0,0:0:0:0:
170,189,250321,2,0,P|254:173|329:183,1,160,2|4,1:3|3:2,0:0:0:0:
395,224,251299,1,2,0:0:0:0:
467,258,251625,2,0,L|472:171,1,80,8|0,0:0|0:0,0:0:0:0:
425,112,252278,2,0,L|429:32,1,80,2|0,3:2|0:0,0:0:0:0:
350,48,252930,2,0,P|309:58|240:48,1,80,8|2,0:0|0:0,0:0:0:0:
198,89,253582,6,0,L|106:85,2,80,0|2|8,3:0|0:0|0:0,0:0:0:0:
242,155,254560,1,0,0:0:0:0:
303,206,254886,2,0,L|382:202,1,80,2|0,3:2|0:0,0:0:0:0:
459,223,255538,2,0,P|467:263|459:303,1,80,2|2,1:2|0:0,0:0:0:0:
395,349,256191,6,0,L|211:345,1,160,4|8,3:2|0:0,0:0:0:0:
167,302,257169,1,0,0:0:0:0:
170,222,257495,2,0,L|286:226,1,80,2|0,3:2|0:0,0:0:0:0:
327,245,258147,2,0,L|443:241,1,80,8|2,0:0|0:0,0:0:0:0:
449,174,258799,6,0,P|425:94|457:6,2,160,0|8|2,3:0|0:0|3:2,0:0:0:0:
406,242,260430,1,2,0:0:0:0:
330,268,260756,2,0,L|338:380,1,80,8|2,0:0|0:0,0:0:0:0:
256,338,261408,6,0,P|176:318|72:338,1,160,4|8,3:2|0:0,0:0:0:0:
60,172,262712,2,0,L|52:72,1,80,2|2,3:2|0:0,0:0:0:0:
107,32,263365,1,8,0:0:0:0:
247,109,264017,6,0,L|411:105,1,160,2|8,3:2|0:0,0:0:0:0:
457,256,265321,2,0,P|417:264|369:256,1,80,2|2,3:2|0:0,0:0:0:0:
305,226,265973,1,8,0:0:0:0:
238,80,266625,6,0,P|149:66|58:88,1,160,4|8,3:2|0:0,0:0:0:0:
69,238,267930,2,0,L|73:322,2,80,2|2|8,3:2|0:0|0:0,0:0:0:0:
180,123,269234,6,0,L|264:115,1,80,2|2,3:2|0:0,0:0:0:0:
339,254,270212,2,0,L|259:246,1,80,2|2,0:0|0:0,0:0:0:0:
126,335,271191,1,2,0:0:0:0:
256,192,271843,12,0,277060,0:0:0:0:
