osu file format v14

[General]
AudioFilename: 04. Flicker.mp3
AudioLeadIn: 2000
PreviewTime: 91843
Countdown: 0
SampleSet: Soft
StackLeniency: 0.7
Mode: 0
LetterboxInBreaks: 0
WidescreenStoryboard: 1

[Editor]
Bookmarks: 10971,21406,31841,42276,52710,63145,73580,84015,94450,104884,115319,125754,130971,136189,141406,151841,162276,172710,183145,193580,204015,214450,224884,235319,240536,245088,245754,256189,261406,266623,271841
DistanceSpacing: 1.5
BeatDivisor: 4
GridSize: 4
TimelineZoom: 1.4

[Metadata]
Title:Flicker
TitleUnicode:Flicker
Artist:Porter Robinson
ArtistUnicode:Porter Robinson
Creator:Cyllinus
Version:Alonevpk's Insane
Source:
Tags:Worlds electronic ryuu Alonevpk instrumental japanese
BeatmapID:712895
BeatmapSetID:284931

[Difficulty]
HPDrainRate:6
CircleSize:3.5
OverallDifficulty:7
ApproachRate:9
SliderMultiplier:2.4
SliderTickRate:1

[Events]
//Background and Video events
0,0,"stolen bg.jpg",0,0
//Break Periods
2,52912,67765
2,183147,200756
//Storyboard Layer 0 (Background)
//Storyboard Layer 1 (Fail)
//Storyboard Layer 2 (Pass)
//Storyboard Layer 3 (Foreground)
//Storyboard Layer 4 (Overlay)
//Storyboard Sound Samples

[TimingPoints]
539,652.173913043478,4,2,1,64,1,0
10973,-100,4,2,1,72,0,0
68365,-100,4,2,1,64,0,0
89234,-100,4,2,1,64,0,0
91843,-100,4,2,1,24,0,0
91924,-100,4,2,1,24,0,0
93799,-133.333333333333,4,2,1,80,0,0
94370,-133.333333333333,4,2,1,8,0,0
94452,-75.187969924812,4,2,1,100,0,1
98365,-75.187969924812,4,2,1,8,0,0
99017,-75.187969924812,4,2,1,100,0,1
115321,-66.6666666666667,4,2,1,100,0,1
119886,-133.333333333333,4,2,1,80,0,0
120457,-133.333333333333,4,2,1,8,0,0
120538,-66.6666666666667,4,2,1,100,0,1
138799,-75.187969924812,4,2,1,80,0,0
141408,-90.0900900900901,4,2,1,72,0,0
159669,-90.0900900900901,4,2,1,80,0,0
161625,-133.333333333333,4,2,1,80,0,0
162196,-133.333333333333,4,2,1,8,0,0
162278,-100,4,2,1,100,0,0
180538,-100,4,2,1,72,0,0
183147,-100,4,2,1,64,0,0
203365,-133.333333333333,4,2,1,80,0,0
203935,-133.333333333333,4,2,1,8,0,0
204017,-75.187969924812,4,2,1,100,0,1
207930,-75.187969924812,4,2,1,8,0,0
208582,-75.187969924812,4,2,1,100,0,1
224886,-66.6666666666667,4,2,1,100,0,1
229452,-133.333333333333,4,2,1,80,0,0
230022,-133.333333333333,4,2,1,8,0,0
230104,-66.6666666666667,4,2,1,100,0,1
245104,-50,4,2,1,100,0,0
245430,-66.6666666666667,4,2,1,80,0,0
245756,-66.6666666666667,4,2,1,100,0,1
250321,-133.333333333333,4,2,1,80,0,0
250892,-133.333333333333,4,2,1,8,0,0
250973,-66.6666666666667,4,2,1,100,0,1
255538,-66.6666666666667,4,2,1,100,0,0
255783,-66.6666666666667,4,2,1,8,0,0
255865,-66.6666666666667,4,2,1,100,0,0
256191,-66.6666666666667,4,2,1,100,0,1
269234,-75.187969924812,4,2,1,80,0,0
270538,-100,4,2,1,80,0,0
271843,-100,4,2,1,32,0,0

[Colours]
Combo1 : 70,70,170
Combo2 : 250,250,60
Combo3 : 80,200,210
Combo4 : 80,180,100
Combo5 : 250,80,120

[HitObjects]
416,119,539,6,0,P|386:116|360:104,1,60,2|0,0:0|0:0,0:0:0:0:
299,37,865,2,0,P|247:65|224:120,1,120,0|0,0:0|0:0,0:0:0:0:
112,144,1517,2,0,P|199:138|256:204,1,180,2|0,0:0|0:0,0:0:0:0:
250,293,2169,2,0,P|286:293|318:273,1,60,0|0,0:0|0:0,0:0:0:0:
355,208,2495,1,0,0:0:0:0:
355,208,2658,1,0,0:0:0:0:
317,132,2821,1,0,0:0:0:0:
317,132,2984,1,0,0:0:0:0:
405,51,3147,6,0,P|421:63|469:75,1,60,2|0,0:0|0:0,0:0:0:0:
446,163,3473,2,0,P|396:194|378:250,1,120,0|0,0:0|0:0,0:0:0:0:
444,335,4125,2,0,P|387:268|300:267,1,180,2|0,0:0|0:0,0:0:0:0:
213,293,4778,2,0,P|230:325|273:349,1,60,2|0,0:0|0:0,0:0:0:0:
361,179,5104,1,0,0:0:0:0:
361,179,5267,1,0,0:0:0:0:
298,266,5430,1,2,0:0:0:0:
298,266,5593,1,0,0:0:0:0:
212,180,5756,6,0,P|204:152|216:96,1,60,2|0,0:0|0:0,0:0:0:0:
136,40,6082,2,0,P|121:97|83:143,1,120,0|0,0:0|0:0,0:0:0:0:
329,154,6734,2,0,B|224:148|268:212|128:204,1,180,2|0,0:0|0:0,0:0:0:0:
364,240,7386,2,0,P|356:260|360:320,1,60,0|0,0:0|0:0,0:0:0:0:
420,164,7712,2,0,P|419:134|404:104,1,60,0|0,0:0|0:0,0:0:0:0:
456,256,8038,2,0,P|482:270|511:276,1,60,0|0,0:0|0:0,0:0:0:0:
340,160,8365,5,4,0:3:0:0:
459,86,8528,1,4,0:3:0:0:
415,190,8691,1,4,0:3:0:0:
392,24,8854,1,4,0:3:0:0:
264,132,9017,1,8,0:3:0:0:
415,190,9180,2,0,P|436:172|456:72,1,120,4|8,0:3|0:3,0:0:0:0:
278,112,9669,5,4,0:3:0:0:
334,292,9832,1,4,0:3:0:0:
206,176,9995,1,4,0:3:0:0:
262,356,10158,1,4,0:3:0:0:
144,260,10321,5,8,0:0:0:0:
140,96,10484,1,8,0:0:0:0:
280,164,10647,1,8,0:0:0:0:
76,188,10810,1,8,0:0:0:0:
336,248,10973,6,0,P|368:216|376:136,1,120,4|0,3:2|3:0,0:0:0:0:
320,40,11462,1,2,0:0:0:0:
208,108,11625,2,0,P|229:130|256:144,1,60,8|0,0:0|0:0,0:0:0:0:
416,52,11952,1,2,0:0:0:0:
372,176,12115,2,0,P|360:216|404:304,1,120,0|0,3:0|3:0,0:0:0:0:
416,88,12604,2,0,P|376:76|292:124,1,120,2|8,3:2|0:0,0:0:0:0:
236,172,13093,1,0,0:0:0:0:
236,172,13256,2,0,L|152:164,1,60,2|0,0:0|0:0,0:0:0:0:
312,260,13582,6,0,L|445:247,1,120,0|0,3:0|3:0,0:0:0:0:
496,320,14071,1,2,0:0:0:0:
396,164,14234,2,0,P|388:136|392:96,1,60,8|0,0:0|0:0,0:0:0:0:
512,192,14560,1,2,0:0:0:0:
376,288,14723,2,0,P|344:300|256:268,1,120,0|0,3:0|3:0,0:0:0:0:
380,104,15212,2,0,P|379:138|319:209,1,120,2|8,3:2|0:0,0:0:0:0:
281,119,15702,1,0,0:0:0:0:
456,208,15865,2,0,L|464:284,1,60,2|0,0:0|0:0,0:0:0:0:
212,236,16191,6,0,L|344:224,1,120,0|0,3:0|3:2,0:0:0:0:
428,216,16680,1,2,0:0:0:0:
384,316,16843,2,0,L|303:323,1,60,8|0,0:0|0:0,0:0:0:0:
240,144,17169,1,2,0:0:0:0:
200,232,17332,2,0,P|168:244|88:208,1,120,0|0,3:0|3:0,0:0:0:0:
144,28,17821,2,0,L|156:148,1,120,2|8,3:2|0:0,0:0:0:0:
144,244,18310,1,0,0:0:0:0:
16,208,18473,2,0,P|44:180|88:172,1,60,2|0,0:0|0:0,0:0:0:0:
156,332,18799,6,0,P|124:332|56:252,1,120,0|2,3:0|3:2,0:0:0:0:
80,96,19288,1,0,0:0:0:0:
138,172,19452,2,0,L|144:232,1,60,8|0,0:0|0:0,0:0:0:0:
184,80,19778,1,2,0:0:0:0:
242,156,19941,2,0,L|247:215,1,60,0|0,3:0|0:0,0:0:0:0:
288,64,20267,1,0,0:0:0:0:
346,140,20430,2,0,L|351:199,1,60,2|0,3:2|0:0,0:0:0:0:
404,288,20756,2,0,P|372:320|336:332,1,60,8|0,0:0|0:0,0:0:0:0:
448,200,21082,2,0,P|473:215|492:238,1,60,2|0,0:0|0:0,0:0:0:0:
360,144,21408,6,0,P|392:112|488:104,1,120,4|0,3:2|3:2,0:0:0:0:
360,240,21897,1,2,0:0:0:0:
280,100,22060,2,0,L|276:28,1,60,8|0,0:0|0:0,0:0:0:0:
272,196,22386,1,2,0:0:0:0:
272,196,22549,2,0,P|260:216|160:244,1,120,0|0,3:0|3:0,0:0:0:0:
92,100,23038,2,0,P|150:108|190:151,1,120,2|8,3:2|0:0,0:0:0:0:
132,328,23528,1,0,0:0:0:0:
81,246,23691,2,0,P|89:218|104:192,1,60,2|0,0:0|0:0,0:0:0:0:
280,196,24017,6,0,P|268:216|168:244,1,120,0|0,3:0|3:2,0:0:0:0:
192,152,24506,1,2,0:0:0:0:
272,100,24669,2,0,P|312:104|344:124,1,60,8|0,0:0|0:0,0:0:0:0:
376,252,24995,1,2,0:0:0:0:
288,296,25158,2,0,P|258:295|230:283,2,60,0|0|0,3:0|0:0|3:0,0:0:0:0:
408,276,25647,6,0,P|428:256|444:204,1,60,2|0,3:2|0:0,0:0:0:0:
313,147,25973,2,0,P|293:167|277:219,1,60,8|0,0:0|0:0,0:0:0:0:
144,296,26299,2,0,P|172:288|212:248,1,60,2|0,0:0|0:0,0:0:0:0:
85,213,26625,6,0,P|47:258|45:316,1,120,0|0,3:0|3:2,0:0:0:0:
124,372,27115,1,2,0:0:0:0:
176,168,27278,2,0,P|168:152|124:116,1,60,8|0,0:0|0:0,0:0:0:0:
36,120,27604,1,2,0:0:0:0:
84,212,27767,2,0,P|139:233|197:221,1,120,0|0,3:0|3:0,0:0:0:0:
284,156,28256,2,0,L|291:275,1,120,2|8,3:2|0:0,0:0:0:0:
304,372,28745,1,0,0:0:0:0:
200,264,28908,2,0,P|208:231|240:198,1,60,2|0,0:0|0:0,0:0:0:0:
388,204,29234,5,4,0:3:0:0:
352,312,29397,1,4,0:3:0:0:
280,224,29560,1,4,0:3:0:0:
468,112,29723,1,4,0:3:0:0:
480,232,29886,1,8,0:3:0:0:
358,133,30049,2,0,P|355:100|401:22,1,120,4|8,0:3|0:3,0:0:0:0:
443,180,30538,6,0,P|423:203|388:222,1,60,4|4,0:3|0:3,0:0:0:0:
267,141,30865,2,0,P|285:163|293:192,1,60,4|4,0:3|0:3,0:0:0:0:
158,276,31191,1,8,0:0:0:0:
158,276,31272,1,8,0:0:0:0:
158,276,31354,2,0,P|186:262|225:265,1,60,8|8,0:0|0:0,0:0:0:0:
312,292,31680,1,8,0:0:0:0:
264,164,31843,6,0,P|256:128|296:48,1,120,4|2,3:2|0:0,0:0:0:0:
384,132,32332,1,0,0:0:0:0:
348,244,32495,2,0,P|320:268|231:274,1,120,8|0,0:0|0:0,0:0:0:0:
148,160,32984,2,0,B|224:148|224:148|264:164,1,120,2|0,0:0|0:0,0:0:0:0:
96,256,33473,2,0,L|180:240,1,60,2|0,0:0|3:0,0:0:0:0:
68,356,33799,2,0,L|152:340,1,60,8|0,0:0|3:0,0:0:0:0:
220,320,34125,1,2,0:0:0:0:
96,256,34288,1,0,0:0:0:0:
212,200,34452,6,0,P|240:156|212:72,1,120,2|2,0:0|0:0,0:0:0:0:
108,208,34941,1,0,0:0:0:0:
108,208,35104,2,0,P|112:237|125:264,1,60,8|0,0:0|0:0,0:0:0:0:
256,120,35430,2,0,P|228:108|199:106,1,60,0|2,0:0|0:0,0:0:0:0:
204,204,35756,1,0,0:0:0:0:
204,204,35837,1,0,0:0:0:0:
204,204,35919,1,2,0:0:0:0:
204,204,36000,1,0,0:0:0:0:
204,204,36082,2,0,L|256:248,2,60,2|0|8,0:0|0:0|0:0,0:0:0:0:
104,112,36571,1,0,0:0:0:0:
172,44,36734,2,0,P|196:36|256:36,1,60,2|0,0:0|0:0,0:0:0:0:
104,112,37060,6,0,P|76:116|-4:64,1,120,2|2,0:0|3:2,0:0:0:0:
172,44,37549,1,0,0:0:0:0:
200,132,37712,2,0,L|180:268,1,120,8|0,0:0|0:0,0:0:0:0:
96,308,38202,2,0,P|80:272|104:184,1,120,2|0,3:2|3:0,0:0:0:0:
280,292,38691,2,0,P|260:320|224:348,1,60,2|0,3:2|0:0,0:0:0:0:
212,196,39017,2,0,P|240:180|284:176,1,60,8|0,0:0|0:0,0:0:0:0:
388,264,39343,2,0,P|393:291|376:352,1,60,2|0,0:0|0:0,0:0:0:0:
220,336,39669,6,0,P|176:336|116:308,2,80,2|0|0,3:2|0:0|0:0,0:0:0:0:
348,292,40321,2,0,P|392:292|452:320,2,80,10|0|0,0:0|0:0|0:0,0:0:0:0:
196,240,40973,6,0,P|187:218|184:168,1,60,2|0,0:0|0:0,0:0:0:0:
327,181,41299,2,0,P|325:210|316:239,1,60,2|0,3:2|0:0,0:0:0:0:
148,164,41625,2,0,P|152:132|172:88,1,60,10|0,0:0|0:0,0:0:0:0:
350,106,41952,2,0,P|360:134|364:164,1,60,2|0,0:0|0:0,0:0:0:0:
256,324,42278,5,2,0:0:0:0:
80,112,42604,6,0,P|72:84|76:48,1,60,0|2,0:0|0:0,0:0:0:0:
176,68,42930,1,8,0:0:0:0:
252,244,43256,2,0,P|220:268|124:252,2,120,2|0|2,0:0|0:0|0:0,0:0:0:0:
296,156,44071,1,0,3:0:0:0:
296,156,44234,2,0,P|316:148|364:148,1,60,8|0,0:0|3:0,0:0:0:0:
456,216,44560,2,0,P|436:224|388:224,1,60,0|0,0:0|0:0,0:0:0:0:
220,192,44886,6,0,P|212:144|264:76,1,120,2|0,0:0|0:0,0:0:0:0:
344,80,45375,1,2,0:0:0:0:
156,52,45538,2,0,P|164:24|200:-12,1,60,8|0,0:0|0:0,0:0:0:0:
304,152,45865,2,0,P|320:184|312:232,1,60,2|0,0:0|0:0,0:0:0:0:
152,220,46191,6,0,L|48:204,2,80,2|0|0,0:0|0:0|0:0,0:0:0:0:
312,292,46843,2,0,L|416:276,2,80,10|0|0,0:0|0:0|0:0,0:0:0:0:
100,300,47495,6,0,P|132:256|228:248,1,120,2|0,0:0|0:0,0:0:0:0:
192,238,47984,1,2,0:0:0:0:
265,185,48147,2,0,P|261:165|273:113,1,60,8|0,0:0|0:0,0:0:0:0:
192,238,48473,2,0,P|160:266|64:266,2,120,2|2|2,0:0|0:0|0:0,0:0:0:0:
200,140,49288,1,0,0:0:0:0:
261,301,49452,2,0,P|305:313|373:285,1,120,8|2,0:0|0:0,0:0:0:0:
376,184,49941,1,0,0:0:0:0:
436,352,50104,6,0,L|512:344,1,60,4|4,0:3|0:3,0:0:0:0:
304,216,50430,2,0,L|244:222,1,60,4|4,0:3|0:3,0:0:0:0:
184,296,50756,1,8,0:3:0:0:
396,232,50919,6,0,P|396:189|336:128,1,120,4|8,0:3|0:3,0:0:0:0:
188,220,51408,5,4,0:3:0:0:
328,300,51571,1,4,0:3:0:0:
128,156,51734,2,0,P|84:152|48:160,1,60,4|4,0:3|0:3,0:0:0:0:
184,364,52060,5,4,0:3:0:0:
288,220,52223,1,4,0:3:0:0:
72,292,52386,2,0,P|101:294|131:290,1,60,4|4,0:3|0:3,0:0:0:0:
256,120,52712,1,4,0:0:0:0:
64,240,68365,5,2,3:2:0:0:
163,218,68528,1,0,0:0:0:0:
86,339,68691,1,0,0:0:0:0:
184,317,68854,2,0,P|236:308|312:332,2,120,2|2|0,0:0|0:0|0:0,0:0:0:0:
312,232,69669,5,2,0:0:0:0:
392,284,69832,1,0,0:0:0:0:
380,380,69995,1,0,0:0:0:0:
300,324,70158,2,0,P|242:308|184:317,2,120,2|2|0,0:0|0:0|0:0,0:0:0:0:
380,380,70973,5,0,3:0:0:0:
256,192,71055,12,0,72930,0:0:0:0:
176,366,73582,6,0,P|136:322|128:264,1,120,2|0,3:2|0:0,0:0:0:0:
144,160,74071,1,0,0:0:0:0:
230,220,74234,2,0,L|227:280,1,60,0|0,3:0|0:0,0:0:0:0:
40,196,74560,2,0,L|42:136,1,60,2|0,0:0|0:0,0:0:0:0:
180,228,74886,6,0,P|188:256|180:352,1,120,0|0,3:0|0:0,0:0:0:0:
292,268,75538,2,0,P|320:260|416:268,1,120,0|0,3:0|0:0,0:0:0:0:
332,156,76191,2,0,P|324:128|332:32,1,120,0|0,3:0|0:0,0:0:0:0:
415,206,76843,2,0,L|407:294,2,60,2|2|2,3:2|0:0|0:0,0:0:0:0:
444,132,77332,2,0,L|424:320,1,180,2|2,0:0|0:0,0:0:0:0:
336,204,78147,2,0,P|312:140|328:68,1,120,2|2,3:2|0:0,0:0:0:0:
332,48,78799,6,0,P|292:76|200:68,1,120,2|0,3:2|0:0,0:0:0:0:
152,28,79288,1,0,0:0:0:0:
196,160,79452,2,0,P|228:168|264:168,1,60,0|0,3:0|0:0,0:0:0:0:
380,198,79778,2,0,P|356:215|328:227,1,60,2|0,0:0|0:0,0:0:0:0:
184,252,80104,6,0,P|212:288|284:304,1,120,0|0,3:0|0:0,0:0:0:0:
368,144,80756,2,0,P|309:138|261:171,1,120,0|0,3:0|0:0,0:0:0:0:
128,288,81408,2,0,P|156:306|252:281,1,120,0|0,3:0|0:0,0:0:0:0:
316,204,82060,2,0,P|332:176|336:116,2,60,2|2|2,3:2|0:0|0:0,0:0:0:0:
248,280,82549,2,0,P|292:304|408:252,1,180,2|2,0:0|0:0,0:0:0:0:
196,192,83365,2,0,L|315:203,1,120,2|2,3:2|0:0,0:0:0:0:
120,152,84017,6,0,L|239:163,1,120,2|0,3:2|0:0,0:0:0:0:
336,172,84506,1,0,0:0:0:0:
284,256,84669,2,0,L|224:250,1,60,0|0,3:0|0:0,0:0:0:0:
348,100,84995,2,0,L|407:105,1,60,2|0,0:0|0:0,0:0:0:0:
284,168,85321,6,0,P|264:140|280:36,1,120,0|0,3:0|0:0,0:0:0:0:
380,196,85973,2,0,P|365:227|267:265,1,120,0|0,3:0|0:0,0:0:0:0:
357,99,86625,2,0,P|391:95|473:161,1,120,0|0,3:0|0:0,0:0:0:0:
288,264,87278,2,0,P|256:260|208:232,2,60,2|2|2,3:2|0:0|0:0,0:0:0:0:
252,148,87767,2,0,P|180:136|104:208,1,180,2|2,0:0|0:0,0:0:0:0:
189,330,88582,2,0,P|247:318|288:275,1,120,2|2,3:2|0:0,0:0:0:0:
376,124,89234,5,2,3:2:0:0:
289,173,89397,1,0,0:0:0:0:
376,224,89560,2,0,P|412:220|452:188,1,60,2|0,0:0|0:0,0:0:0:0:
292,84,89886,5,0,3:0:0:0:
292,260,90049,1,0,0:0:0:0:
444,171,90212,2,0,P|436:136|412:104,1,60,2|0,0:0|0:0,0:0:0:0:
244,168,90538,5,0,3:0:0:0:
392,272,90702,1,0,0:0:0:0:
320,88,90865,2,0,P|292:68|240:60,1,60,2|0,0:0|0:0,0:0:0:0:
156,216,91191,5,0,3:0:0:0:
284,192,91354,1,0,0:0:0:0:
112,88,91517,2,0,P|96:106|82:146,1,60,2|0,0:0|0:0,0:0:0:0:
256,344,91843,5,0,3:0:0:0:
256,192,91924,12,0,93473,0:0:0:0:
256,344,93799,6,0,L|256:374,7,22.5000008583069,2|0|0|0|0|0|0|0,1:3|0:0|0:0|0:0|0:0|0:0|0:0|0:0,0:0:0:0:
276,324,94452,6,0,P|300:293|309:255,1,79.7999967123414,4|0,3:2|0:0,0:0:0:0:
120,228,94778,2,0,P|118:267|135:304,1,79.7999967123414,0|0,0:0|0:0,0:0:0:0:
320,144,95104,2,0,P|297:112|263:93,1,79.7999967123414,8|2,0:0|0:0,0:0:0:0:
216,248,95430,1,0,0:0:0:0:
400,184,95593,1,0,0:0:0:0:
212,28,95756,2,0,P|174:39|145:66,1,79.7999967123414,2|0,3:2|0:0,0:0:0:0:
288,236,96082,1,0,0:0:0:0:
160,160,96245,1,2,0:0:0:0:
376,104,96408,2,0,P|361:66|332:40,2,79.7999967123414,8|0|2,0:0|0:0|0:0,0:0:0:0:
256,208,96897,1,0,0:0:0:0:
345,376,97060,5,0,3:0:0:0:
468,244,97223,1,0,0:0:0:0:
339,138,97386,2,0,P|299:148|244:194,1,79.7999967123414,2|0,0:0|0:0,0:0:0:0:
252,316,97712,1,8,0:0:0:0:
342,250,97875,1,2,0:0:0:0:
164,148,98038,1,0,0:0:0:0:
216,324,98202,1,2,0:0:0:0:
216,324,99017,6,0,P|255:324|291:306,1,79.7999967123414,8|0,0:0|0:0,0:0:0:0:
344,212,99343,2,0,P|315:184|303:146,1,79.7999967123414,2|0,0:0|0:0,0:0:0:0:
472,60,99669,6,0,L|463:139,1,79.7999967123414,0|0,3:0|0:0,0:0:0:0:
352,184,99995,1,2,0:0:0:0:
376,0,100158,1,0,0:0:0:0:
256,152,100321,2,0,P|219:135|194:104,1,79.7999967123414,8|2,0:0|0:0,0:0:0:0:
364,92,100647,1,0,0:0:0:0:
268,248,100810,1,0,0:0:0:0:
102,140,100973,2,0,P|93:102|104:64,1,79.7999967123414,2|0,3:2|0:0,0:0:0:0:
256,32,101299,1,0,0:0:0:0:
208,180,101462,1,2,0:0:0:0:
88,256,101625,2,0,P|48:259|12:243,1,79.7999967123414,8|0,0:0|0:0,0:0:0:0:
208,180,101952,2,0,P|247:183|279:206,1,79.7999967123414,2|0,0:0|0:0,0:0:0:0:
204,300,102278,5,0,3:0:0:0:
72,160,102441,1,0,0:0:0:0:
260,116,102604,2,0,P|273:153|268:196,1,79.7999967123414,2|0,0:0|0:0,0:0:0:0:
108,100,102930,2,0,P|101:62|112:24,1,79.7999967123414,8|2,0:0|0:0,0:0:0:0:
260,116,103256,1,0,0:0:0:0:
172,232,103419,1,0,0:0:0:0:
352,260,103582,2,0,P|372:208|352:152,1,79.7999967123414,2|0,3:2|0:0,0:0:0:0:
228,136,103908,2,0,P|208:188|228:244,1,79.7999967123414,2|0,0:0|0:0,0:0:0:0:
352,260,104234,1,8,0:0:0:0:
340,108,104397,1,0,0:0:0:0:
276,320,104560,2,0,P|300:344|380:348,1,79.7999967123414,2|0,0:0|0:0,0:0:0:0:
168,168,104886,6,0,L|156:264,1,79.7999967123414,2|0,3:2|0:0,0:0:0:0:
148,352,105212,1,2,0:0:0:0:
272,224,105375,1,0,0:0:0:0:
172,76,105538,2,0,P|133:83|100:105,1,79.7999967123414,8|0,0:0|0:0,0:0:0:0:
304,236,105865,1,2,0:0:0:0:
84,196,106028,1,0,0:0:0:0:
304,140,106191,2,0,P|320:116|320:48,1,79.7999967123414,2|0,3:2|0:0,0:0:0:0:
224,4,106517,1,0,0:0:0:0:
208,228,106680,2,0,L|200:344,2,79.7999967123414,2|8|0,0:0|0:0|0:0,0:0:0:0:
215,103,107169,2,0,P|192:92|112:104,1,79.7999967123414,2|0,0:0|0:0,0:0:0:0:
36,212,107495,5,0,3:0:0:0:
196,240,107658,1,0,0:0:0:0:
64,320,107821,1,2,0:0:0:0:
240,220,107984,1,0,0:0:0:0:
188,368,108147,1,8,0:0:0:0:
140,188,108310,1,2,0:0:0:0:
316,316,108473,1,0,0:0:0:0:
100,276,108636,1,0,0:0:0:0:
200,136,108799,6,0,P|235:117|295:128,1,79.7999967123414,2|0,3:2|0:0,0:0:0:0:
228,308,109125,2,0,P|194:286|173:229,1,79.7999967123414,2|0,0:0|0:0,0:0:0:0:
392,192,109452,1,8,0:0:0:0:
336,340,109615,1,0,0:0:0:0:
222,224,109778,2,0,P|252:192|320:184,1,79.7999967123414,2|0,0:0|0:0,0:0:0:0:
276,352,110104,6,0,P|244:336|244:200,1,159.599993424683,4|2,3:2|0:0,0:0:0:0:
300,268,110593,1,0,0:0:0:0:
144,344,110756,2,0,P|112:356|44:340,1,79.7999967123414,8|0,0:0|0:0,0:0:0:0:
0,208,111082,2,0,L|168:228,1,159.599993424683,2|0,0:0|3:0,0:0:0:0:
224,296,111571,1,0,0:0:0:0:
164,140,111734,2,0,P|160:116|188:48,1,79.7999967123414,2|0,0:0|0:0,0:0:0:0:
308,140,112060,2,0,P|312:164|284:232,1,79.7999967123414,8|0,0:0|0:0,0:0:0:0:
284,40,112386,2,0,P|308:36|376:64,1,79.7999967123414,2|0,0:0|0:0,0:0:0:0:
188,236,112712,6,0,P|128:232|68:128,1,159.599993424683,2|2,3:2|0:0,0:0:0:0:
236,116,113202,1,0,0:0:0:0:
216,224,113365,2,0,L|204:328,1,79.7999967123414,8|0,0:0|0:0,0:0:0:0:
136,164,113691,2,0,P|156:144|296:168,1,159.599993424683,2|0,0:0|3:0,0:0:0:0:
344,240,114180,1,0,0:0:0:0:
216,220,114343,2,0,P|200:204|192:124,1,79.7999967123414,2|0,0:0|0:0,0:0:0:0:
312,24,114669,1,8,0:0:0:0:
312,24,114750,1,8,0:0:0:0:
312,24,114832,2,0,L|400:32,1,79.7999967123414,8|8,0:0|0:0,0:0:0:0:
504,36,115158,1,8,0:0:0:0:
328,128,115321,6,0,P|291:133|193:42,1,180.000006866455,4|2,3:2|0:0,0:0:0:0:
356,32,115810,1,0,0:0:0:0:
304,228,115973,2,0,L|196:220,1,90.0000034332277,8|2,0:0|0:0,0:0:0:0:
432,176,116299,1,0,0:0:0:0:
328,312,116462,1,0,0:0:0:0:
308,132,116625,2,0,P|360:124|448:224,1,180.000006866455,2|0,3:2|0:0,0:0:0:0:
456,312,117115,1,2,0:0:0:0:
284,272,117278,2,0,P|313:238|353:219,1,90.0000034332277,8|0,0:0|0:0,0:0:0:0:
440,328,117604,1,2,0:0:0:0:
472,164,117767,1,0,0:0:0:0:
344,340,117930,6,0,P|256:356|196:296,1,180.000006866455,0|2,3:0|0:0,0:0:0:0:
164,196,118419,1,0,0:0:0:0:
320,111,118582,1,8,0:0:0:0:
276,264,118745,1,0,0:0:0:0:
184,80,118908,1,2,0:0:0:0:
320,111,119071,1,0,0:0:0:0:
128,204,119234,1,0,3:0:0:0:
256,64,119560,5,2,0:0:0:0:
40,144,119886,6,0,P|115:131|172:181,1,157.500006008148,2|0,1:3|0:0,0:0:0:0:
184,208,120538,6,0,L|176:112,1,90.0000034332277,4|0,3:2|0:0,0:0:0:0:
312,8,120865,2,0,L|304:97,1,90.0000034332277,2|0,0:0|0:0,0:0:0:0:
152,292,121191,2,0,P|120:272|96:212,1,90.0000034332277,8|2,0:0|0:0,0:0:0:0:
108,100,121517,1,0,0:0:0:0:
228,140,121680,1,0,0:0:0:0:
36,160,121843,2,0,P|32:48|104:8,1,180.000006866455,2|0,3:2|0:0,0:0:0:0:
140,124,122332,1,2,0:0:0:0:
80,252,122495,2,0,P|56:260|-16:248,1,90.0000034332277,8|0,0:0|0:0,0:0:0:0:
140,124,122821,6,0,P|164:96|316:124,1,180.000006866455,2|0,0:0|3:0,0:0:0:0:
340,216,123310,1,0,0:0:0:0:
232,176,123473,2,0,L|243:86,1,90.0000034332277,2|0,0:0|0:0,0:0:0:0:
348,232,123799,2,0,L|332:356,1,90.0000034332277,8|2,0:0|0:0,0:0:0:0:
244,356,124125,1,0,0:0:0:0:
208,192,124288,1,0,0:0:0:0:
156,316,124452,2,0,P|72:340|0:290,1,180.000006866455,2|0,3:2|0:0,0:0:0:0:
140,140,124941,1,2,0:0:0:0:
88,240,125104,2,0,L|116:32,1,180.000006866455,8|2,0:0|0:0,0:0:0:0:
348,60,125756,6,0,L|460:68,1,90.0000034332277,4|0,3:2|0:0,0:0:0:0:
388,180,126082,1,2,0:0:0:0:
240,52,126245,1,0,0:0:0:0:
388,4,126408,1,8,0:0:0:0:
288,168,126571,1,2,0:0:0:0:
224,84,126734,2,0,P|216:56|224:-8,1,90.0000034332277,0|0,0:0|0:0,0:0:0:0:
208,200,127060,2,0,P|187:220|128:246,1,90.0000034332277,2|0,3:2|0:0,0:0:0:0:
56,168,127386,1,0,0:0:0:0:
212,100,127549,2,0,P|252:108|304:168,2,90.0000034332277,2|8|0,0:0|0:0|0:0,0:0:0:0:
72,124,128038,2,0,P|52:96|56:24,1,90.0000034332277,2|0,0:0|0:0,0:0:0:0:
176,256,128365,5,2,3:2:0:0:
52,212,128528,1,0,0:0:0:0:
244,172,128691,2,0,P|268:200|280:268,1,90.0000034332277,2|0,0:0|0:0,0:0:0:0:
352,359,129017,2,0,P|368:318|400:287,1,90.0000034332277,8|0,0:0|0:0,0:0:0:0:
460,173,129343,2,0,P|416:178|373:165,1,90.0000034332277,2|0,0:0|0:0,0:0:0:0:
332,68,129669,1,2,3:2:0:0:
372,268,129832,1,0,0:0:0:0:
256,152,129995,1,2,0:0:0:0:
424,92,130158,1,0,0:0:0:0:
264,256,130321,6,0,B|160:268|196:188|72:208,1,180.000006866455,8|2,0:0|0:0,0:0:0:0:
272,44,130973,6,0,P|316:36|392:144,1,180.000006866455,4|2,3:2|0:0,0:0:0:0:
348,228,131462,1,0,0:0:0:0:
416,48,131625,2,0,P|428:36|500:20,1,90.0000034332277,8|0,0:0|0:0,0:0:0:0:
488,128,131952,2,0,L|272:120,1,180.000006866455,2|0,0:0|0:0,0:0:0:0:
204,88,132441,1,0,0:0:0:0:
336,232,132604,1,2,0:0:0:0:
212,208,132767,1,0,0:0:0:0:
344,140,132930,2,0,P|376:144|420:184,1,90.0000034332277,8|0,0:0|0:0,0:0:0:0:
248,132,133256,2,0,P|252:100|292:56,1,90.0000034332277,2|0,0:0|0:0,0:0:0:0:
292,224,133582,6,0,P|280:292|184:344,1,180.000006866455,0|2,3:0|0:0,0:0:0:0:
184,236,134071,1,0,0:0:0:0:
348,344,134234,2,0,P|392:346|431:325,1,90.0000034332277,8|0,0:0|0:0,0:0:0:0:
464,224,134560,2,0,L|486:45,1,180.000006866455,2|0,0:0|3:0,0:0:0:0:
376,100,135049,1,0,0:0:0:0:
512,168,135212,1,2,0:0:0:0:
400,224,135375,1,0,0:0:0:0:
512,272,135538,2,0,P|472:324|420:348,1,90.0000034332277,8|0,0:0|0:0,0:0:0:0:
376,100,135865,2,0,P|441:108|487:141,1,90.0000034332277,2|0,0:0|0:0,0:0:0:0:
368,236,136191,6,0,B|292:280|268:204|168:252,1,180.000006866455,0|2,3:0|0:0,0:0:0:0:
236,344,136680,1,0,0:0:0:0:
316,148,136843,2,0,P|320:120|288:52,1,90.0000034332277,8|0,0:0|0:0,0:0:0:0:
68,134,137169,2,0,P|147:170|220:124,1,180.000006866455,2|0,0:0|3:0,0:0:0:0:
228,16,137658,1,0,0:0:0:0:
169,263,137821,2,0,P|212:251|249:226,1,90.0000034332277,2|0,0:0|0:0,0:0:0:0:
352,192,138147,1,8,0:0:0:0:
296,324,138310,1,0,0:0:0:0:
436,204,138473,1,2,0:0:0:0:
366,369,138636,1,0,0:0:0:0:
512,176,138799,6,0,P|480:132|424:120,1,79.7999967123414,4|4,0:3|0:3,0:0:0:0:
336,88,139125,1,4,0:3:0:0:
416,216,139288,1,4,0:3:0:0:
484,21,139452,6,0,P|429:20|386:57,1,79.7999967123414,4|4,0:3|0:3,0:0:0:0:
307,108,139778,1,4,0:3:0:0:
458,121,139941,1,4,0:3:0:0:
311,0,140104,6,0,P|306:54|340:99,1,79.7999967123414,4|4,0:3|0:3,0:0:0:0:
385,181,140430,1,4,0:3:0:0:
408,33,140593,1,4,0:3:0:0:
256,164,140756,5,8,0:0:0:0:
256,164,140837,1,8,0:0:0:0:
256,164,140919,2,0,L|160:152,1,79.7999967123414,8|8,0:0|0:0,0:0:0:0:
80,200,141245,1,8,0:0:0:0:
208,44,141408,6,0,P|172:24|76:56,1,133.200003251953,4|0,3:2|0:0,0:0:0:0:
48,132,141897,1,2,0:0:0:0:
137,176,142060,2,0,P|147:145|147:111,1,66.6000016259766,8|0,0:0|0:0,0:0:0:0:
240,200,142386,2,0,P|220:240|252:332,1,133.200003251953,2|0,0:0|0:0,0:0:0:0:
328,360,142875,1,0,0:0:0:0:
371,266,143038,2,0,P|339:259|306:259,1,66.6000016259766,2|0,0:0|0:0,0:0:0:0:
448,344,143365,2,0,L|464:196,1,133.200003251953,8|2,0:0|0:0,0:0:0:0:
472,120,143854,1,0,0:0:0:0:
352,196,144017,6,0,P|276:199|220:144,1,133.200003251953,0|0,0:0|0:0,0:0:0:0:
216,60,144506,1,2,0:0:0:0:
363,66,144669,2,0,P|340:91|312:108,1,66.6000016259766,8|0,0:0|0:0,0:0:0:0:
125,112,144995,2,0,P|161:108|233:168,1,133.200003251953,2|0,0:0|0:0,0:0:0:0:
224,260,145484,1,0,0:0:0:0:
140,300,145647,2,0,P|104:296|64:272,1,66.6000016259766,2|0,0:0|0:0,0:0:0:0:
232,165,145973,2,0,L|384:165,1,133.200003251953,8|10,0:0|0:0,0:0:0:0:
460,164,146462,1,8,0:0:0:0:
300,256,146625,6,0,L|148:256,1,133.200003251953,0|0,0:0|0:0,0:0:0:0:
72,257,147115,1,2,0:0:0:0:
57,350,147278,2,0,P|90:350|120:336,1,66.6000016259766,8|0,0:0|0:0,0:0:0:0:
143,193,147604,2,0,P|87:160|24:176,1,133.200003251953,2|0,0:0|0:0,0:0:0:0:
192,272,148093,1,0,0:0:0:0:
76,321,148256,2,0,P|68:289|72:257,1,66.6000016259766,2|0,0:0|0:0,0:0:0:0:
210,148,148582,2,0,P|182:172|74:144,1,133.200003251953,8|2,0:0|0:0,0:0:0:0:
36,88,149071,1,0,0:0:0:0:
188,232,149234,6,0,P|247:233|309:180,1,133.200003251953,0|2,0:0|0:0,0:0:0:0:
334,102,149723,1,0,0:0:0:0:
327,284,149886,2,0,P|330:309|358:354,1,66.6000016259766,8|0,0:0|0:0,0:0:0:0:
380,199,150212,2,0,P|333:186|243:229,1,133.200003251953,2|0,0:0|0:0,0:0:0:0:
210,296,150702,1,0,0:0:0:0:
164,211,150865,2,0,P|157:178|143:147,1,66.6000016259766,2|0,0:0|0:0,0:0:0:0:
3,165,151191,2,0,B|36:172|56:144|56:144|59:88|108:40|180:48|216:100,1,266.400006503906,8|4,0:0|0:0,0:0:0:0:
232,184,152006,5,0,0:0:0:0:
80,68,152169,2,0,P|72:36|80:-8,1,66.6000016259766,0|2,0:0|0:0,0:0:0:0:
143,147,152495,2,0,P|100:168|4:136,1,133.200003251953,8|2,0:0|0:0,0:0:0:0:
188,56,152984,1,0,0:0:0:0:
248,140,153147,2,0,P|260:172|256:220,1,66.6000016259766,0|0,0:0|0:0,0:0:0:0:
208,284,153473,2,0,P|240:264|340:296,1,133.200003251953,2|8,0:0|0:0,0:0:0:0:
368,368,153962,1,0,0:0:0:0:
416,244,154125,2,0,P|440:228|504:220,1,66.6000016259766,2|0,0:0|0:0,0:0:0:0:
328,282,154452,6,0,L|164:262,1,133.200003251953,0|0,0:0|0:0,0:0:0:0:
104,256,154941,1,2,0:0:0:0:
236,236,155104,2,0,L|388:216,1,133.200003251953,8|2,0:0|0:0,0:0:0:0:
460,204,155593,1,0,0:0:0:0:
320,292,155756,2,0,P|296:268|284:224,1,66.6000016259766,0|0,0:0|0:0,0:0:0:0:
252,56,156082,2,0,P|280:68|320:164,1,133.200003251953,2|10,0:0|0:0,0:0:0:0:
232,244,156571,1,0,0:0:0:0:
164,137,156734,2,0,P|197:135|228:147,1,66.6000016259766,10|8,0:0|0:0,0:0:0:0:
288,232,157060,6,0,L|128:228,1,133.200003251953,0|0,0:0|0:0,0:0:0:0:
88,164,157549,1,2,0:0:0:0:
148,320,157712,2,0,P|188:316|224:284,1,66.6000016259766,8|0,0:0|0:0,0:0:0:0:
264,228,158038,2,0,P|248:264|296:360,1,133.200003251953,2|0,0:0|0:0,0:0:0:0:
368,368,158528,1,0,0:0:0:0:
403,254,158691,2,0,P|370:260|344:280,1,66.6000016259766,2|0,0:0|0:0,0:0:0:0:
464,180,159017,2,0,L|476:44,1,133.200003251953,8|2,0:0|0:0,0:0:0:0:
475,47,159506,1,0,0:0:0:0:
352,100,159669,5,4,0:3:0:0:
468,168,159832,1,4,0:3:0:0:
424,40,159995,2,0,P|400:20|356:12,1,66.6000016259766,4|4,0:3|0:3,0:0:0:0:
244,64,160321,5,4,0:3:0:0:
309,242,160484,1,4,0:3:0:0:
337,81,160647,2,0,P|336:48|312:4,1,66.6000016259766,4|4,0:3|0:3,0:0:0:0:
183,137,160973,5,4,0:3:0:0:
370,170,161136,1,4,0:3:0:0:
215,227,161299,2,0,P|196:240|168:300,1,66.6000016259766,4|4,0:3|0:3,0:0:0:0:
293,190,161625,6,0,L|125:190,1,157.500006008148,2|0,1:2|0:0,0:0:0:0:
72,280,162278,6,0,P|120:300|236:232,1,180,4|0,3:1|0:0,0:0:0:0:
188,40,162930,2,0,P|146:71|147:206,1,180,0|0,1:0|0:0,0:0:0:0:
288,152,163582,2,0,P|260:140|231:139,1,60,0|0,3:0|0:0,0:0:0:0:
288,260,163908,2,0,P|317:259|345:247,1,60,0|0,0:0|0:0,0:0:0:0:
424,144,164234,2,0,B|460:88|440:24|440:24|408:36|384:80,1,180,0|0,1:0|0:0,0:0:0:0:
372,216,164886,6,0,P|412:232|512:156,1,180,0|0,3:0|0:0,0:0:0:0:
340,128,165538,2,0,B|304:128|260:152|260:152|252:212|300:256,1,180,0|0,1:0|0:0,0:0:0:0:
511,187,166191,2,0,B|504:152|464:104|420:96|420:96|428:116|424:139,1,180,0|0,3:0|0:0,0:0:0:0:
285,241,166843,1,0,1:0:0:0:
108,344,167495,6,0,L|232:348,1,120,0|0,3:0|0:0,0:0:0:0:
296,280,167984,2,0,P|308:252|304:204,1,60,2|0,0:0|1:0,0:0:0:0:
92,228,168310,2,0,L|216:232,1,120,2|0,0:0|0:0,0:0:0:0:
322,125,168799,6,0,P|283:125|217:253,1,180,2|0,3:2|0:0,0:0:0:0:
296,360,169452,2,0,P|301:322|190:232,1,180,2|0,1:2|0:0,0:0:0:0:
62,190,170104,2,0,P|80:221|224:214,1,180,2|0,3:2|0:0,0:0:0:0:
260,156,170756,6,0,P|269:135|269:92,2,40,0|0|0,1:0|3:0|3:0,0:0:0:0:
210,50,171082,2,0,P|193:33|152:18,2,40,0|0|0,3:0|3:0|3:0,0:0:0:0:
94,59,171408,2,0,P|72:68|44:101,2,40,0|0|0,3:0|3:0|3:0,0:0:0:0:
62,171,171734,2,0,P|63:192|84:230,2,40,0|0|0,3:0|3:0|3:0,0:0:0:0:
64,127,172060,5,0,1:0:0:0:
64,127,172712,6,0,L|184:137,1,120,0|2,3:0|0:0,0:0:0:0:
208,180,173365,2,0,L|88:170,1,120,0|2,1:0|0:0,0:0:0:0:
114,213,174017,2,0,L|234:223,1,120,0|2,3:0|0:0,0:0:0:0:
308,145,174669,1,0,1:0:0:0:
257,259,174832,2,0,L|138:250,1,120,0|0,3:0|0:0,0:0:0:0:
89,339,175321,6,0,P|125:351|217:311,1,120,0|2,3:0|0:0,0:0:0:0:
272,373,175973,2,0,P|294:342|284:242,1,120,0|2,1:0|0:0,0:0:0:0:
360,209,176625,2,0,P|337:178|239:156,1,120,0|2,3:0|0:0,0:0:0:0:
268,249,177278,1,0,1:0:0:0:
231,74,177441,2,0,P|194:85|143:171,1,120,0|0,3:0|0:0,0:0:0:0:
288,225,177930,6,8,P|318:176|309:116,1,120,0|2,3:0|0:0,0:0:0:0:
196,246,178582,2,8,P|224:298|278:318,1,120,0|2,1:0|0:0,0:0:0:0:
226,155,179234,2,8,P|167:154|119:188,1,120,0|2,3:0|0:0,0:0:0:0:
295,360,179886,1,0,1:0:0:0:
226,291,180049,6,8,B|196:263|141:251|100:277|100:277|116:305|153:312,1,180,0|0,3:0|3:0,0:0:0:0:
256,192,201408,12,0,203038,0:0:0:0:
136,252,203365,6,0,L|132:280,7,22.5000008583069,2|0|0|0|0|0|0|0,1:3|0:0|0:0|0:0|0:0|0:0|0:0|0:0,0:0:0:0:
140,232,204017,6,0,P|140:192|96:140,1,79.7999967123414,4|0,3:2|0:0,0:0:0:0:
20,268,204343,2,0,P|20:308|64:360,1,79.7999967123414,0|0,0:0|0:0,0:0:0:0:
164,220,204669,1,8,0:0:0:0:
0,94,204832,1,2,0:0:0:0:
52,232,204995,1,0,0:0:0:0:
156,112,205158,1,0,0:0:0:0:
112,296,205321,6,0,P|137:312|217:308,1,79.7999967123414,2|0,3:2|0:0,0:0:0:0:
76,80,205647,2,0,P|37:78|0:94,1,79.7999967123414,0|2,0:0|0:0,0:0:0:0:
192,180,205973,1,8,0:0:0:0:
212,32,206136,1,0,0:0:0:0:
88,180,206299,2,0,P|92:220|129:263,1,79.7999967123414,2|0,0:0|0:0,0:0:0:0:
276,87,206625,6,0,P|238:71|183:82,1,79.7999967123414,0|0,3:0|0:0,0:0:0:0:
112,280,206952,2,0,P|150:295|205:284,1,79.7999967123414,2|0,0:0|0:0,0:0:0:0:
244,140,207278,1,8,0:0:0:0:
168,200,207441,1,2,0:0:0:0:
328,276,207604,1,0,0:0:0:0:
324,80,207767,1,2,0:0:0:0:
232,280,208582,6,0,P|252:304|316:320,1,79.7999967123414,8|0,0:0|0:0,0:0:0:0:
152,228,208908,2,0,L|144:336,1,79.7999967123414,2|0,0:0|0:0,0:0:0:0:
372,360,209234,5,0,3:0:0:0:
428,228,209397,1,0,0:0:0:0:
236,284,209560,2,0,P|274:293|314:292,1,79.7999967123414,2|0,0:0|0:0,0:0:0:0:
368,136,209886,1,8,0:0:0:0:
200,176,210049,1,2,0:0:0:0:
408,248,210212,2,0,L|512:240,1,79.7999967123414,0|0,0:0|0:0,0:0:0:0:
284,216,210538,5,2,3:2:0:0:
412,152,210702,1,0,0:0:0:0:
328,352,210865,2,0,L|248:348,1,79.7999967123414,0|2,0:0|0:0,0:0:0:0:
92,264,211191,2,0,L|172:260,1,79.7999967123414,8|0,0:0|0:0,0:0:0:0:
304,200,211517,2,0,P|332:168|340:104,1,79.7999967123414,0|0,0:0|0:0,0:0:0:0:
292,28,211843,5,0,3:0:0:0:
448,80,212006,1,0,0:0:0:0:
240,120,212169,1,2,0:0:0:0:
388,24,212332,1,0,0:0:0:0:
196,36,212495,1,8,0:0:0:0:
364,152,212658,1,2,0:0:0:0:
292,28,212821,1,0,0:0:0:0:
236,220,212984,1,0,0:0:0:0:
364,152,213147,6,0,P|372:112|360:48,1,79.7999967123414,2|0,3:2|0:0,0:0:0:0:
236,220,213473,2,0,P|228:260|240:324,1,79.7999967123414,2|0,0:0|0:0,0:0:0:0:
272,128,213799,2,0,P|232:120|168:132,1,79.7999967123414,8|0,0:0|0:0,0:0:0:0:
340,256,214125,2,0,P|380:264|444:252,1,79.7999967123414,2|0,0:0|0:0,0:0:0:0:
272,128,214452,5,2,3:2:0:0:
300,305,214615,1,0,0:0:0:0:
438,193,214778,1,2,0:0:0:0:
234,225,214941,1,0,0:0:0:0:
403,291,215104,2,0,P|444:296|500:276,1,79.7999967123414,8|0,0:0|0:0,0:0:0:0:
374,112,215430,2,0,P|349:145|338:203,1,79.7999967123414,2|0,0:0|0:0,0:0:0:0:
344,328,215756,5,2,3:2:0:0:
438,193,215919,1,0,0:0:0:0:
276,172,216082,1,0,0:0:0:0:
344,328,216245,1,2,0:0:0:0:
200,256,216408,2,0,P|164:240|116:240,1,79.7999967123414,8|0,0:0|0:0,0:0:0:0:
212,372,216734,2,0,P|250:363|283:342,1,79.7999967123414,2|0,0:0|0:0,0:0:0:0:
356,200,217060,5,0,3:0:0:0:
244,168,217223,1,0,0:0:0:0:
412,308,217386,1,2,0:0:0:0:
224,259,217549,1,0,0:0:0:0:
336,368,217712,2,0,L|420:356,1,79.7999967123414,8|2,0:0|0:0,0:0:0:0:
208,248,218038,2,0,L|124:236,1,79.7999967123414,0|0,0:0|0:0,0:0:0:0:
344,200,218365,5,2,3:2:0:0:
388,96,218528,1,0,0:0:0:0:
284,56,218691,1,2,0:0:0:0:
240,160,218854,1,0,0:0:0:0:
448,176,219017,2,0,P|472:152|484:92,1,79.7999967123414,8|0,0:0|0:0,0:0:0:0:
348,196,219343,2,0,P|356:228|402:269,1,79.7999967123414,2|0,0:0|0:0,0:0:0:0:
376,104,219669,6,0,L|188:88,1,159.599993424683,4|2,3:2|0:0,0:0:0:0:
116,200,220158,1,0,0:0:0:0:
108,36,220321,2,0,P|70:33|17:70,1,79.7999967123414,8|0,0:0|0:0,0:0:0:0:
116,200,220647,2,0,P|160:196|216:100,1,159.599993424683,2|0,0:0|3:0,0:0:0:0:
168,4,221136,1,0,0:0:0:0:
68,64,221299,2,0,P|91:95|128:112,1,79.7999967123414,2|0,0:0|0:0,0:0:0:0:
288,96,221625,6,0,L|456:84,1,159.599993424683,8|2,0:0|0:0,0:0:0:0:
447,84,222115,1,0,0:0:0:0:
380,172,222278,2,0,P|368:200|456:312,1,159.599993424683,2|2,3:2|0:0,0:0:0:0:
484,212,222767,1,0,0:0:0:0:
408,88,222930,2,0,P|364:84|308:116,1,79.7999967123414,8|0,0:0|0:0,0:0:0:0:
232,220,223256,2,0,P|256:192|244:64,1,159.599993424683,2|0,0:0|3:0,0:0:0:0:
152,28,223745,1,0,0:0:0:0:
272,132,223908,2,0,L|368:120,1,79.7999967123414,2|0,0:0|0:0,0:0:0:0:
500,48,224234,5,8,0:0:0:0:
500,48,224316,1,8,0:0:0:0:
500,48,224397,2,0,L|404:36,1,79.7999967123414,8|8,0:0|0:0,0:0:0:0:
312,16,224723,1,8,0:0:0:0:
397,173,224886,6,0,P|445:157|497:33,1,180.000006866455,4|2,3:2|0:0,0:0:0:0:
336,56,225375,1,0,0:0:0:0:
300,180,225538,2,0,L|416:196,1,90.0000034332277,8|2,0:0|0:0,0:0:0:0:
212,252,225865,2,0,L|328:268,1,90.0000034332277,0|0,0:0|0:0,0:0:0:0:
512,300,226191,2,0,P|424:296|372:380,1,180.000006866455,2|0,3:2|0:0,0:0:0:0:
512,300,226680,1,2,0:0:0:0:
428,200,226843,2,0,P|400:192|324:220,1,90.0000034332277,8|0,0:0|0:0,0:0:0:0:
163,336,227169,2,0,P|184:316|197:236,1,90.0000034332277,2|0,0:0|0:0,0:0:0:0:
92,97,227495,6,0,P|54:175|100:248,1,180.000006866455,0|2,3:0|0:0,0:0:0:0:
220,284,227984,1,0,0:0:0:0:
245,152,228147,2,0,P|200:151|159:168,1,90.0000034332277,8|0,0:0|0:0,0:0:0:0:
332,252,228473,2,0,P|376:253|417:236,1,90.0000034332277,2|0,0:0|0:0,0:0:0:0:
476,112,228799,5,0,3:0:0:0:
368,368,229125,5,2,0:0:0:0:
208,40,229452,6,0,B|280:20|320:72|320:72|308:88|280:96,1,157.500006008148,2|0,1:3|0:0,0:0:0:0:
272,100,230104,6,0,L|160:112,1,90.0000034332277,4|0,3:2|0:0,0:0:0:0:
120,12,230430,1,2,0:0:0:0:
304,0,230593,1,0,0:0:0:0:
228,164,230756,2,0,P|208:184|148:200,1,90.0000034332277,8|2,0:0|0:0,0:0:0:0:
68,32,231082,2,0,P|95:39|139:83,1,90.0000034332277,0|0,0:0|0:0,0:0:0:0:
96,300,231408,2,0,P|56:264|56:128,1,180.000006866455,2|0,3:2|0:0,0:0:0:0:
284,80,231897,1,2,0:0:0:0:
222,230,232060,2,0,P|178:225|143:198,1,90.0000034332277,8|0,0:0|0:0,0:0:0:0:
284,80,232386,6,0,L|268:268,1,180.000006866455,2|0,0:0|3:0,0:0:0:0:
260,372,232875,1,0,0:0:0:0:
368,232,233038,2,0,P|392:244|424:316,1,90.0000034332277,2|0,0:0|0:0,0:0:0:0:
260,240,233365,2,0,P|258:213|304:149,1,90.0000034332277,8|2,0:0|0:0,0:0:0:0:
400,40,233691,2,0,L|392:148,1,90.0000034332277,0|0,0:0|0:0,0:0:0:0:
324,328,234017,2,0,P|260:348|152:264,1,180.000006866455,2|0,3:2|0:0,0:0:0:0:
216,124,234506,1,2,0:0:0:0:
260,240,234669,1,8,0:0:0:0:
20,188,234995,5,2,0:0:0:0:
272,168,235321,6,0,L|372:160,1,90.0000034332277,4|0,3:2|0:0,0:0:0:0:
328,272,235647,1,2,0:0:0:0:
176,172,235810,1,0,0:0:0:0:
384,68,235973,2,0,P|412:80|452:136,1,90.0000034332277,8|2,0:0|0:0,0:0:0:0:
328,272,236299,2,0,P|324:241|352:179,1,90.0000034332277,0|0,0:0|0:0,0:0:0:0:
452,248,236625,1,2,3:2:0:0:
364,372,236788,1,0,0:0:0:0:
268,216,236952,1,0,0:0:0:0:
360,280,237115,2,0,P|320:316|248:328,2,90.0000034332277,2|8|0,0:0|0:0|0:0,0:0:0:0:
170,159,237604,2,0,P|198:124|240:108,1,90.0000034332277,2|0,0:0|0:0,0:0:0:0:
268,216,237930,5,2,3:2:0:0:
88,284,238093,1,0,0:0:0:0:
144,124,238256,1,2,0:0:0:0:
202,310,238419,1,0,0:0:0:0:
32,256,238582,1,8,0:0:0:0:
184,164,238745,1,0,0:0:0:0:
116,284,238908,1,2,0:0:0:0:
4,140,239071,1,0,0:0:0:0:
174,1,239234,6,0,P|203:35|208:80,1,90.0000034332277,2|0,3:2|0:0,0:0:0:0:
97,78,239560,2,0,L|8:84,1,90.0000034332277,2|0,0:0|0:0,0:0:0:0:
303,123,239886,2,0,P|238:181|151:167,1,180.000006866455,8|2,0:0|0:0,0:0:0:0:
151,167,240538,6,0,L|136:352,1,180.000006866455,4|2,3:2|0:0,0:0:0:0:
16,212,241028,1,0,0:0:0:0:
204,84,241191,2,0,P|236:112|252:168,1,90.0000034332277,8|0,0:0|0:0,0:0:0:0:
127,319,241517,2,0,P|100:236|151:166,1,180.000006866455,2|2,0:0|3:2,0:0:0:0:
268,160,242006,1,0,0:0:0:0:
104,80,242169,1,2,0:0:0:0:
264,52,242332,1,0,0:0:0:0:
164,208,242495,2,0,P|119:203|84:176,1,90.0000034332277,8|0,0:0|0:0,0:0:0:0:
264,52,242821,2,0,L|380:44,1,90.0000034332277,2|0,0:0|0:0,0:0:0:0:
404,212,243147,6,0,P|360:232|268:136,1,180.000006866455,2|2,3:2|0:0,0:0:0:0:
336,64,243636,1,0,0:0:0:0:
173,115,243799,2,0,P|140:80|136:20,1,90.0000034332277,8|0,0:0|0:0,0:0:0:0:
198,205,244125,2,0,B|103:222|124:152|28:172,1,180.000006866455,2|2,0:0|3:2,0:0:0:0:
56,264,244615,1,0,0:0:0:0:
173,115,244778,1,2,0:0:0:0:
32,80,244941,1,0,0:0:0:0:
152,300,245104,6,0,B|196:316|236:300|236:300|228:336|228:336|264:344|352:304|368:200|276:132,1,360,8|8,0:0|0:0,0:0:0:0:
196,208,245756,5,4,3:2:0:0:
309,165,245919,1,0,0:0:0:0:
268,52,246082,1,2,0:0:0:0:
188,224,246245,1,0,0:0:0:0:
344,152,246408,1,8,0:0:0:0:
164,64,246571,1,2,0:0:0:0:
344,152,246734,2,0,P|389:151|426:128,1,90.0000034332277,0|0,0:0|0:0,0:0:0:0:
242,30,247060,6,0,P|194:38|150:90,1,90.0000034332277,2|0,3:2|0:0,0:0:0:0:
304,213,247386,1,0,0:0:0:0:
264,36,247549,1,2,0:0:0:0:
136,164,247712,2,0,P|140:204|188:260,1,90.0000034332277,8|0,0:0|0:0,0:0:0:0:
284,124,248038,1,2,0:0:0:0:
96,72,248202,1,0,0:0:0:0:
232,324,248365,6,0,P|260:289|267:245,1,90.0000034332277,0|0,3:0|0:0,0:0:0:0:
44,108,248691,1,2,0:0:0:0:
212,48,248854,1,0,0:0:0:0:
124,256,249017,2,0,P|81:254|27:205,1,90.0000034332277,8|0,0:0|0:0,0:0:0:0:
228,168,249343,1,2,0:0:0:0:
76,120,249506,1,0,0:0:0:0:
148,352,249669,5,0,3:0:0:0:
100,132,249995,5,2,0:0:0:0:
141,325,250321,6,0,P|169:254|240:224,1,157.500006008148,2|0,1:3|0:0,0:0:0:0:
268,228,250973,6,0,L|368:232,1,90.0000034332277,4|0,3:2|0:0,0:0:0:0:
444,296,251299,1,2,0:0:0:0:
352,140,251462,1,0,0:0:0:0:
328,320,251625,2,0,P|300:336|216:316,1,90.0000034332277,8|2,0:0|0:0,0:0:0:0:
304,164,251952,1,0,0:0:0:0:
148,284,252115,1,0,0:0:0:0:
128,140,252278,6,0,P|132:92|172:40,1,90.0000034332277,2|0,3:2|0:0,0:0:0:0:
276,132,252604,1,0,0:0:0:0:
152,232,252767,2,0,P|100:232|48:188,2,90.0000034332277,2|8|0,0:0|0:0|0:0,0:0:0:0:
200,136,253256,2,0,B|168:236|244:212|204:336,1,180.000006866455,2|0,0:0|3:0,0:0:0:0:
288,180,253745,5,0,0:0:0:0:
116,272,253908,1,2,0:0:0:0:
312,332,254071,1,0,0:0:0:0:
304,140,254234,1,8,0:0:0:0:
204,328,254397,1,2,0:0:0:0:
352,276,254560,1,0,0:0:0:0:
160,188,254723,1,0,0:0:0:0:
421,145,254886,6,0,P|460:132|516:152,1,90.0000034332277,2|0,3:2|0:0,0:0:0:0:
364,224,255212,2,0,P|333:196|322:138,1,90.0000034332277,0|2,0:0|0:0,0:0:0:0:
480,288,255538,6,0,B|480:272|464:256|464:256|456:280|428:320|384:324,1,135.000005149841,2|0,1:2|0:0,0:0:0:0:
308,336,255865,2,0,P|260:332|200:288,1,90.0000034332277,2|0,0:0|0:0,0:0:0:0:
108,344,256191,5,4,3:2:0:0:
248,224,256354,1,0,0:0:0:0:
92,240,256517,2,0,L|-32:252,1,90.0000034332277,2|0,0:0|0:0,0:0:0:0:
200,284,256843,1,8,0:0:0:0:
61,148,257006,1,2,0:0:0:0:
196,60,257169,2,0,P|241:75|282:121,1,90.0000034332277,0|0,0:0|0:0,0:0:0:0:
63,236,257495,2,0,P|53:188|72:130,1,90.0000034332277,2|0,3:2|0:0,0:0:0:0:
168,44,257821,1,0,0:0:0:0:
288,264,257984,2,0,P|348:240|380:192,2,90.0000034332277,2|8|0,0:0|0:0|0:0,0:0:0:0:
204,92,258473,2,0,P|247:101|278:133,1,90.0000034332277,2|0,0:0|0:0,0:0:0:0:
288,320,258799,5,0,3:0:0:0:
116,316,258962,1,0,0:0:0:0:
208,172,259125,1,2,0:0:0:0:
340,232,259288,1,0,0:0:0:0:
468,164,259452,2,0,P|496:132|508:76,1,90.0000034332277,8|0,0:0|0:0,0:0:0:0:
276,96,259778,2,0,P|289:136|332:174,1,90.0000034332277,2|0,0:0|0:0,0:0:0:0:
493,146,260104,5,2,3:2:0:0:
392,72,260267,1,0,0:0:0:0:
329,265,260430,1,2,0:0:0:0:
455,266,260593,1,0,0:0:0:0:
290,146,260756,2,0,P|224:192|208:296,1,180.000006866455,8|2,0:0|0:0,0:0:0:0:
400,180,261408,6,0,P|393:99|311:33,1,180.000006866455,4|2,3:2|0:0,0:0:0:0:
160,116,261897,1,0,0:0:0:0:
242,219,262060,2,0,P|273:187|290:146,1,90.0000034332277,8|0,0:0|0:0,0:0:0:0:
152,264,262386,2,0,L|372:260,1,180.000006866455,2|2,0:0|3:2,0:0:0:0:
456,284,262875,5,0,0:0:0:0:
420,164,263038,2,0,P|392:144|328:132,1,90.0000034332277,2|0,0:0|0:0,0:0:0:0:
263,315,263365,2,0,P|294:300|336:251,1,90.0000034332277,8|0,0:0|0:0,0:0:0:0:
210,103,263691,2,0,P|206:137|228:198,1,90.0000034332277,2|0,0:0|0:0,0:0:0:0:
324,228,264017,6,0,L|112:240,1,180.000006866455,2|2,3:2|0:0,0:0:0:0:
76,324,264506,1,0,0:0:0:0:
136,132,264669,2,0,P|128:100|72:56,1,90.0000034332277,8|0,0:0|0:0,0:0:0:0:
144,238,264995,2,0,P|212:208|228:80,1,180.000006866455,2|2,0:0|3:2,0:0:0:0:
148,56,265484,5,0,0:0:0:0:
256,228,265647,2,0,P|308:216|340:180,1,90.0000034332277,2|0,0:0|0:0,0:0:0:0:
364,88,265973,1,8,0:0:0:0:
252,124,266136,1,0,0:0:0:0:
364,278,266299,1,2,0:0:0:0:
432,183,266462,1,0,0:0:0:0:
252,241,266625,6,0,P|200:248|116:140,1,180.000006866455,4|2,3:2|0:0,0:0:0:0:
216,148,267115,1,0,0:0:0:0:
35,211,267278,2,0,P|21:169|40:112,1,90.0000034332277,8|0,0:0|0:0,0:0:0:0:
196,236,267604,2,0,P|140:303|53:304,1,180.000006866455,2|2,0:0|3:2,0:0:0:0:
124,160,268093,5,0,0:0:0:0:
260,152,268256,1,2,0:0:0:0:
40,212,268419,1,0,0:0:0:0:
208,276,268582,2,0,P|216:316|184:376,1,90.0000034332277,8|0,0:0|0:0,0:0:0:0:
52,172,268908,2,0,P|82:145|150:142,1,90.0000034332277,2|0,0:0|0:0,0:0:0:0:
300,224,269234,6,0,L|480:204,2,159.599993424683,2|2|0,3:2|0:0|0:0,0:0:0:0:
232,360,270212,1,2,0:0:0:0:
285,132,270538,2,0,P|344:136|384:180,1,120,2|0,0:0|0:0,0:0:0:0:
316,316,271191,2,0,P|256:311|216:267,1,120,2|0,0:0|0:0,0:0:0:0:
300,224,271843,5,0,3:0:0:0:
