osu file format v14

[General]
AudioFilename: audio.mp3
AudioLeadIn: 0
PreviewTime: 53
Countdown: 0
SampleSet: Normal
StackLeniency: 0.2
Mode: 0
LetterboxInBreaks: 0
WidescreenStoryboard: 0

[Editor]
DistanceSpacing: 1.6
BeatDivisor: 12
GridSize: 16
TimelineZoom: 3.799999

[Metadata]
Title:Fellow Feeling
TitleUnicode:Fellow Feeling
Artist:Porter Robinson
ArtistUnicode:Porter Robinson
Creator:Raikozen
Version:Revenant
Source:
Tags:
BeatmapID:1353672
BeatmapSetID:638094

[Difficulty]
HPDrainRate:5
CircleSize:5.5
OverallDifficulty:8
ApproachRate:9.4
SliderMultiplier:3.59999990463257
SliderTickRate:1

[Events]
//Background and Video events
0,0,"IMG_228115.jpg",0,0
//Break Periods
2,149784,156100
2,193258,195330
2,196538,197362
2,198882,199549
2,200991,205174
//Storyboard Layer 0 (Background)
//Storyboard Layer 1 (Fail)
//Storyboard Layer 2 (Pass)
//Storyboard Layer 3 (Foreground)
//Storyboard Sound Samples

[TimingPoints]
522,937.5,4,2,3,30,1,0
522,-1E+35,4,2,3,15,0,0
1225,-1E+35,4,2,3,5,0,0
1459,-666.666666666667,4,2,3,25,0,0
1576,-666.666666666667,4,2,3,25,0,0
4037,-666.666666666667,4,2,3,5,0,0
4272,-666.666666666667,4,2,3,25,0,0
4975,-666.666666666667,4,2,3,5,0,0
5209,-666.666666666667,4,2,3,25,0,0
6850,-666.666666666667,4,2,3,5,0,0
7084,-285.714285714286,4,2,3,25,0,0
7787,-285.714285714286,4,2,3,5,0,0
8022,-285.714285714286,4,2,3,25,0,0
8725,-285.714285714286,4,2,3,5,0,0
8959,-666.666666666667,4,2,3,25,0,0
12240,-222.222222222222,4,2,3,25,0,0
12475,-222.222222222222,4,2,3,5,0,0
12709,-666.666666666667,4,2,3,25,0,0
14350,-666.666666666667,4,2,3,5,0,0
14584,-666.666666666667,4,2,3,25,0,0
19037,-666.666666666667,4,2,3,5,0,0
19272,-666.666666666667,4,2,3,25,0,0
19975,-666.666666666667,4,2,3,5,0,0
20209,-666.666666666667,4,2,3,25,0,0
21850,-666.666666666667,4,2,3,5,0,0
22084,-285.714285714286,4,2,3,25,0,0
22787,-285.714285714286,4,2,3,6,0,0
23022,-153.846153846154,4,2,3,25,0,0
23725,-153.846153846154,4,2,3,5,0,0
23959,-666.666666666667,4,2,3,25,0,0
26537,-666.666666666667,4,2,3,5,0,0
26779,-200,4,2,3,25,0,0
27709,-666.666666666667,4,2,3,25,0,0
28412,-666.666666666667,4,2,3,5,0,0
28647,-666.666666666667,4,2,3,25,0,0
34037,-666.666666666667,4,2,3,5,0,0
34272,-666.666666666667,4,2,3,25,0,0
34975,-666.666666666667,4,2,3,5,0,0
35209,-666.666666666667,4,2,3,25,0,0
36850,-666.666666666667,4,2,3,5,0,0
37084,-285.714285714286,4,2,3,25,0,0
38959,-666.666666666667,4,2,3,25,0,0
44350,-666.666666666667,4,2,3,5,0,0
44584,-666.666666666667,4,2,3,25,0,0
49037,-666.666666666667,4,2,3,5,0,0
49272,-666.666666666667,4,2,3,25,0,0
49975,-666.666666666667,4,2,3,5,0,0
50209,-666.666666666667,4,2,3,25,0,0
51850,-666.666666666667,4,2,3,5,0,0
52084,-181.818181818182,4,2,3,25,0,0
53959,-666.666666666667,4,2,3,25,0,0
54897,-666.666666666667,4,2,3,25,0,0
61459,-222.222222222222,4,2,3,25,0,0
64037,-222.222222222222,4,2,3,5,0,0
64272,-222.222222222222,4,2,3,25,0,0
64975,-222.222222222222,4,2,3,5,0,0
65209,-222.222222222222,4,2,3,25,0,0
66147,-222.222222222222,4,2,3,25,0,0
66850,-222.222222222222,4,2,3,5,0,0
67084,-222.222222222222,4,2,3,25,0,0
67553,-222.222222222222,4,2,3,5,0,0
68022,-222.222222222222,4,2,3,25,0,0
68490,-222.222222222222,4,2,3,5,0,0
68959,-222.222222222222,4,2,3,25,0,0
71537,-222.222222222222,4,2,3,5,0,0
71772,-222.222222222222,4,2,3,25,0,0
72709,-222.222222222222,4,2,3,25,0,0
83022,-133.333333333333,4,2,3,25,0,0
83959,-200,4,2,3,25,0,0
87123,-200,4,2,3,5,0,0
87240,-200,4,2,3,25,0,0
87943,-142.857142857143,4,2,3,25,0,0
90990,-142.857142857143,4,2,3,32,0,0
91225,-142.857142857143,4,2,3,38,0,0
91459,-100,4,2,3,45,0,0
94037,-100,4,2,3,5,0,0
94272,-100,4,2,3,45,0,0
94975,-100,4,2,3,5,0,0
95209,-100,4,2,3,45,0,0
98959,-125,4,2,3,45,0,0
101537,-125,4,2,3,5,0,0
101772,-125,4,2,3,45,0,0
109037,-125,4,2,3,5,0,0
109272,-125,4,2,3,45,0,0
110912,-125,4,2,3,5,0,0
111147,-125,4,2,3,45,0,0
113959,-200,4,2,3,45,0,0
119584,-200,4,2,3,30,0,0
120053,-200,4,2,3,35,0,0
120522,-200,4,2,3,40,0,0
120990,-200,4,2,3,45,0,0
121459,468.75,4,1,1,50,1,0
121459,-555.555555555556,4,1,1,50,0,0
125209,-357.142857142857,4,1,1,50,0,0
135521,-147.058823529412,4,1,1,50,0,0
135873,-147.058823529412,4,1,1,5,0,0
135990,-800,4,1,1,50,0,0
136341,-800,4,1,2,5,0,0
136459,-235.294117647059,4,1,1,50,0,0
147591,-235.294117647059,4,1,1,5,0,0
147709,-235.294117647059,4,1,1,50,0,0
148529,-235.294117647059,4,1,1,5,0,0
148646,-235.294117647059,4,1,1,50,0,0
149115,-555.555555555556,4,1,1,50,0,0
149466,-555.555555555556,4,1,1,5,0,0
149584,-555.555555555556,4,1,1,50,0,0
156850,468.75,4,1,1,70,1,0
156850,-800,4,1,2,70,0,0
157201,-800,4,1,2,5,0,0
157318,-50,4,1,2,70,0,0
157553,-50,4,1,2,5,0,0
157670,-50,4,1,2,70,0,0
157787,-217.391304347826,4,1,2,70,0,0
157904,-217.391304347826,4,1,2,5,0,0
158021,-217.391304347826,4,1,2,70,0,0
158139,-217.391304347826,4,1,2,5,0,0
158256,-50,4,1,2,70,0,0
158490,-50,4,1,2,70,0,0
158725,-800,4,1,2,70,0,0
159076,-800,4,1,2,5,0,0
159193,-50,4,1,2,70,0,0
159428,-50,4,1,2,5,0,0
159545,-50,4,1,2,70,0,0
159662,-217.391304347826,4,1,2,70,0,0
159779,-217.391304347826,4,1,2,5,0,0
159896,-217.391304347826,4,1,2,70,0,0
160014,-217.391304347826,4,1,2,5,0,0
160131,-50,4,1,2,70,0,0
160365,-50,4,1,2,5,0,0
160600,-800,4,1,2,70,0,0
160951,-800,4,1,2,5,0,0
161068,-50,4,1,2,70,0,0
161303,-50,4,1,2,5,0,0
161420,-50,4,1,2,70,0,0
161537,-217.391304347826,4,1,2,70,0,0
161654,-217.391304347826,4,1,2,5,0,0
161771,-217.391304347826,4,1,2,70,0,0
161889,-217.391304347826,4,1,2,5,0,0
162006,-50,4,1,2,70,0,0
162240,-50,4,1,2,5,0,0
162357,-800,4,1,2,70,0,0
162475,-800,4,1,2,70,0,0
162826,-800,4,1,2,5,0,0
162943,-50,4,1,2,70,0,0
163178,-50,4,1,2,5,0,0
163295,-50,4,1,2,70,0,0
163412,-217.391304347826,4,1,2,70,0,0
163529,-217.391304347826,4,1,2,5,0,0
163646,-217.391304347826,4,1,2,70,0,0
163764,-217.391304347826,4,1,2,5,0,0
163881,-120.481927710843,4,1,2,30,0,0
164232,-75.187969924812,4,1,2,5,0,0
164350,1875,4,1,2,55,1,0
164350,-1E+35,4,1,2,55,0,0
164818,468.75,4,1,2,55,1,0
164993,-100,4,1,1,55,0,0
165286,-100,4,1,2,55,0,0
166146,-153.846153846153,4,1,2,55,0,0
167161,-66.6666666666667,4,1,2,55,0,0
167864,-200,4,1,2,55,0,0
168333,-200,4,1,2,5,0,0
168568,1875,4,1,2,55,1,0
168568,-500,4,1,2,15,0,0
170208,-500,4,1,1,5,0,0
170443,468.75,4,1,1,25,1,0
170599,-100,4,1,1,5,0,0
170677,-66.6666666666667,4,1,1,55,0,0
170833,-100,4,1,1,5,0,0
171146,-1E+35,4,1,1,5,0,0
171849,-1E+35,4,1,1,5,0,0
171965,468.75,4,1,1,75,1,0
171965,-142.857142857143,4,1,1,75,0,0
172316,-142.857142857143,4,1,1,5,0,0
172433,-66.6666666666667,4,1,1,75,0,0
172785,-58.8235294117647,4,1,1,5,0,0
172902,-50,4,1,1,75,0,0
173019,-50,4,1,1,5,0,0
173136,-50,4,1,1,75,0,0
173254,-50,4,1,1,5,0,0
173371,-66.6666666666667,4,1,1,75,0,0
173605,-200,4,1,1,75,0,0
173722,-200,4,1,1,5,0,0
173840,-100,4,1,1,75,0,0
174191,-100,4,1,1,5,0,0
174308,-50,4,1,1,75,0,0
174660,-50,4,1,1,5,0,0
174777,-133.333333333333,4,1,1,75,0,0
174894,-133.333333333333,4,1,1,5,0,0
175011,-133.333333333333,4,1,1,75,0,0
175129,-133.333333333333,4,1,1,5,0,0
175246,-66.6666666666667,4,1,1,75,0,0
175363,-66.6666666666667,4,1,1,5,0,0
175480,-66.6666666666667,4,1,1,75,0,0
175597,-66.6666666666667,4,1,1,5,0,0
175715,-66.6666666666667,4,1,1,75,0,0
176213,-66.6666666666667,4,1,1,5,0,0
176418,-50,4,1,1,75,0,0
176769,-50,4,1,1,5,0,0
176886,-50,4,1,1,75,0,0
177004,-50,4,1,1,5,0,0
177121,-50,4,1,1,75,0,0
177355,-200,4,1,1,75,0,0
177472,-200,4,1,1,5,0,0
177590,-200,4,1,1,35,0,0
178527,-200,4,1,1,45,0,0
179933,-133.333333333333,4,1,1,75,0,0
180402,-133.333333333333,4,1,1,75,0,1
180871,-55.5555555555556,4,1,1,75,0,1
181047,-55.5555555555556,4,1,1,5,0,1
181105,-181.818181818181,4,1,1,75,0,1
181457,-117.647058823529,4,1,1,75,0,1
181808,-50,4,1,1,75,0,1
181984,-50,4,1,1,5,0,1
182043,-181.818181818181,4,1,1,75,0,1
182394,-100,4,1,1,75,0,1
182746,-50,4,1,1,75,0,1
182922,-50,4,1,1,5,0,1
182980,-181.818181818181,4,1,1,75,0,1
183332,-100,4,1,1,75,0,1
183683,-50,4,1,1,75,0,1
183859,-50,4,1,1,5,0,1
183918,-181.818181818181,4,1,1,75,0,1
184621,-50,4,1,1,75,0,1
184797,-50,4,1,1,5,0,1
184855,-181.818181818181,4,1,1,75,0,1
185207,-100,4,1,1,75,0,1
185558,-50,4,1,1,75,0,1
185734,-50,4,1,1,5,0,1
185793,-181.818181818181,4,1,1,75,0,1
186496,-50,4,1,1,75,0,1
186672,-50,4,1,1,5,0,1
186730,-181.818181818181,4,1,1,75,0,1
186965,-181.818181818181,4,1,1,75,0,1
187004,-181.818181818181,4,1,1,65,0,0
187043,-181.818181818181,4,1,1,55,0,0
187082,-181.818181818181,4,1,1,45,0,0
187121,-181.818181818181,4,1,1,35,0,0
187160,-181.818181818181,4,1,1,25,0,0
187199,-181.818181818181,4,1,1,15,0,0
187316,-181.818181818181,4,1,1,75,0,0
187433,-181.818181818181,4,1,1,75,0,0
187472,-181.818181818181,4,1,1,65,0,0
187511,-181.818181818181,4,1,1,55,0,0
187550,-181.818181818181,4,1,1,45,0,0
187590,-181.818181818181,4,1,1,35,0,0
187629,-181.818181818181,4,1,1,25,0,0
187668,-181.818181818181,4,1,1,15,0,0
187902,-800,4,1,1,70,0,1
188254,-800,4,1,1,5,0,1
188371,-800,4,1,1,70,0,1
188722,-800,4,1,1,5,0,1
188840,-190.47619047619,4,1,1,70,0,1
189191,-190.47619047619,4,1,1,5,0,1
189308,-66.6666666666667,4,1,1,70,0,1
189660,-66.6666666666667,4,1,1,5,0,1
189777,-100,4,1,1,45,0,0
190246,-800,4,1,1,40,0,0
190715,-100,4,1,1,40,0,0
191183,-200,4,1,1,40,0,0
191652,3750,4,1,1,55,1,0
191652,-1E+35,4,1,1,55,0,0
193058,-1E+35,4,1,1,5,0,0
195402,468.75,4,1,1,65,1,0
196339,-100,4,1,1,5,0,0
196456,-100,4,1,1,65,0,0
197902,-200,4,1,1,65,0,0
198058,-200,4,1,1,5,0,0
198214,-100,4,1,1,65,0,0
198683,-100,4,1,1,5,0,0
198800,-100,4,1,1,65,0,0
200089,-100,4,1,1,65,0,0
200206,-100,4,1,1,5,0,0
200323,-100,4,1,1,65,0,0
200792,-100,4,1,1,5,0,0
200909,-100,4,1,1,65,0,0
205714,-133.333333333333,4,1,1,25,0,0
206534,-133.333333333333,4,1,1,5,0,0
206652,-133.333333333333,4,1,1,25,0,0
221417,-181.818181818181,4,1,1,25,0,0
221534,-133.333333333333,4,1,1,5,0,0
221652,-133.333333333333,4,1,1,25,0,0
231964,-200,4,1,1,25,0,0
233839,-400,4,1,1,30,0,0
234191,-400,4,1,1,5,0,0
234308,-166.666666666667,4,1,1,30,0,0
234659,-166.666666666667,4,1,1,5,0,0
234777,-166.666666666667,4,1,4,30,0,0
235011,-400,4,1,1,30,0,0
235714,-400,4,1,1,30,0,0
235948,-181.818181818181,4,1,1,30,0,0
236183,-100,4,1,1,30,0,0
236652,-66.6666666666667,4,1,1,60,0,1
237589,-200,4,1,1,50,0,1
238058,-100,4,1,1,30,0,1
238292,-58.8235294117647,4,1,1,40,0,1
238527,-200,4,1,1,30,0,0
239464,-400,4,1,1,30,0,0
239816,-400,4,1,1,5,0,0
239933,-400,4,1,1,30,0,0
240284,-400,4,1,1,5,0,0
240402,-100,4,1,1,55,0,1
240870,-100,4,1,1,5,0,1
241339,-200,4,1,1,5,0,1
241573,-66.6666666666667,4,1,1,55,0,1
241691,-66.6666666666667,4,1,1,5,0,1
241808,-200,4,1,1,35,0,1
242042,-66.6666666666667,4,1,1,55,0,1
242159,-66.6666666666667,4,1,1,5,0,1
242277,-66.6666666666667,4,1,1,45,0,1
242394,-66.6666666666667,4,1,1,5,0,1
242511,-200,4,1,1,35,0,0
243214,-100,4,1,1,27,0,1
243566,-100,4,1,1,5,0,1
243683,-66.6666666666667,4,1,1,65,0,1
244034,-66.6666666666667,4,1,1,5,0,1
244152,-66.6666666666667,4,1,1,65,0,1
244503,-66.6666666666667,4,1,1,35,0,1
244620,-200,4,1,1,35,0,1
244855,-200,4,1,1,5,0,1
245089,-200,4,1,1,45,0,1
245558,-66.6666666666667,4,1,1,45,0,1
245792,-133.333333333333,4,1,1,45,0,1
246027,-303.030303030303,4,1,1,30,0,0
247902,-100,4,1,1,60,0,1
248605,-303.030303030303,4,1,1,40,0,1
248722,-303.030303030303,4,1,1,5,0,1
248839,-66.6666666666667,4,1,1,40,0,1
249015,-66.6666666666667,4,1,1,5,0,1
249073,-100,4,1,1,40,0,1
249191,-100,4,1,1,5,0,1
249308,-100,4,1,1,40,0,1
249542,-100,4,1,1,5,0,1
249777,-100,4,1,1,60,0,0
251652,-200,4,2,80,30,0,0
253292,-200,4,2,80,15,0,0
253527,-200,4,2,80,30,0,0
255167,-200,4,2,80,5,0,0
255402,-200,4,2,80,30,0,0
258214,-66.6666666666667,4,2,80,40,0,0
258683,-200,4,2,80,10,0,0
259152,-200,4,2,80,30,0,0
260909,-200,4,2,80,5,0,0
261027,-200,4,2,80,30,0,0
264777,-200,4,2,80,30,0,0
265245,-200,4,2,80,5,0,0
265480,-200,4,2,80,30,0,0
265714,-100,4,2,80,40,0,0
266183,-200,4,1,1,15,0,0
268292,-100,4,1,1,35,0,0
268409,-100,4,1,1,5,0,0
268527,-100,4,1,1,35,0,0
268644,-100,4,1,1,5,0,0
268761,-100,4,1,1,35,0,0
268878,-100,4,1,1,5,0,0
268995,-100,4,1,1,35,0,0
269933,-200,4,1,1,15,0,0
270167,-133.333333333333,4,1,1,35,0,0
270402,-133.333333333333,4,1,1,35,0,0
270636,-133.333333333333,4,1,1,15,0,0
272042,-133.333333333333,4,1,1,35,0,0
272159,-133.333333333333,4,1,1,5,0,0
272277,-100,4,1,1,35,0,0
272394,-100,4,1,1,5,0,0
272511,-100,4,1,1,35,0,0
273683,-200,4,1,1,15,0,0
273917,-133.333333333333,4,1,1,35,0,0
274152,-133.333333333333,4,1,1,35,0,0
274298,-133.333333333333,4,1,1,15,0,0
275792,-100,4,1,1,35,0,0
276261,-200,4,1,1,35,0,0
276964,-100,4,1,1,45,0,0
277433,-200,4,1,1,15,0,0
277902,-200,4,1,1,35,0,0
278722,-200,4,1,1,5,0,0
278780,-200,4,1,1,35,0,0
278839,-200,4,1,1,5,0,0
278927,-200,4,1,1,35,0,0
279737,-200,4,1,1,5,0,0
280714,-1E+35,4,1,1,55,0,0
281183,-1E+35,4,1,1,5,0,0
281652,-76.9230769230769,4,1,1,75,0,1
284933,-50,4,1,1,75,0,1
285109,-50,4,1,1,5,0,1
285167,-200,4,1,1,75,0,1
285402,-76.9230769230769,4,1,1,75,0,1
288214,-55.5555555555556,4,1,1,75,0,1
289152,-76.9230769230769,4,1,1,75,0,1
291525,-76.9230769230769,4,1,1,75,0,1
291554,-76.9230769230769,4,1,1,22,0,1
291583,-76.9230769230769,4,1,1,28,0,1
291612,-76.9230769230769,4,1,1,33,0,1
291642,-76.9230769230769,4,1,1,36,0,1
291671,-76.9230769230769,4,1,1,39,0,1
291700,-76.9230769230769,4,1,1,45,0,1
291730,-76.9230769230769,4,1,1,49,0,1
291759,-76.9230769230769,4,1,1,53,0,1
291788,-76.9230769230769,4,1,1,57,0,1
291818,-76.9230769230769,4,1,1,62,0,1
291847,-76.9230769230769,4,1,1,70,0,1
294777,-100,4,1,1,70,0,0
295245,-133.333333333333,4,1,1,70,0,0
295714,-153.846153846153,4,1,1,70,0,0
295890,-153.846153846153,4,1,1,5,0,0
295948,-100,4,1,4,50,0,0
296183,-133.333333333333,4,1,4,50,0,0
296652,-66.6666666666667,4,1,1,70,0,1
299933,-55.5555555555556,4,1,1,70,0,1
300109,-55.5555555555556,4,1,1,5,0,1
300167,-153.846153846153,4,1,1,70,0,1
300402,-74.074074074074,4,1,1,70,0,1
307198,-100,4,1,1,70,0,1
307902,-100,4,2,80,40,0,0
309073,-200,4,2,80,40,0,0
309777,-200,4,2,80,40,0,0
310480,-200,4,2,10,40,0,0
310714,-133.333333333333,4,2,80,40,0,0
311183,-100,4,2,2,60,0,0
311652,-66.6666666666667,4,1,1,70,0,1
314933,-200,4,1,1,70,0,1
315284,-200,4,1,1,5,0,1
315402,-66.6666666666667,4,1,1,70,0,1
317745,-55.5555555555556,4,1,1,70,0,1
318683,-50,4,1,1,70,0,1
319152,-66.6666666666667,4,1,1,70,0,1
321202,-66.6666666666667,4,1,1,5,0,1
321261,-66.6666666666667,4,1,1,70,0,1
321437,-66.6666666666667,4,1,1,5,0,1
321495,-66.6666666666667,4,1,1,70,0,1
321525,-66.6666666666667,4,1,1,30,0,1
321554,-66.6666666666667,4,1,1,33,0,1
321583,-66.6666666666667,4,1,1,36,0,1
321612,-66.6666666666667,4,1,1,39,0,1
321642,-66.6666666666667,4,1,1,42,0,1
321671,-66.6666666666667,4,1,1,45,0,1
321700,-66.6666666666667,4,1,1,48,0,1
321730,-66.6666666666667,4,1,1,51,0,1
321759,-66.6666666666667,4,1,1,54,0,1
321788,-66.6666666666667,4,1,1,57,0,1
321818,-66.6666666666667,4,1,1,60,0,1
321847,-66.6666666666667,4,1,1,63,0,1
321876,-66.6666666666667,4,1,1,66,0,1
323487,-66.6666666666667,4,1,1,5,0,1
323605,-66.6666666666667,4,1,1,66,0,1
326183,-133.333333333333,4,1,1,66,0,1
326652,-227.272727272727,4,2,80,50,0,0
329347,-227.272727272727,4,2,80,5,0,0
329464,-227.272727272727,4,2,80,30,0,0
337433,-227.272727272727,4,2,80,30,0,0
339659,-227.272727272727,4,2,80,5,0,0
339777,-227.272727272727,4,2,80,30,0,0
347277,-227.272727272727,4,2,80,5,0,0

[HitObjects]
75,67,522,6,0,L|75:100,1,26.9999992847443
15,160,1459,6,0,B|88:140|77:203|159:181,1,148.499991534233,4|0,0:0|0:0,0:0:0:0:
248,159,4272,2,0,L|246:208,1,40.4999976911546
171,281,5209,6,0,B|157:294|157:294|234:298,1,94.499994612694
320,275,7084,6,0,P|299:319|304:365,1,94.499994612694
496,327,8022,2,0,P|500:280|479:238,1,94.499994612694
267,173,8959,6,0,P|339:202|426:173,1,161.999990764618
490,132,12240,2,0,L|486:180,1,40.4999976911546
411,85,12709,6,0,L|417:181,1,94.499994612694
269,69,14584,6,0,L|266:126,1,53.9999969215394
251,186,15756,1,0,0:0:0:0:
165,223,15990,1,0,0:0:0:0:
52,135,16225,1,0,0:0:0:0:
147,17,16459,6,0,B|162:81|112:80|142:162,1,148.499991534233
210,218,19272,2,0,L|262:213,1,40.4999976911546
337,284,20209,6,0,P|290:278|241:296,1,94.499994612694
176,343,22084,2,0,L|65:336,1,94.499994612694
16,364,23022,2,0,L|197:353,1,175.499987317086
264,311,23959,6,0,B|328:286|331:357|404:334,1,148.499991534233
489,303,26772,2,0,L|487:330,1,26.9999984607697
371,177,27709,6,0,L|373:223,1,40.4999976911546
374,290,28647,2,0,L|401:291,1,26.9999984607697
266,213,29584,6,0,L|268:246,1,26.9999984607697
184,235,30522,2,0,L|182:268,1,26.9999984607697
59,297,31459,6,0,B|90:264|61:242|41:278|32:303|37:341|73:366,1,148.499991534233
129,381,34272,2,0,L|179:378,1,40.4999976911546
232,322,35209,6,0,B|286:310|272:357|327:341,1,94.499994612694
367,295,37084,2,0,L|372:224,1,62.9999964084627
512,366,38022,2,0,L|506:295,1,62.9999964084627
257,357,38959,6,0,L|86:364,1,161.999990764618
24,266,42240,2,0,L|25:285,1,13.4999992303849
2,199,42709,6,0,P|47:200|87:240,1,94.499994612694
105,291,44584,6,0,L|112:231,1,53.9999969215394
120,174,45756,1,0,0:0:0:0:
195,187,45990,1,0,0:0:0:0:
120,174,46225,1,0,0:0:0:0:
248,223,46459,6,0,P|259:173|188:121,1,148.499991534233
67,104,49272,2,0,P|95:103|114:93,1,40.4999976911546
25,49,50209,6,0,P|4:72|4:141,1,94.499994612694
91,244,52084,2,0,B|191:214|163:298|288:264,1,198.000000797272
404,237,53490,2,0,L|396:293,1,49.500000199318
485,362,53959,6,0,L|477:204,1,148.499991534233
377,153,56772,2,0,L|414:158,1,26.9999984607697
506,68,57709,2,0,L|395:79,1,107.999993843079
192,141,60522,6,0,P|203:135|186:135,1,40.4999976911546
44,214,61459,6,0,B|31:197|31:182|40:156|56:148|79:146|106:156|118:171|118:195|110:205|104:219|104:219|123:206|131:190|129:169|129:169|162:213|197:215|229:206|253:177|253:177|256:204|238:232|193:240,1,445.4999746027,4|0,0:0|0:0,0:0:0:0:
162,275,64272,2,0,P|152:325|234:366,1,121.499993073464
398,340,65209,6,0,L|418:57,1,283.499983838082
326,8,67084,6,0,L|332:114,1,80.9999953823091
56,85,68022,2,0,L|50:191,1,80.9999953823091
191,22,68959,6,0,B|198:72|166:106|166:106|196:99|206:93|206:93|193:120|171:148|171:148|130:200|166:266|166:266|249:255|220:163,1,445.4999746027
94,168,71772,2,0,L|37:177,1,40.4999976911546
279,268,72240,2,0,L|336:277,1,40.4999976911546
50,319,72709,6,0,B|139:285|105:373|215:328,1,161.999990764618
451,136,74584,6,0,B|361:169|395:81|285:126,1,161.999990764618
337,177,75756,1,0,0:0:0:0:
419,79,75990,1,0,0:0:0:0:
317,49,76225,1,0,0:0:0:0:
434,204,76459,6,0,L|422:383,2,161.999990764618,4|0|4,0:0|0:0|0:0,0:0:0:0:
216,196,79272,2,0,P|157:206|122:181,1,80.9999953823091
95,106,80209,6,0,L|103:281,1,161.999990764618
300,111,82084,2,0,P|368:109|385:118,1,80.9999953823091
511,59,83022,2,0,P|443:61|390:6,1,135.000001573563
337,174,83959,6,0,L|342:378,1,179.999995231629
80,239,85834,2,0,P|141:210|199:220,1,89.9999976158143
261,110,86772,6,0,P|229:117|194:104,1,67.4999982118607
158,164,87240,2,0,L|163:223,1,44.9999988079071
170,302,87709,5,0,0:0:0:0:
59,282,87943,2,0,B|106:276|106:276|130:305|130:305|180:299,1,125.999992816925
242,274,88647,2,0,P|246:310|234:345,1,62.9999964084627
317,176,89115,2,0,P|312:207|319:237,1,62.9999964084627
372,297,89584,6,0,L|512:302,1,125.999992816925
342,101,90522,2,0,L|202:106,1,125.999992816925
21,118,91225,1,0,0:0:0:0:
107,89,91459,6,0,B|131:153|83:188|83:188|112:174|140:172|140:172|70:237|118:330|118:330|168:313|173:268|173:268|123:286|161:373|161:373|196:362|218:321|218:321|228:349|246:368|271:367|294:360|313:344|322:318|312:286|290:273|268:275|268:275|277:301|299:321|335:317|360:300|374:272|376:248|365:225,1,989.999973773957,4|0,0:0|0:0,0:0:0:0:
457,50,94272,2,0,P|430:174|509:306,1,269.999992847443
315,119,95209,6,0,B|207:85|264:-47|345:-4|352:35|355:75|370:116|351:183|307:232|318:228,1,359.999990463257
230,295,96615,2,0,L|130:290,1,89.9999976158143
0,328,97084,6,0,B|102:293|48:397|180:364,1,179.999995231629
512,268,98022,2,0,B|410:233|464:337|332:304,1,179.999995231629
147,382,98959,6,0,P|50:304|376:242,1,791.999979019165
199,273,101772,6,0,L|192:186,1,71.9999980926514
479,21,102240,2,0,L|473:92,1,71.9999980926514
452,328,102709,6,0,B|496:367|496:367|261:355,1,287.999992370606
23,79,104584,6,0,B|-21:118|-21:118|214:106,1,287.999992370606
285,16,105756,1,0,0:0:0:0:
275,198,105990,2,0,L|272:288,1,71.9999980926514
410,362,106459,6,0,B|488:364|510:289|510:289|466:215|410:214|410:214|443:211|478:205|501:177|518:140|526:101|514:29|472:12|414:0|366:0|327:46|322:98|334:118|334:118|290:81|240:114,1,791.999979019165
194,170,109272,2,0,L|201:258,1,71.9999980926514
12,370,109740,2,0,L|22:280,1,71.9999980926514
53,64,110209,6,0,B|87:31|87:31|66:213,1,215.999994277954
120,290,111147,2,0,L|211:280,1,71.9999980926514
276,84,111615,2,0,L|185:74,1,71.9999980926514
321,198,112084,5,0,0:0:0:0:
325,177,112318,1,0,0:0:0:0:
321,198,112553,1,0,0:0:0:0:
324,176,112787,1,0,0:0:0:0:
460,145,113022,5,0,0:0:0:0:
453,112,113256,1,0,0:0:0:0:
460,145,113491,1,0,0:0:0:0:
455,110,113725,1,0,0:0:0:0:
489,224,113959,6,0,P|493:258|482:278,3,44.9999988079071
438,327,114897,2,0,P|403:331|383:320,3,44.9999988079071
305,269,115834,6,0,L|312:327,1,44.9999988079071
168,360,116303,2,0,L|173:315,1,44.9999988079071
317,259,116772,2,0,L|324:317,1,44.9999988079071
158,369,117241,2,0,L|163:324,1,44.9999988079071
179,225,117709,6,0,B|100:202|121:269|45:251,1,134.999996423721
0,201,118529,1,0,0:0:0:0:
0,201,118647,6,0,L|9:139,1,44.9999988079071
222,277,119115,2,0,L|228:321,1,44.9999988079071
326,321,119584,5,0,0:0:0:0:
382,276,119818,1,0,0:0:0:0:
393,204,120053,1,0,0:0:0:0:
371,135,120287,1,0,0:0:0:0:
302,112,120522,1,0,0:0:0:0:
232,129,120756,1,0,0:0:0:0:
172,87,120990,1,0,0:0:0:0:
135,24,121225,1,0,0:0:0:0:
97,84,121459,6,0,L|94:116,1,32.3999999327088,2|0,0:2|0:2,0:2:0:0:
201,180,121927,2,0,L|197:147,1,32.3999999327088,2|0,0:2|0:2,0:2:0:0:
84,197,122396,6,0,P|66:202|43:197,1,32.3999999327088,2|0,0:2|0:2,0:2:0:0:
0,274,122865,2,0,P|18:269|41:274,1,32.3999999327088,2|0,0:2|0:2,0:2:0:0:
104,331,123334,6,0,L|98:375,1,32.3999999327088,2|0,0:2|0:2,0:2:0:0:
276,287,123802,2,0,L|282:331,1,32.3999999327088,2|0,0:2|0:2,0:2:0:0:
183,266,124271,5,2,0:2:0:0:
179,357,124505,1,0,0:2:0:0:
183,266,124740,1,2,0:2:0:0:
179,357,124974,1,0,0:2:0:0:
362,333,125209,6,0,L|430:340,1,50.3999992800903,2|0,0:2|0:2,0:2:0:0:
423,195,125677,5,2,0:2:0:0:
301,255,125912,1,0,0:2:0:0:
336,109,126146,5,2,0:2:0:0:
302,174,126380,1,0,0:2:0:0:
268,47,126615,5,2,0:2:0:0:
270,81,126849,1,0,0:2:0:0:
173,203,127084,6,0,L|167:142,1,50.3999992800903,2|0,0:2|0:2,0:2:0:0:
90,261,127552,1,2,0:2:0:0:
112,104,127787,1,0,0:2:0:0:
15,251,128021,6,0,L|21:190,1,50.3999992800903,2|0,0:2|0:2,0:2:0:0:
123,353,128490,1,2,0:2:0:0:
112,104,128724,1,0,0:2:0:0:
211,311,128959,6,0,L|267:316,1,50.3999992800903,2|0,0:2|0:2,0:2:0:0:
413,331,129427,1,2,0:2:0:0:
394,242,129662,1,0,0:2:0:0:
329,371,129896,6,0,L|324:315,3,50.3999992800903,2|0|2|0,0:2|0:2|0:2|0:2,0:2:0:0:
473,266,130834,6,0,L|478:210,3,50.3999992800903,2|0|2|0,0:2|0:2|0:2|0:2,0:2:0:0:
287,168,131771,6,0,L|282:112,3,50.3999992800903,2|0|2|0,0:2|0:2|0:2|0:2,0:2:0:0:
309,50,132709,6,0,P|351:44|368:51,1,50.3999992800903,2|0,0:2|0:0,0:0:0:0:
217,213,133177,2,0,P|188:220|166:214,1,50.3999992800903,2|0,0:2|0:0,0:0:0:0:
85,151,133646,5,2,0:2:0:0:
115,373,133880,1,0,0:2:0:0:
85,151,134115,1,2,0:2:0:0:
115,373,134349,1,0,0:2:0:0:
1,323,134584,6,0,L|57:329,1,50.3999992800903
275,235,135052,2,0,L|219:241,1,50.3999992800903
15,87,135521,6,0,L|202:92,1,183.599996256867
148,34,135990,6,0,L|150:74,1,33.7499991059303
162,264,136459,6,0,P|177:216|166:192,1,76.4999994325638
58,160,136927,2,0,L|232:173,1,152.999998865128,8|0,0:0|0:0,0:0:0:0:
240,232,137513,6,0,P|229:268|245:302,1,76.4999994325638
314,319,137865,2,0,L|140:332,1,152.999998865128,10|0,0:0|0:0,0:0:0:0:
32,286,138568,5,0,0:0:0:0:
32,286,138685,1,0,0:0:0:0:
32,286,138802,2,0,P|21:329|37:370,1,76.4999994325638,8|0,0:0|0:0,0:0:0:0:
164,197,139271,5,0,0:0:0:0:
168,184,139388,1,0,0:0:0:0:
116,139,139505,1,0,0:0:0:0:
60,180,139623,1,0,0:0:0:0:
64,193,139740,1,8,0:0:0:0:
119,68,139974,1,0,0:0:0:0:
111,265,140209,6,0,L|107:354,1,76.4999994325638
230,240,140677,2,0,L|41:259,1,152.999998865128,8|0,0:0|0:0,0:0:0:0:
12,242,141263,6,0,L|16:331,1,76.4999994325638
0,222,141615,2,0,L|189:241,1,152.999998865128,8|0,0:0|0:0,0:0:0:0:
238,145,142318,5,0,0:0:0:0:
238,145,142435,1,0,0:0:0:0:
238,145,142552,2,0,P|228:188|234:225,1,76.4999994325638,8|0,0:0|0:0,0:0:0:0:
376,367,143021,5,0,0:0:0:0:
377,359,143138,1,0,0:0:0:0:
387,294,143255,1,0,0:0:0:0:
388,286,143373,1,0,0:0:0:0:
398,221,143490,1,8,0:0:0:0:
250,375,143724,1,0,0:0:0:0:
494,185,143959,6,0,L|488:96,1,76.4999994325638
239,48,144427,2,0,L|229:221,1,152.999998865128,8|0,0:0|0:0,0:0:0:0:
211,250,145013,6,0,L|205:161,1,76.4999994325638
100,273,145365,2,0,L|276:282,1,152.999998865128,8|0,0:0|0:0,0:0:0:0:
422,362,146068,5,0,0:0:0:0:
422,362,146185,1,0,0:0:0:0:
422,362,146302,2,0,L|508:355,1,76.4999994325638,8|0,0:0|0:0,0:0:0:0:
389,252,146771,2,0,L|303:245,1,76.4999994325638
100,273,147240,6,0,P|67:337|88:386,1,114.749999148846,8|0,0:0|0:0,0:0:0:0:
214,323,147709,6,0,L|125:335,1,76.4999994325638
15,165,148177,2,0,L|147:175,1,114.749999148846,8|0,0:0|0:0,0:0:0:0:
190,181,148646,5,0,0:0:0:0:
188,24,148880,1,0,0:0:0:0:
197,295,149115,2,0,L|195:234,1,48.5999998990631,8|0,0:0|0:0,0:0:0:0:
200,372,149584,5,0,0:0:0:0:
95,110,156850,6,0,L|97:145,1,33.7499991059303,6|0,0:0|0:0,0:0:0:0:
173,27,157318,6,0,B|166:102|166:102|179:123|179:123|174:184|174:184|159:203|159:203|155:267|155:267|169:294|169:294|167:320|167:320|147:344|147:344|144:385,1,359.999990463257,8|0,0:0|0:0,0:0:0:0:
377,333,157670,1,0,0:0:0:0:
377,333,157787,6,0,L|374:289|374:289,1,41.3999975135041,2|0,0:0|0:0,0:0:0:0:
82,241,158021,2,0,L|77:295,1,41.3999975135041
221,242,158256,6,0,B|292:243|292:243|343:195|343:195|345:118|345:118|296:61|296:61|226:60|226:60|157:58,1,359.999990463257,8|0,0:0|0:0,0:0:0:0:
12,294,158725,6,0,L|15:331,1,33.7499991059303,2|0,0:0|0:0,0:0:0:0:
61,221,159193,6,0,B|125:209|125:209|99:326|99:326|170:308|170:308|183:251|183:251|251:233,1,359.999990463257,8|0,0:0|0:0,0:0:0:0:
346,299,159545,1,0,0:0:0:0:
346,299,159662,6,0,L|342:341,1,41.3999975135041,2|0,0:0|0:0,0:0:0:0:
115,137,159896,2,0,L|111:94,1,41.3999975135041
259,33,160131,6,0,B|337:-1|337:-1|324:113|324:113|266:147|266:147|258:241,1,359.999990463257,8|0,0:0|0:0,0:0:0:0:
61,221,160600,6,0,L|58:187,1,33.7499991059303,2|0,0:0|0:0,0:0:0:0:
130,113,161068,6,0,B|205:41|205:41|165:309,1,359.999990463257,8|0,0:0|0:0,0:0:0:0:
356,158,161420,1,0,0:0:0:0:
356,158,161537,6,0,L|299:154,1,41.3999975135041,2|0,0:0|0:0,0:0:0:0:
349,230,161771,2,0,L|292:226,1,41.3999975135041
417,203,162006,6,0,B|496:194|496:194|502:256|502:256|426:267|426:267|432:327|432:327|574:308,1,359.999990463257,8|0,0:0|0:0,0:0:0:0:
169,185,162475,6,0,L|171:220,1,33.7499991059303,2|0,0:0|0:0,0:0:0:0:
263,150,162943,6,0,B|301:152|301:152|331:197|331:197|295:232|295:232|259:228|259:228|295:230|295:230|322:275|322:275|294:303|294:303|226:295,1,359.999990463257,8|0,0:0|0:0,0:0:0:0:
160,57,163295,1,0,0:0:0:0:
160,57,163412,6,0,L|162:103,1,41.3999975135041
169,185,163646,2,0,L|171:231,1,41.3999975135041
109,347,163881,6,0,B|105:303|105:303|54:323|54:323|58:293|58:293|65:290|65:290|69:253|69:253|65:247|65:247|73:201,1,224.099997311897
12,90,164350,6,0,L|13:97,1,6.74999982118607,2|0,0:0|0:0,0:0:0:0:
73,204,164818,5,0,0:0:0:0:
93,25,164993,2,0,L|68:239,1,179.999995231629,8|0,0:0|0:0,0:0:0:0:
203,40,165286,6,0,P|206:88|199:118,1,59.9999984105428,2|0,0:0|0:0,0:0:0:0:
167,175,165443,1,2,0:0:0:0:
167,175,165599,2,0,L|307:159,1,119.999996821086
354,155,165833,6,0,P|357:203|350:233,1,59.9999984105428,2|0,0:0|0:0,0:0:0:0:
279,88,165989,2,0,L|349:80,1,59.9999984105428,2|0,0:0|0:0,0:0:0:0:
239,237,166146,6,0,B|222:293|222:293|193:241,1,116.999991544724
193,241,166693,6,0,B|222:293|222:293|239:237,1,116.999991544724
255,157,167044,1,0,0:0:0:0:
142,326,167161,6,0,B|96:323|96:323|75:342|75:342|0:338,1,135.000001573563,2|0,0:0|0:0,0:0:0:0:
15,263,167396,6,0,B|35:249|35:249|40:274,10,45.0000005245209
6,186,167864,6,0,B|111:159|75:261|195:216,1,179.999995231629
258,195,168568,6,0,P|268:181|247:191,1,62.99999833107
263,197,170443,6,0,P|274:278|203:325,1,119.999996821086
193,335,170677,6,0,B|225:329|225:329|233:333|233:333|263:328|263:328|269:319|269:319|292:316|292:316|305:322|305:322|339:315,1,135.000001573563
388,334,170833,6,0,L|384:388,1,29.9999992052714
402,339,170941,2,0,L|399:294,1,44.9999988079071
420,330,171068,1,0,0:0:0:0:
439,340,171146,6,0,P|463:351|486:337,1,53.9999985694885
421,329,171966,6,0,P|480:344|419:316,1,188.999989225388,6|0,0:0|0:0,0:0:0:0:
496,195,172433,6,0,L|93:230,1,405.000004720688,8|0,0:0|0:0,0:0:0:0:
374,28,172902,6,0,L|388:242,1,179.999995231629
457,183,173136,2,0,L|445:3,1,179.999995231629
302,13,173371,5,8,0:0:0:0:
295,371,173605,2,0,L|298:289,1,44.9999988079071
296,249,173840,6,0,P|252:198|238:316,1,269.999992847443
371,239,174308,6,0,P|269:121|237:393,1,539.999985694885,8|0,0:0|0:0,0:0:0:0:
255,259,174777,6,0,P|243:246|240:275,1,67.5000007867814
239,275,175011,2,0,P|228:249|254:258,1,67.5000007867814
144,361,175246,6,0,P|107:309|104:208,1,135.000001573563,8|0,0:0|0:0,0:0:0:0:
183,10,175480,2,0,P|132:54|108:116,1,135.000001573563
238,274,175715,5,0,0:0:0:0:
264,276,175793,1,0,0:0:0:0:
283,294,175871,1,0,0:0:0:0:
309,295,175949,1,0,0:0:0:0:
355,312,176027,1,0,0:0:0:0:
329,312,176105,1,0,0:0:0:0:
377,327,176183,6,0,L|414:326,1,33.7500003933907,8|0,0:0|0:0,0:0:0:0:
131,174,176652,6,0,L|117:388,1,179.999995231629
48,329,176886,2,0,L|60:149,1,179.999995231629
210,18,177121,5,8,0:0:0:0:
241,374,177355,2,0,L|236:307,1,44.9999988079071
324,224,177590,6,0,L|321:258,5,29.9999992052714
403,342,178058,5,0,0:0:0:0:
409,335,178136,1,0,0:0:0:0:
413,327,178215,1,0,0:0:0:0:
415,318,178293,1,0,0:0:0:0:
416,309,178371,1,0,0:0:0:0:
415,300,178449,1,0,0:0:0:0:
412,291,178527,5,0,0:0:0:0:
398,264,178605,1,0,0:0:0:0:
392,234,178683,1,0,0:0:0:0:
395,204,178761,1,0,0:0:0:0:
406,175,178840,1,0,0:0:0:0:
425,151,178918,1,0,0:0:0:0:
433,195,178996,5,0,0:0:0:0:
406,231,179074,1,0,0:0:0:0:
362,242,179152,1,0,0:0:0:0:
324,217,179230,6,0,L|329:288,1,44.9999988079071
235,144,179582,6,0,L|229:200,1,44.9999988079071
221,279,179816,1,0,0:0:0:0:
221,279,179933,6,0,B|154:253|172:318|97:308,1,135.000001573563
21,271,180285,1,0,0:0:0:0:
21,271,180402,5,6,0:0:0:0:
31,354,180519,2,0,L|43:201,1,135.000001573563
92,77,180871,6,0,B|121:84|148:67|148:67|108:188|108:188|143:165|177:173,1,242.999986146927,8|0,0:0|0:0,0:0:0:0:
225,229,181105,2,0,L|220:289,1,49.500000199318
212,376,181340,5,2,0:0:0:0:
144,353,181457,2,0,L|310:340,1,152.999998865128
475,355,181808,6,0,B|432:249|432:249|365:337|365:337|430:348,1,269.999992847443,8|0,0:0|0:0,0:0:0:0:
504,233,182043,2,0,L|510:168,1,49.500000199318
365,77,182277,5,2,0:0:0:0:
512,109,182394,2,0,B|400:84|459:179|326:155,1,179.999995231629
248,60,182746,6,0,B|264:130|225:171|225:171|261:166|286:186|286:186|271:138|300:104,1,269.999992847443,8|0,0:0|0:0,0:0:0:0:
163,98,182980,2,0,L|106:111,1,49.500000199318
27,128,183215,5,2,0:0:0:0:
51,56,183332,2,0,L|40:247,1,179.999995231629
50,363,183683,6,0,B|66:330|99:314|99:314|36:303|44:348|-33:346|-33:346|7:327|25:287,1,269.999992847443,8|0,0:0|0:0,0:0:0:0:
166,309,183918,2,0,P|212:317|232:333,1,49.500000199318
365,344,184152,5,2,0:0:0:0:
365,344,184269,2,0,P|319:352|299:368,1,49.500000199318
152,239,184504,5,2,0:2:0:0:
388,225,184621,2,0,B|338:223|306:204|306:204|270:225|251:260|251:260|203:224|143:241,1,269.999992847443,8|0,0:0|0:0,0:0:0:0:
87,169,184855,2,0,L|85:104,1,49.500000199318
84,48,185090,5,2,0:0:0:0:
196,30,185207,2,0,B|212:11|212:11|172:-9|141:22,1,89.9999976158143
84,48,185441,5,2,0:2:0:0:
197,105,185558,2,0,B|242:108|265:60|265:60|278:94|278:94|250:115|243:143|243:143|272:174|259:241,1,269.999992847443,8|0,0:0|0:0,0:0:0:0:
204,258,185793,6,0,P|195:223|200:199,1,49.500000199318
106,223,186027,5,2,0:0:0:0:
127,294,186144,2,0,P|127:318|119:341,1,49.500000199318
41,305,186379,5,2,0:2:0:0:
201,323,186496,2,0,B|248:329|270:279|270:279|243:344|252:390|252:390|272:341|344:346,1,269.999992847443,8|0,0:0|0:0,0:0:0:0:
374,340,186730,6,0,L|435:347,1,49.500000199318
501,351,186965,6,0,L|505:329,6,16.5000000664393
387,261,187316,1,0,0:0:0:0:
387,261,187433,6,0,L|384:244,9,16.5000000664393
476,223,187902,6,0,P|482:200|478:183,1,33.7499991059303,2|0,0:0|0:0,0:0:0:0:
109,302,188371,2,0,P|108:318|113:334,1,33.7499991059303,8|0,0:0|0:0,0:0:0:0:
235,216,188840,6,0,L|62:209,1,141.749991919041
10,246,189308,2,0,L|446:215,1,405.000004720688,8|0,0:0|0:0,0:0:0:0:
496,217,189777,6,0,P|514:271|487:327,1,89.9999976158143
384,371,190011,2,0,P|427:378|468:360,1,89.9999976158143
418,297,190246,6,0,L|420:286,1,11.2499997019768
420,285,190480,2,0,L|418:296,1,11.2499997019768
295,169,190715,6,0,L|308:385,1,179.999995231629
0,171,191183,2,0,L|9:72,1,89.9999976158143
16,13,191652,6,0,L|30:11,1,13.4999996423721
112,52,195870,6,0,B|128:104|80:172|80:172|112:132|144:128|144:128|88:188|128:288,1,359.999990463257
339,138,197902,6,0,B|351:116|351:116|346:63,1,59.9999984105428
339,138,198214,6,0,B|196:172|196:172|208:240|208:240|372:200,1,359.999990463257
54,352,200089,6,0,P|83:315|66:270,1,89.9999976158143
4,244,200323,2,0,B|145:260|145:260|98:129|98:129|45:189,1,359.999990463257
105,198,205714,6,0,B|266:104|131:-89|-39:191|163:346,1,472.50000550747
208,360,206652,5,0,0:0:0:0:
208,360,206886,1,0,0:0:0:0:
208,360,207120,1,0,0:0:0:0:
208,360,207355,1,0,0:0:0:0:
208,360,207589,1,0,0:0:0:0:
208,360,207823,1,0,0:0:0:0:
208,360,208058,1,0,0:0:0:0:
208,360,208292,1,0,0:0:0:0:
346,320,208527,5,0,0:0:0:0:
349,344,208761,1,0,0:0:0:0:
346,320,208995,1,0,0:0:0:0:
349,344,209230,1,0,0:0:0:0:
281,223,209464,5,0,0:0:0:0:
274,288,209698,1,0,0:0:0:0:
281,223,209933,1,0,0:0:0:0:
274,288,210167,1,0,0:0:0:0:
494,200,210402,5,0,0:0:0:0:
470,187,210636,1,0,0:0:0:0:
443,185,210870,1,0,0:0:0:0:
418,197,211105,1,0,0:0:0:0:
397,214,211339,1,0,0:0:0:0:
370,219,211573,1,0,0:0:0:0:
343,214,211808,1,0,0:0:0:0:
321,198,212042,1,0,0:0:0:0:
309,173,212277,5,0,0:0:0:0:
317,287,212511,1,0,0:0:0:0:
309,173,212745,1,0,0:0:0:0:
317,287,212980,1,0,0:0:0:0:
332,106,213214,5,0,0:0:0:0:
290,351,213448,1,0,0:0:0:0:
332,106,213683,1,0,0:0:0:0:
290,351,213917,1,0,0:0:0:0:
227,232,214152,5,0,0:0:0:0:
190,214,214386,1,0,0:0:0:0:
149,216,214620,1,0,0:0:0:0:
114,237,214855,1,0,0:0:0:0:
74,243,215089,1,0,0:0:0:0:
39,221,215323,1,0,0:0:0:0:
34,180,215558,1,0,0:0:0:0:
60,149,215792,1,0,0:0:0:0:
100,144,216027,5,0,0:0:0:0:
137,158,216261,1,0,0:0:0:0:
177,154,216495,1,0,0:0:0:0:
208,128,216730,1,0,0:0:0:0:
220,89,216964,5,0,0:0:0:0:
253,185,217198,1,0,0:0:0:0:
336,36,217433,5,0,0:0:0:0:
292,278,217667,1,0,0:0:0:0:
452,228,217902,5,0,0:0:0:0:
387,207,218136,1,0,0:0:0:0:
387,140,218370,1,0,0:0:0:0:
452,119,218605,1,0,0:0:0:0:
491,173,218839,5,0,0:0:0:0:
387,207,219073,1,0,0:0:0:0:
452,119,219308,1,0,0:0:0:0:
452,228,219542,1,0,0:0:0:0:
387,140,219777,5,0,0:0:0:0:
321,108,220011,1,0,0:0:0:0:
267,173,220245,5,0,0:0:0:0:
173,184,220480,1,0,0:0:0:0:
208,270,220714,5,0,0:0:0:0:
138,366,220948,1,0,0:0:0:0:
173,184,221183,5,0,0:0:0:0:
204,381,221417,2,0,L|263:377,1,49.500000199318
316,371,221652,5,0,0:0:0:0:
316,371,221886,1,0,0:0:0:0:
316,371,222120,1,0,0:0:0:0:
316,371,222355,1,0,0:0:0:0:
316,371,222589,1,0,0:0:0:0:
316,371,222823,1,0,0:0:0:0:
316,371,223058,1,0,0:0:0:0:
316,371,223292,1,0,0:0:0:0:
468,328,223527,5,0,0:0:0:0:
465,295,223761,1,0,0:0:0:0:
468,328,223995,1,0,0:0:0:0:
465,295,224230,1,0,0:0:0:0:
399,235,224464,5,0,0:0:0:0:
388,349,224698,1,0,0:0:0:0:
399,235,224933,1,0,0:0:0:0:
388,349,225167,1,0,0:0:0:0:
358,174,225402,5,0,0:0:0:0:
300,209,225636,1,0,0:0:0:0:
232,205,225870,1,0,0:0:0:0:
180,160,226105,1,0,0:0:0:0:
185,284,226339,5,0,0:0:0:0:
133,239,226573,1,0,0:0:0:0:
65,235,226808,1,0,0:0:0:0:
7,270,227042,1,0,0:0:0:0:
180,160,227277,5,0,0:0:0:0:
95,295,227511,1,0,0:0:0:0:
65,235,227745,1,0,0:0:0:0:
133,239,227980,1,0,0:0:0:0:
182,53,228214,5,0,0:0:0:0:
107,379,228448,1,0,0:0:0:0:
241,334,228683,1,0,0:0:0:0:
133,239,228917,1,0,0:0:0:0:
322,344,229152,5,0,0:0:0:0:
339,279,229386,1,0,0:0:0:0:
404,296,229620,1,0,0:0:0:0:
387,361,229855,1,0,0:0:0:0:
322,344,230089,5,0,0:0:0:0:
404,296,230323,1,0,0:0:0:0:
339,279,230558,1,0,0:0:0:0:
387,361,230792,1,0,0:0:0:0:
322,344,231027,5,0,0:0:0:0:
356,214,231261,1,0,0:0:0:0:
486,248,231495,1,0,0:0:0:0:
452,378,231730,1,0,0:0:0:0:
257,329,231964,6,0,L|153:307,1,89.9999976158143
13,381,232433,2,0,L|117:359,1,89.9999976158143
320,311,232902,5,0,0:0:0:0:
311,378,233136,1,0,0:0:0:0:
344,156,233370,5,0,0:0:0:0:
311,378,233605,1,0,0:0:0:0:
58,74,233839,6,0,L|65:149,1,67.4999982118607
72,235,234308,2,0,L|55:44,1,161.999990764618
49,14,234777,6,0,B|115:18|117:78|117:78|138:60|170:52|170:52|126:103|152:162,1,269.999984607697,2|0,0:0|0:0,0:0:0:0:
191,199,235480,5,2,0:0:0:0:
28,355,235714,1,0,0:0:0:0:
17,183,235948,6,0,L|20:258,1,49.500000199318
122,337,236183,6,0,B|174:321|145:193|-48:339|173:429|233:280,1,269.999992847443,2|0,0:0|0:0,0:0:0:0:
289,246,236652,6,0,B|285:303|285:303|294:316|294:316|289:380|289:380|294:314|294:314|286:302|286:302|291:242,1,270.000003147125,4|0,0:0|0:0,0:0:0:0:
462,97,237589,6,0,L|465:80,5,11.2499997019768
367,315,237823,2,0,L|370:332,5,11.2499997019768
444,197,238058,2,0,P|453:265|434:296,1,89.9999976158143
304,121,238292,6,0,P|278:209|309:272,1,152.999998865128
372,42,238527,6,0,L|77:35,1,269.999992847443
193,38,238761,1,0,0:0:0:0:
193,38,238995,1,0,0:0:0:0:
19,291,239464,6,0,L|26:365,1,67.4999982118607
122,251,239933,2,0,L|115:325,1,67.4999982118607
292,359,240402,6,0,B|314:326|314:326|165:355|165:355|314:326|314:326|292:360,1,359.999990463257,4|4,0:0|0:0,0:0:0:0:
440,356,241339,2,0,L|447:281,1,67.4999982118607
363,239,241573,6,0,B|391:217|391:217|371:362,1,135.000001573563
269,231,241808,2,0,L|269:214,6,11.2499997019768
286,298,242042,6,0,L|137:281,1,135.000001573563
0,373,242277,2,0,L|134:357,1,135.000001573563
20,133,242511,6,0,B|86:144|130:98|130:98|111:142|113:164|113:164|152:130|217:143,1,269.999992847443
113,162,242745,1,0,0:0:0:0:
113,162,242980,1,0,0:0:0:0:
187,139,243214,6,0,L|496:113,1,269.999992847443
424,148,243683,6,0,L|-6:132,1,405.000004720688
99,82,244152,6,0,B|124:23|124:23|177:45|177:45|150:106|150:106|96:85|96:85|123:23|123:23|176:43|176:43|150:106|150:106|97:85|97:85,1,405.000004720688,4|0,0:0|0:0,0:0:0:0:
19,132,244620,2,0,L|16:15,1,89.9999976158143
239,17,245089,6,0,L|240:31,6,11.2499997019768
96,168,245323,2,0,L|96:156,6,11.2499997019768
205,133,245558,2,0,B|274:139|274:139|213:173,1,135.000001573563
37,83,245792,6,0,B|8:67|8:67|43:64,1,67.5000007867814
96,168,246027,6,0,B|124:244|46:257|98:349,1,178.199994735489
80,283,246261,1,0,0:0:0:0:
80,283,246495,1,0,0:0:0:0:
156,375,246964,5,0,0:0:0:0:
156,375,247198,1,0,0:0:0:0:
243,286,247374,5,0,0:0:0:0:
243,286,247433,2,0,L|236:354,1,59.399998245163
396,343,247902,6,0,B|362:261|362:261|303:331|303:331|362:261|362:261|397:344,1,359.999990463257,4|0,0:0|0:0,0:0:0:0:
480,175,248605,6,0,L|484:130,1,29.6999991225815
487,116,248839,6,0,B|513:147|513:147|308:124,1,202.500002360344
283,92,249073,2,0,L|289:194,1,89.9999976158143
185,22,249308,6,0,L|164:222,1,179.999995231629
143,377,249777,5,4,0:0:0:0:
39,286,251652,6,0,B|58:308|61:341|61:341|57:299|65:282|96:249|111:220|118:193|117:170|114:143|99:128|84:111|51:111|26:124|14:149|19:199|37:220|107:218|146:249|165:305|165:305|161:253|192:214,1,629.9999833107,2|0,0:0|0:0,0:0:0:0:
255,176,253527,6,0,B|308:160|348:179|369:228|356:275|328:299|281:311|253:289|242:266|242:266|250:314|286:344|344:335|366:295|375:268,1,449.999988079071
465,246,254933,2,0,P|448:290|464:348,1,89.9999976158143
255,176,255402,6,0,B|210:200|188:261|187:321|228:347|300:326|307:242|277:230|232:222|207:222|182:224|153:195|165:144|165:144|160:202|102:225,1,449.999988079071
17,105,257042,5,0,0:0:0:0:
17,105,257159,1,0,0:0:0:0:
17,105,257277,6,0,P|75:115|113:84,1,89.9999976158143
179,21,257745,1,0,0:0:0:0:
137,238,257980,5,0,0:0:0:0:
137,238,258097,1,0,0:0:0:0:
187,289,258214,6,0,P|206:218|160:167,1,135.000001573563
90,183,258448,2,0,P|65:243|97:300,1,135.000001573563
274,244,258683,2,0,L|276:229,12,11.2499997019768
352,161,259152,6,0,B|425:218|504:144|504:144|475:214|475:214|497:280|463:339|402:372|402:372|336:328|345:255,1,539.999985694885,2|0,0:0|0:0,0:0:0:0:
276,225,260675,1,0,0:0:0:0:
276,225,260792,2,0,P|280:261|268:303,1,44.9999988079071
213,248,261027,6,0,P|206:164|362:190,1,269.999992847443
390,84,261964,6,0,P|383:8|406:-18,1,89.9999976158143
484,45,262433,1,0,0:0:0:0:
484,45,262667,1,0,0:0:0:0:
302,126,262902,6,0,B|276:71|281:34|281:34|271:82|212:96|212:96|201:91|190:115|191:159|213:171|237:162|252:140|254:124|251:110|234:83|225:76|208:66|208:51|212:24|212:24|168:35|148:72|148:72|134:102|126:132|139:173|183:208,1,641.249983012677
286,221,264777,6,0,L|486:204,1,179.999995231629
461,348,265480,1,0,0:0:0:0:
461,348,265597,1,0,0:0:0:0:
303,333,265714,6,0,L|401:342,1,89.9999976158143
512,263,265948,2,0,L|414:272,1,89.9999976158143
221,282,266183,2,0,L|222:297,14,11.2499997019768
227,351,266652,5,0,0:0:0:0:
70,376,266886,1,0,0:0:0:0:
92,373,267003,1,0,0:0:0:0:
114,370,267120,1,0,0:0:0:0:
136,367,267237,1,0,0:0:0:0:
158,364,267355,1,0,0:0:0:0:
107,246,267589,1,0,0:0:0:0:
85,243,267706,1,0,0:0:0:0:
63,240,267823,1,0,0:0:0:0:
41,237,267941,1,0,0:0:0:0:
19,234,268058,1,0,0:0:0:0:
177,210,268292,6,0,P|196:165|171:116,1,89.9999976158143
208,64,268527,2,0,P|195:106|214:146,1,89.9999976158143
352,102,268761,2,0,L|240:99,1,89.9999976158143
122,91,268995,1,0,0:0:0:0:
316,248,269230,5,0,0:0:0:0:
316,248,269347,1,0,0:0:0:0:
377,284,269464,6,0,P|385:228|360:191,1,89.9999976158143
254,213,269698,2,0,P|246:269|271:306,1,89.9999976158143
456,257,269933,6,0,L|458:236,6,11.2499997019768
450,234,270167,6,0,L|454:303,1,67.5000007867814,8|0,0:0|0:0,0:0:0:0:
456,379,270402,5,0,0:0:0:0:
343,208,270636,1,0,0:0:0:0:
345,241,270753,1,0,0:0:0:0:
347,274,270870,1,0,0:0:0:0:
349,307,270987,1,0,0:0:0:0:
352,340,271105,1,0,0:0:0:0:
352,340,271339,1,0,0:0:0:0:
322,325,271456,1,0,0:0:0:0:
293,310,271573,1,0,0:0:0:0:
263,296,271691,1,0,0:0:0:0:
233,282,271808,1,0,0:0:0:0:
233,282,272042,6,0,L|237:371,1,67.5000007867814
81,260,272277,2,0,L|90:133,1,89.9999976158143
15,293,272511,6,0,P|121:322|149:235,1,179.999995231629
99,16,272980,1,0,0:0:0:0:
99,16,273097,1,0,0:0:0:0:
87,170,273214,6,0,L|96:43,1,89.9999976158143
1,15,273448,2,0,L|7:104,1,89.9999976158143
220,103,273683,6,0,L|222:85,6,11.2499997019768
216,81,273917,2,0,L|211:148,1,67.5000007867814
204,239,274152,5,0,0:0:0:0:
322,69,274386,1,0,0:0:0:0:
324,102,274503,1,0,0:0:0:0:
327,135,274620,1,0,0:0:0:0:
330,168,274737,1,0,0:0:0:0:
333,201,274855,1,0,0:0:0:0:
461,128,275089,1,0,0:0:0:0:
457,161,275206,1,0,0:0:0:0:
341,268,275441,1,0,0:0:0:0:
345,301,275558,1,0,0:0:0:0:
445,244,275792,6,0,B|467:255|467:255|463:320,1,89.9999976158143
255,368,276027,2,0,B|233:357|233:357|237:292,1,89.9999976158143
345,301,276261,2,0,L|341:358,1,44.9999988079071
340,380,276495,1,0,0:0:0:0:
115,307,276730,5,0,0:0:0:0:
115,307,276847,1,0,0:0:0:0:
64,255,276964,6,0,P|42:302|55:355,1,89.9999976158143
167,362,277198,2,0,P|187:322|184:278,1,89.9999976158143
133,187,277433,2,0,L|133:203,13,11.2499997019768
131,121,277902,5,0,0:0:0:0:
131,121,278605,6,0,P|170:122|190:132,1,56.2499985098839
241,176,278780,2,0,L|239:207,1,22.4999994039536
241,176,278956,6,0,L|250:46,1,119.999996821086
319,105,279425,6,0,B|401:83|373:152|468:130,1,134.999996423721
445,133,280714,6,0,L|442:168,1,35.9999990463257
464,288,281652,6,6,L|451:19,1,233.999983089448,6|0,0:0|0:0,0:0:0:0:
109,367,282120,2,0,L|122:98,1,233.999983089448,2|0,0:0|0:0,0:0:0:0:
40,37,282472,1,0,0:0:0:0:
40,37,282589,6,0,L|45:292,1,233.999983089448,2|0,0:0|0:0,0:0:0:0:
198,6,283058,1,2,0:0:0:0:
180,358,283292,1,0,0:0:0:0:
393,75,283527,5,2,0:0:0:0:
387,264,283761,1,0,0:0:0:0:
284,4,283995,2,0,L|298:277,1,233.999983089448,2|0,0:0|0:0,0:0:0:0:
46,86,284464,5,2,0:0:0:0:
60,346,284698,1,0,0:0:0:0:
154,19,284933,2,0,L|140:315,1,269.999992847443,2|0,0:0|0:0,0:0:0:0:
159,322,285167,6,0,L|158:258,1,44.9999988079071
209,214,285402,6,0,P|364:195|423:274,1,233.999983089448,2|0,0:0|0:0,0:0:0:0:
512,62,285870,2,0,P|357:81|298:2,1,233.999983089448,2|0,0:0|0:0,0:0:0:0:
192,88,286222,1,0,0:0:0:0:
192,88,286339,6,0,B|221:38|221:38|204:283,1,233.999983089448,2|0,0:0|0:0,0:0:0:0:
133,15,286808,5,2,0:0:0:0:
192,357,287042,1,0,0:0:0:0:
463,309,287277,6,0,L|218:291,1,233.999983089448,2|0,0:0|0:0,0:0:0:0:
507,247,287745,1,2,0:0:0:0:
192,357,287980,1,0,0:0:0:0:
14,153,288214,6,0,L|337:129,1,323.999981529237,2|0,0:0|0:0,0:0:0:0:
220,4,288683,1,2,0:0:0:0:
192,357,288917,1,0,0:0:0:0:
507,247,289152,6,0,L|183:223,1,233.999983089448,2|0,0:0|0:0,0:0:0:0:
56,213,289620,2,0,P|-10:310|60:403,1,233.999983089448,2|0,0:0|0:0,0:0:0:0:
266,81,290089,6,0,L|32:98,1,233.999983089448,2|0,0:0|0:0,0:0:0:0:
264,362,290558,2,0,L|497:379,1,233.999983089448,2|0,0:0|0:0,0:0:0:0:
498,154,291027,5,2,0:0:0:0:
166,269,291261,1,0,0:0:0:0:
509,84,291495,2,0,L|513:50,11,29.249997886181,2|0|0|0|0|0|0|0|0|0|0|0,0:0|0:0|0:0|0:0|0:0|0:0|0:0|0:0|0:0|0:0|0:0|0:0,0:0:0:0:
441,13,291964,6,0,B|384:66|384:66|419:233,1,233.999983089448,2|0,0:0|0:0,0:0:0:0:
100,72,292433,2,0,B|204:33|204:33|148:378,1,350.999974634172,2|0,0:0|0:0,0:0:0:0:
156,333,292902,6,0,B|294:293|214:443|448:358,1,233.999983089448,2|0,0:0|0:0,0:0:0:0:
41,52,293370,1,2,0:0:0:0:
72,381,293605,1,0,0:0:0:0:
336,197,293839,6,0,B|372:142|372:142|291:66|179:149,1,233.999983089448,2|0,0:0|0:0,0:0:0:0:
438,365,294308,1,2,0:0:0:0:
479,15,294542,1,0,0:0:0:0:
26,171,294777,6,0,L|40:364,1,179.999995231629,2|0,0:0|0:0,0:0:0:0:
195,44,295245,2,0,L|184:186,1,135.000001573563,10|0,0:0|0:0,0:0:0:0:
175,258,295597,1,0,0:0:0:0:
175,258,295714,6,0,B|215:235|243:262|243:262|221:288,1,87.749993658543
162,331,295948,2,0,L|53:327,1,89.9999976158143,2|0,0:0|0:0,0:0:0:0:
305,291,296183,6,0,B|389:269|362:337|436:320,1,135.000001573563,2|0,0:0|0:0,0:0:0:0:
428,321,296652,6,0,L|446:24,1,270.000003147125,6|0,0:0|0:0,0:0:0:0:
97,377,297120,1,2,0:0:0:0:
84,11,297355,1,0,0:0:0:0:
10,194,297589,6,0,B|54:159|54:159|16:378,1,270.000003147125,2|0,0:0|0:0,0:0:0:0:
4,86,298058,2,0,B|85:83|85:83|128:126|128:126|278:117,1,270.000003147125,2|0,0:0|0:0,0:0:0:0:
447,101,298527,6,0,B|478:77|450:20|415:13|363:32|350:97|352:133|379:173|460:212,1,270.000003147125,2|0,0:0|0:0,0:0:0:0:
510,277,298995,2,0,L|223:261,1,270.000003147125,2|0,0:0|0:0,0:0:0:0:
38,183,299347,1,0,0:0:0:0:
79,121,299464,6,0,L|49:398,1,270.000003147125,2|0,0:0|0:0,0:0:0:0:
238,113,299933,2,0,B|204:57|204:57|219:264,1,242.999986146927,2|0,0:0|0:0,0:0:0:0:
221,286,300167,6,0,L|230:217,1,58.499995772362
153,276,300402,6,0,P|151:330|286:293,1,242.99999448967,2|0,0:0|0:0,0:0:0:0:
29,113,300870,2,0,L|35:400,1,242.99999448967,2|0,0:0|0:0,0:0:0:0:
134,15,301339,5,2,0:0:0:0:
105,362,301573,1,0,0:0:0:0:
134,15,301808,5,2,0:0:0:0:
105,362,302042,1,0,0:0:0:0:
29,113,302277,6,0,B|64:73|64:73|137:157|56:252,1,242.99999448967,2|0,0:0|0:0,0:0:0:0:
25,17,302745,1,2,0:0:0:0:
105,362,302980,1,0,0:0:0:0:
268,79,303214,6,0,B|232:39|232:39|161:129|240:218,1,242.99999448967,2|0,0:0|0:0,0:0:0:0:
411,251,303683,2,0,L|124:232,1,242.99999448967,2|0,0:0|0:0,0:0:0:0:
20,223,304034,2,0,L|17:135,1,60.7499986224175
39,139,304152,6,0,L|16:395,1,242.99999448967,2|0,0:0|0:0,0:0:0:0:
72,31,304620,1,2,0:0:0:0:
96,372,304855,1,0,0:0:0:0:
146,13,305089,5,2,0:0:0:0:
0,310,305323,2,0,L|279:293,1,242.99999448967,0|2,0:0|0:0,0:0:0:0:
497,273,305792,1,0,0:0:0:0:
328,119,306027,6,0,B|298:151|302:191|302:191|330:215|359:199|359:199|376:261|335:310,1,242.99999448967,2|0,0:0|0:0,0:0:0:0:
0,134,306495,2,0,L|268:120,1,242.99999448967,2|0,0:0|0:0,0:0:0:0:
501,119,306964,5,2,0:0:0:0:
465,35,307198,2,0,L|476:238,1,179.999995231629,0|2,0:0|0:0,0:0:0:0:
397,5,307667,1,0,0:0:0:0:
388,258,307902,5,2,0:0:0:0:
319,280,308136,1,0,0:0:0:0:
247,275,308370,1,0,0:0:0:0:
199,221,308605,1,0,0:0:0:0:
129,201,308839,1,0,0:0:0:0:
58,216,309073,2,0,L|63:321,1,89.9999976158143
25,85,309542,1,0,0:0:0:0:
42,83,309659,1,0,0:0:0:0:
60,81,309777,6,0,B|50:117|50:117|2:122|2:122|-19:226|-19:226|68:215,1,269.999992847443,0|8,0:0|0:0,0:0:0:0:
181,190,310714,6,0,P|197:230|197:269,1,67.5000007867814
219,129,310948,2,0,P|252:155|272:189,1,67.5000007867814
117,243,311183,6,0,B|38:243|38:243|6:302|6:302|142:302,1,269.999992847443,8|0,0:1|0:0,0:0:0:0:
377,296,311652,6,0,B|333:247|333:247|432:247|432:247|473:303|473:303|433:303,1,270.000003147125,6|0,0:0|0:0,0:0:0:0:
240,144,312120,2,0,L|512:144,1,270.000003147125,2|0,0:0|0:0,0:0:0:0:
88,352,312589,5,2,0:0:0:0:
448,352,312823,1,0,0:0:0:0:
512,72,313058,2,0,L|240:72,1,270.000003147125,2|0,0:0|0:0,0:0:0:0:
448,352,313527,5,2,0:0:0:0:
88,352,313761,1,0,0:0:0:0:
240,0,313995,2,0,L|512:0,1,270.000003147125,2|0,0:0|0:0,0:0:0:0:
272,376,314464,6,0,L|0:376,1,270.000003147125,2|0,0:0|0:0,0:0:0:0:
256,192,314933,6,0,B|256:160|256:160|279:166|285:182|286:197|286:207|276:217|262:226|240:222|230:207|225:192|238:171,1,157.499995827675,2|0,0:0|0:0,0:0:0:0:
136,8,315402,6,0,L|136:288,1,270.000003147125,2|0,0:0|0:0,0:0:0:0:
0,368,315870,2,0,L|0:98,1,270.000003147125,2|0,0:0|0:0,0:0:0:0:
400,80,316339,5,2,0:0:0:0:
400,336,316573,1,0,0:0:0:0:
288,0,316808,6,0,L|288:280,1,270.000003147125,2|0,0:0|0:0,0:0:0:0:
96,368,317277,5,2,0:0:0:0:
96,48,317511,1,0,0:0:0:0:
208,384,317745,6,0,L|208:32,1,323.999981529237,2|0,0:0|0:0,0:0:0:0:
464,384,318214,5,2,0:0:0:0:
464,0,318448,1,0,0:0:0:0:
368,384,318683,6,0,L|368:0,1,359.999990463257,2|0,0:0|0:0,0:0:0:0:
0,244,319152,6,0,B|158:197|87:355|289:294,1,270.000003147125,2|0,0:0|0:0,0:0:0:0:
98,1,319620,1,2,0:0:0:0:
38,361,319855,1,0,0:0:0:0:
492,237,320089,6,0,L|180:212,1,270.000003147125,2|0,0:0|0:0,0:0:0:0:
414,1,320558,1,2,0:0:0:0:
474,361,320792,1,0,0:0:0:0:
6,156,321027,6,0,L|236:135,1,202.500002360344,2|0,0:0|0:0,0:0:0:0:
265,164,321261,2,0,L|37:154,1,202.500002360344
22,86,321495,6,0,L|19:38,12,33.7500003933907,2|0|0|0|0|0|0|0|0|0|0|0|0,0:0|0:0|0:0|0:0|0:0|0:0|0:0|0:0|0:0|0:0|0:0|0:0|0:0,0:0:0:0:
103,29,321964,6,0,B|250:-11|187:124|368:75,1,270.000003147125,2|0,0:0|0:0,0:0:0:0:
464,43,322433,2,0,B|428:-5|428:-5|441:227,1,270.000003147125,2|0,0:0|0:0,0:0:0:0:
445,373,322784,1,0,0:0:0:0:
512,348,322902,6,0,L|243:326,1,270.000003147125,2|0,0:0|0:0,0:0:0:0:
42,157,323370,1,2,0:0:0:0:
29,360,323605,2,0,L|38:225,1,135.000001573563
46,51,323839,6,0,B|144:28|144:28|129:228,1,270.000003147125,2|0,0:0|0:0,0:0:0:0:
429,344,324308,2,0,B|331:367|331:367|346:167,1,270.000003147125,2|0,0:0|0:0,0:0:0:0:
357,14,324777,5,2,0:0:0:0:
503,362,325011,1,0,0:0:0:0:
144,213,325245,1,2,0:0:0:0:
465,141,325480,1,0,0:0:0:0:
459,208,325597,1,0,0:0:0:0:
453,275,325714,5,2,0:3:0:0:
477,26,325948,1,2,0:3:0:0:
225,302,326183,2,0,L|28:309,1,135.000001573563,2|2,0:3|0:3,0:3:0:0:
92,116,326652,6,0,B|190:85|165:173|264:149|264:149|287:142|329:126|307:59|265:47|226:58|214:106|214:143|264:148|264:148|310:156|347:187|345:237|331:274|296:293|296:293|334:295|361:269|361:269|341:305|351:335|371:361|397:369|420:364|442:355|461:333|465:312|461:291|449:268,1,910.80000366745,2|0,0:0|0:0,0:0:0:0:
499,228,329464,6,0,P|476:268|510:387,1,158.400000637817
318,157,330402,6,0,B|415:102|328:-13|268:76|225:135|294:212|334:231,2,316.800001275635,2|0|0,0:0|0:0|0:0,0:0:0:0:
0,185,333214,6,0,P|114:173|228:260,1,237.600000956726
275,295,334152,6,0,B|299:269|290:236|290:236|361:291|362:347|331:385|331:385|322:337|383:298|383:298|410:308|451:297|476:268|473:236|458:204|435:190|405:189|381:205|381:205|413:182|411:149|430:124|469:119|469:119|434:121|396:101|384:82|375:42|385:7|437:-10|475:-8|496:55|440:111|407:57|437:37,1,950.400003826905,2|0,0:0|0:0,0:0:0:0:
281,48,337433,2,0,L|195:46,1,79.2000003189087
96,22,337902,6,0,B|114:71|78:142|78:142|90:127|110:117|138:119|158:125|174:147|177:173|174:197|156:216|135:223|106:220|87:208|84:202|84:202|121:235|125:269|120:301|105:324|79:346|53:344|29:316|29:316|54:298|83:313,1,594.000002391816,2|0,0:0|0:0,0:0:0:0:
170,343,339777,6,0,P|223:351|356:233,1,237.600000956726
354,136,340714,1,0,0:0:0:0:
354,136,340948,1,8,0:0:0:0:
379,355,341183,2,0,L|494:347,1,79.2000003189087
307,360,341652,5,4,0:0:0:0:
256,192,341769,12,0,347277,0:0:0:0:
