osu file format v14

[General]
AudioFilename: audio.mp3
AudioLeadIn: 0
PreviewTime: 61765
Countdown: 0
SampleSet: Soft
StackLeniency: 0.7
Mode: 0
LetterboxInBreaks: 0
WidescreenStoryboard: 0

[Editor]
DistanceSpacing: 1
BeatDivisor: 4
GridSize: 32
TimelineZoom: 2.999999

[Metadata]
Title:Everything Goes On (Star Guardian Version) (Sped Up Ver.)
TitleUnicode:Everything Goes On (Star Guardian Version) (Sped Up Ver.)
Artist:Porter Robinson
ArtistUnicode:Porter Robinson
Creator:Sotarks
Version:Top Diff
Source:League of Legends
Tags:speed 2022 Official Music Video Red Dog Culture House Riot games English Electronic Pop Male vocals vocalist edit banter pepekcz xahlt kuon- gweon sua
BeatmapID:3716285
BeatmapSetID:1811717

[Difficulty]
HPDrainRate:6
CircleSize:4
OverallDifficulty:8.7
ApproachRate:9.2
SliderMultiplier:1.82
SliderTickRate:1

[Events]
//Background and Video events
0,0,"bg.jpg",0,0
Video,0,"video.mp4"
//Break Periods
//Storyboard Layer 0 (Background)
//Storyboard Layer 1 (Fail)
//Storyboard Layer 2 (Pass)
//Storyboard Layer 3 (Foreground)
//Storyboard Layer 4 (Overlay)
//Storyboard Sound Samples

[TimingPoints]
4025,332.317917474384,4,2,22,32,1,0
4025,-138.888888888889,4,2,22,32,0,0
9342,-108.695652173913,4,2,22,42,0,0
30610,-98.0392156862745,4,2,22,52,0,0
41244,-161.290322580645,4,2,22,42,0,0
61183,-121.951219512195,4,2,22,52,0,0
62512,-98.0392156862745,4,2,22,62,0,0
82452,-121.951219512195,4,2,22,52,0,0
83781,-161.290322580645,4,2,22,42,0,0
94415,-98.0392156862745,4,2,22,52,0,0
104385,-121.951219512195,4,2,22,52,0,0
104717,-81.9672131147541,4,2,22,62,0,0
105049,-89.2857142857143,4,2,22,72,0,0
124988,-121.951219512195,4,2,22,42,0,0
125819,-121.951219512195,4,2,22,32,0,0
126317,-161.290322580645,4,2,22,32,0,0
126401,-161.290322580645,4,2,22,5,0,0

[Colours]
Combo1 : 243,73,120
Combo2 : 255,155,205
Combo3 : 231,49,251
Combo4 : 245,197,237
Combo5 : 108,255,255

[HitObjects]
146,148,4024,5,2,0:2:0:0:
242,46,4191,2,0,P|236:86|225:119,1,65.5200015996094,2|0,0:2|0:2,0:2:0:0:
146,148,4523,2,0,P|138:87|126:-2,1,131.040003199219,2|2,0:2|0:2,0:2:0:0:
128,18,4938,1,2,0:2:0:0:
128,18,5021,1,2,0:2:0:0:
64,123,5188,6,0,P|20:109|-8:105,1,65.5200015996094,2|0,0:2|0:2,0:2:0:0:
228,109,5520,2,0,P|262:77|279:55,1,65.5200015996094,2|0,0:2|0:2,0:2:0:0:
143,235,5852,2,0,P|154:308|177:385,1,131.040003199219,2|0,0:2|0:2,0:2:0:0:
67,320,6351,1,2,0:2:0:0:
374,180,6683,5,2,0:2:0:0:
302,274,6849,2,0,P|292:242|288:210,1,65.5200015996094,2|0,0:2|0:2,0:2:0:0:
378,364,7182,2,0,B|358:357|331:351|331:351|299:360|299:360|266:350|238:345,1,131.040003199219,2|0,0:2|0:2,0:2:0:0:
86,270,7680,1,2,0:2:0:0:
147,384,7846,1,2,0:2:0:0:
215,269,8012,5,2,0:2:0:0:
215,269,8345,2,0,P|206:222|194:148,1,98.2800023994141,2|0,0:2|0:2,0:2:0:0:
197,172,8677,2,0,P|147:156|121:154,1,65.5200015996094,2|0,3:2|0:2,0:2:0:0:
311,107,9009,2,0,P|361:123|387:125,1,65.5200015996094,2|0,3:2|0:2,0:2:0:0:
201,21,9342,6,0,P|137:15|84:58,1,125.579995784363,2|0,3:2|0:2,0:2:0:0:
57,51,9674,2,0,P|64:101|78:148,1,83.7199971895753,2|0,3:2|0:2,0:2:0:0:
234,227,10006,2,0,P|226:177|212:129,1,83.7199971895753,2|0,3:2|0:2,0:2:0:0:
137,288,10339,1,2,3:2:0:0:
234,347,10505,6,0,B|261:336|289:322|289:322|332:338|332:338|364:324|417:306,1,167.439994379151,2|2,3:2|0:2,0:2:0:0:
420,192,11003,1,0,3:2:0:0:
335,92,11169,2,0,P|299:148|365:234,1,167.439994379151,2|0,3:2|0:2,0:2:0:0:
429,89,11668,1,2,3:2:0:0:
266,158,11834,5,2,0:2:0:0:
266,158,11917,1,2,0:2:0:0:
266,158,12000,2,0,P|217:139|178:132,1,83.7199971895753,2|0,3:2|0:2,0:2:0:0:
81,245,12332,2,0,P|144:256|259:303,1,167.439994379151,0|0,3:2|0:2,0:2:0:0:
371,268,12831,2,0,P|356:321|351:357,1,83.7199971895753,0|0,3:2|0:2,0:2:0:0:
289,194,13163,6,0,B|276:157|276:157|285:119|285:119|268:82|271:32,1,167.439994379151,2|0,3:2|0:2,0:2:0:0:
464,102,13662,2,0,P|422:148|354:138,1,125.579995784363,0|0,3:2|0:2,0:2:0:0:
358,118,13994,2,0,P|364:68|377:20,1,83.7199971895753,2|0,3:2|0:2,0:2:0:0:
289,194,14326,2,0,P|279:233|274:285,1,83.7199971895753,2|0,3:2|0:2,0:2:0:0:
186,116,14659,6,0,P|124:75|52:98,1,125.579995784363,0|0,3:2|0:2,0:2:0:0:
43,100,14991,2,0,P|48:148|65:193,1,83.7199971895753,2|0,3:2|0:2,0:2:0:0:
140,328,15323,1,2,3:2:0:0:
11,280,15489,1,0,3:2:0:0:
152,197,15656,1,0,3:2:0:0:
260,295,15822,6,0,B|302:316|302:316|359:315|416:267,1,167.439994379151,2|2,3:2|0:2,0:2:0:0:
298,179,16320,1,0,3:2:0:0:
422,104,16486,2,0,P|381:53|281:60,1,167.439994379151,2|2,0:2|0:2,0:2:0:0:
316,198,16985,1,0,3:2:0:0:
196,90,17151,5,2,0:2:0:0:
196,90,17234,1,2,0:2:0:0:
196,90,17317,2,0,P|185:139|180:183,1,83.7199971895753,0|2,3:2|0:2,0:2:0:0:
80,129,17650,1,0,3:2:0:0:
24,281,17816,2,0,B|67:276|94:249|94:249|133:264|186:254,1,167.439994379151,2|2,0:2|0:2,0:2:0:0:
109,363,18314,1,0,3:2:0:0:
266,237,18480,6,0,P|205:291|224:377,1,167.439994379151,2|0,0:2|3:2,0:2:0:0:
383,334,18979,2,0,P|366:259|364:204,1,125.579995784363,0|0,3:2|0:2,0:2:0:0:
371,191,19311,2,0,P|413:175|458:172,1,83.7199971895753,0|0,3:2|0:2,0:2:0:0:
262,115,19643,2,0,P|222:119|169:136,1,83.7199971895753,2|0,3:2|0:2,0:2:0:0:
368,80,19976,5,2,3:2:0:0:
283,359,20308,2,0,B|274:337|260:309|260:309|274:271|274:271|258:232|242:187,1,167.439994379151,2|0,3:2|3:2,0:2:0:0:
134,295,20807,1,0,3:2:0:0:
180,131,20973,1,2,3:2:0:0:
11,190,21139,6,0,P|71:180|141:227,1,125.579995784363,0|0,3:2|0:2,0:2:0:0:
122,204,21471,1,0,3:2:0:0:
73,82,21637,2,0,P|81:37|91:-3,1,83.7199971895753,2|2,3:2|3:2,0:2:0:0:
212,118,21970,1,0,3:2:0:0:
171,38,22136,1,2,0:2:0:0:
317,13,22302,1,0,3:2:0:0:
264,190,22468,1,2,0:2:0:0:
411,155,22634,6,0,P|372:138|326:128,1,83.7199971895753,0|0,3:2|0:2,0:2:0:0:
486,249,22967,2,0,B|393:245|426:301|326:297,1,167.439994379151,0|0,3:2|3:2,0:2:0:0:
191,266,23465,2,0,P|209:315|217:347,1,83.7199971895753,0|0,3:2|0:2,0:2:0:0:
264,190,23797,6,0,B|277:152|277:152|268:114|268:114|285:77|283:21,1,167.439994379151,2|0,3:2|3:2,0:2:0:0:
88,150,24296,2,0,P|144:167|199:117,1,125.579995784363,0|2,3:2|0:2,0:2:0:0:
194,104,24628,2,0,P|187:62|174:18,1,83.7199971895753,0|2,3:2|0:2,0:2:0:0:
264,190,24961,2,0,P|274:228|284:280,1,83.7199971895753,0|2,3:2|0:2,0:2:0:0:
357,112,25293,5,0,3:2:0:0:
144,282,25625,2,0,P|221:292|318:328,1,167.439994379151,0|0,3:2|3:2,0:2:0:0:
437,287,26124,1,0,3:2:0:0:
368,375,26290,1,0,3:2:0:0:
286,279,26456,1,0,3:2:0:0:
378,200,26622,6,0,P|391:147|373:64,1,125.579995784363,2|0,3:2|0:2,0:2:0:0:
379,77,26954,1,2,3:2:0:0:
240,8,27121,2,0,P|245:57|256:94,1,83.7199971895753,2|0,0:2|0:2,0:2:0:0:
145,51,27453,1,2,3:2:0:0:
240,202,27619,2,0,P|187:177|118:192,1,125.579995784363,0|0,3:2|0:2,0:2:0:0:
106,207,27951,6,0,P|114:257|125:296,1,83.7199971895753,0|0,3:2|0:2,0:2:0:0:
229,101,28284,2,0,P|223:61|210:13,1,83.7199971895753,2|0,3:2|0:2,0:2:0:0:
322,166,28616,1,0,3:2:0:0:
405,101,28782,1,0,3:2:0:0:
340,263,28948,1,0,3:2:0:0:
401,113,29115,1,0,3:2:0:0:
400,104,30278,6,0,L|408:136,6,20.9299992973938,8|0|0|0|0|0|0,0:2|0:2|0:2|0:2|0:2|0:2|0:2,0:2:0:0:
345,204,30610,5,6,1:2:0:0:
408,0,30776,1,2,0:2:0:0:
238,137,30942,1,10,0:2:0:0:
397,280,31108,2,0,P|350:248|266:264,1,139.230000849792,2|0,0:2|0:2,0:2:0:0:
248,276,31441,1,0,1:2:0:0:
76,85,31607,2,0,P|98:132|110:197,1,92.8200005665283,8|0,0:2|0:2,0:2:0:0:
107,171,31856,1,0,3:2:0:0:
107,171,31939,6,0,B|145:161|175:148|175:148|224:164|224:164|261:149|299:145,1,185.640001133057,0|8,1:2|0:2,0:2:0:0:
177,246,32438,1,0,3:2:0:0:
168,272,32521,1,0,3:2:0:0:
163,299,32604,1,0,1:2:0:0:
337,221,32770,1,0,3:2:0:0:
364,215,32853,1,0,3:2:0:0:
389,206,32936,1,0,1:2:0:0:
220,77,33102,1,0,3:2:0:0:
202,56,33185,1,0,3:2:0:0:
181,38,33268,5,2,1:2:0:0:
259,197,33435,1,2,0:2:0:0:
370,50,33601,1,10,0:2:0:0:
259,197,33767,2,0,B|269:228|270:259|270:259|281:282|281:282|283:313|292:339,1,139.230000849792,2|0,0:2|0:2,0:2:0:0:
297,361,34099,1,0,1:2:0:0:
56,294,34265,2,0,P|97:247|192:258,1,139.230000849792,8|0,0:2|0:2,0:2:0:0:
169,244,34598,6,0,P|174:193|186:134,1,92.8200005665283,2|0,1:2|0:2,0:2:0:0:
186,126,34847,1,0,1:2:0:0:
186,126,34930,1,10,0:2:0:0:
150,326,35096,1,2,0:2:0:0:
349,217,35262,2,0,P|299:203|250:195,1,92.8200005665283,0|0,1:2|0:2,0:2:0:0:
344,355,35595,2,0,P|389:363|434:375,1,92.8200005665283,8|0,0:2|0:2,0:2:0:0:
434,375,35844,1,0,3:2:0:0:
434,375,35927,5,2,1:2:0:0:
349,217,36093,1,2,0:2:0:0:
464,80,36259,1,10,0:2:0:0:
349,217,36425,2,0,B|301:200|301:200|261:213|261:213|183:189,1,139.230000849792,2|0,0:2|0:2,0:2:0:0:
185,192,36758,1,0,1:2:0:0:
285,93,36924,1,8,0:2:0:0:
200,304,37090,1,0,0:2:0:0:
25,195,37256,6,0,P|48:245|58:296,1,92.8200005665283,0|0,1:2|0:2,0:2:0:0:
163,94,37589,2,0,P|151:49|131:8,1,92.8200005665283,8|0,0:2|3:2,0:2:0:0:
130,7,37838,1,0,3:2:0:0:
130,7,37921,1,0,1:2:0:0:
278,179,38087,1,0,3:2:0:0:
287,205,38170,1,0,3:2:0:0:
294,232,38253,1,0,1:2:0:0:
451,97,38419,1,0,3:2:0:0:
444,70,38502,1,0,3:2:0:0:
436,43,38586,6,0,P|367:26|328:25,1,92.8200005665283,2|0,3:2|3:2,3:2:0:0:
423,224,38918,1,10,0:2:0:0:
238,111,39084,2,0,P|176:96|91:132,1,139.230000849792,2|0,0:2|0:2,0:2:0:0:
84,138,39416,1,2,1:2:0:0:
197,315,39583,1,10,0:2:0:0:
30,249,39749,5,2,1:2:0:0:
30,249,39832,1,0,3:2:0:0:
30,249,39915,2,0,B|120:194|119:285|223:213,1,185.640001133057,0|10,1:2|0:2,0:2:0:0:
386,120,40413,1,0,3:2:0:0:
386,120,40496,1,0,1:2:0:0:
386,120,40579,2,0,P|372:180|367:232,1,92.8200005665283,0|0,1:2|0:2,0:2:0:0:
193,90,40912,2,0,P|199:44|210:0,1,92.8200005665283,8|0,0:2|0:2,0:2:0:0:
62,91,41244,6,0,P|36:116|41:203,1,112.839995523316,2|0,0:2|0:2,0:2:0:0:
132,222,41743,2,0,P|113:288|101:357,1,112.839995523316,2|0,0:2|0:2,0:2:0:0:
193,384,42241,2,0,P|204:334|213:306,1,56.4199977616578,2|2,0:2|0:2,0:2:0:0:
274,238,42573,6,0,P|310:270|388:262,1,112.839995523316,2|0,0:2|0:2,0:2:0:0:
481,305,43072,2,0,P|469:249|453:195,1,112.839995523316,2|0,0:2|0:2,0:2:0:0:
356,172,43570,2,0,P|345:122|336:94,1,56.4199977616578,2|0,0:2|0:2,0:2:0:0:
372,10,43903,6,0,B|352:17|322:23|322:23|306:38|306:38|274:44|245:59,1,112.839995523316,2|0,0:2|0:2,0:2:0:0:
174,8,44401,1,2,0:2:0:0:
103,79,44567,2,0,P|119:133|130:188,1,112.839995523316,2|0,0:2|0:2,0:2:0:0:
37,364,45232,6,0,P|30:336|21:309,2,56.4199977616578,2|0|0,0:2|0:2|0:2,0:2:0:0:
123,316,45730,2,0,B|154:298|189:301|189:301|212:276|212:276|258:270|282:262,1,169.259993284973,2|0,0:2|0:2,0:2:0:0:
381,289,46395,1,2,0:2:0:0:
473,191,46561,6,0,P|407:197|366:158,1,112.839995523316,2|0,0:2|0:2,0:2:0:0:
294,49,47060,2,0,P|305:91|317:126,1,56.4199977616578,2|0,0:2|0:2,0:2:0:0:
231,178,47392,2,0,P|222:151|216:123,1,56.4199977616578,2|0,0:2|0:2,0:2:0:0:
132,67,47724,5,2,0:2:0:0:
132,67,47890,2,0,P|86:36|31:46,1,112.839995523316,2|0,0:2|0:2,0:2:0:0:
74,134,48389,2,0,P|89:200|103:266,1,112.839995523316,2|2,0:2|0:2,0:2:0:0:
124,366,48887,1,0,0:2:0:0:
194,290,49054,1,2,0:2:0:0:
280,350,49220,6,0,P|322:369|393:326,1,112.839995523316,2|2,0:2|0:2,0:2:0:0:
439,267,49718,2,0,P|433:239|419:201,1,56.4199977616578,2|0,0:2|0:2,0:2:0:0:
316,197,50051,2,0,P|325:223|330:251,1,56.4199977616578,2|0,0:2|0:2,0:2:0:0:
390,114,50383,5,2,0:2:0:0:
390,114,50549,2,0,P|344:83|289:93,1,112.839995523316,2|0,0:2|0:2,0:2:0:0:
101,48,51214,1,2,0:2:0:0:
172,131,51380,2,0,P|180:76|199:2,1,112.839995523316,2|2,0:2|0:2,0:2:0:0:
92,181,51878,6,0,P|114:210|194:220,1,112.839995523316,2|2,0:2|0:2,0:2:0:0:
289,273,52377,2,0,P|282:234|275:208,1,56.4199977616578,2|0,0:2|0:2,0:2:0:0:
359,130,52709,2,0,P|365:157|370:185,1,56.4199977616578,2|0,0:2|0:2,0:2:0:0:
460,257,53041,5,2,0:2:0:0:
460,257,53208,2,0,B|465:235|466:217|466:217|474:195|474:195|474:168|485:127,1,112.839995523316,2|0,0:2|0:2,0:2:0:0:
444,19,53706,1,2,0:2:0:0:
375,99,53872,1,2,0:2:0:0:
302,33,54038,2,0,P|237:-3|157:28,1,141.049994404145,2|0,0:2|0:2,0:2:0:0:
169,34,54537,6,0,P|181:72|187:105,2,56.4199977616578,2|0|0,0:2|0:2|0:2,0:2:0:0:
103,139,55035,1,2,0:2:0:0:
176,194,55201,2,0,P|195:249|172:316,1,112.839995523316,2|0,0:2|0:2,0:2:0:0:
501,120,55866,6,0,B|428:82|421:169|323:112,1,169.259993284973,2|0,0:2|0:2,0:2:0:0:
239,49,56531,2,0,P|245:87|255:120,1,56.4199977616578,2|0,0:2|0:2,0:2:0:0:
176,194,56863,2,0,P|169:166|165:138,1,56.4199977616578,2|0,0:2|0:2,0:2:0:0:
83,38,57195,6,0,B|76:59|76:86|76:86|68:108|68:108|67:126|62:148,1,112.839995523316,2|2,0:2|0:2,0:2:0:0:
44,246,57694,1,0,0:2:0:0:
176,194,57860,2,0,P|240:189|288:223,1,112.839995523316,2|0,0:2|0:2,0:2:0:0:
199,292,58358,1,2,0:2:0:0:
286,343,58525,6,0,P|316:331|355:323,1,56.4199977616578,2|0,0:2|0:2,0:2:0:0:
440,365,58857,1,2,0:2:0:0:
440,365,59023,2,0,B|435:343|434:325|434:325|426:303|426:303|426:276|419:255,1,112.839995523316,2|0,0:2|0:2,0:2:0:0:
454,155,59522,2,0,P|400:162|365:136,1,84.6299966424867,0|0,0:2|0:2,0:2:0:0:
363,137,59854,6,0,P|356:109|349:57,1,56.4199977616578,2|0,0:2|0:2,0:2:0:0:
241,21,60186,2,0,P|245:48|252:76,1,56.4199977616578,2|0,0:2|0:2,0:2:0:0:
192,161,60519,1,2,0:2:0:0:
192,161,60685,2,0,P|144:179|78:154,1,112.839995523316,2|0,0:2|0:2,0:2:0:0:
151,268,61183,6,0,P|162:316|166:353,1,74.6200011386109,0|0,1:2|0:2,0:2:0:0:
192,161,61515,2,0,P|186:124|177:87,1,74.6200011386109,8|0,0:2|3:2,0:2:0:0:
173,74,61765,1,0,3:2:0:0:
173,74,61848,2,0,L|126:61,1,37.3100005693054,2|0,3:2|3:2,0:2:0:0:
249,0,62014,1,0,1:2:0:0:
333,156,62180,2,0,P|390:180|452:160,1,111.930001707916,10|0,0:2|0:2,0:2:0:0:
462,153,62512,6,0,P|452:93|438:47,1,92.8200005665283,4|0,1:2|0:2,0:2:0:0:
350,280,62845,1,8,0:2:0:0:
221,159,63011,1,0,3:2:0:0:
221,159,63094,1,0,3:2:0:0:
221,159,63177,1,0,3:2:0:0:
293,384,63343,1,0,1:2:0:0:
122,316,63509,2,0,P|166:296|225:286,1,92.8200005665283,8|0,0:2|0:2,0:2:0:0:
411,82,63842,6,0,B|360:65|360:65|323:78|323:78|263:63,1,139.230000849792,0|0,1:2|0:2,0:2:0:0:
245,56,64174,1,8,0:2:0:0:
347,265,64340,1,0,1:2:0:0:
347,265,64423,1,0,3:2:0:0:
347,265,64506,1,0,3:2:0:0:
126,170,64673,1,0,1:2:0:0:
202,384,64839,2,0,B|217:346|217:346|208:317|208:317|228:280|227:229,1,139.230000849792,8|0,0:2|0:2,0:2:0:0:
234,226,65171,5,0,1:2:0:0:
433,87,65337,1,0,3:2:0:0:
433,87,65420,1,0,3:2:0:0:
433,87,65503,2,0,B|382:114|382:114|304:93|272:31,1,185.640001133057,8|0,0:2|0:2,0:2:0:0:
382,247,66002,1,0,1:2:0:0:
184,124,66168,2,0,P|128:135|84:155,1,92.8200005665283,8|0,0:2|3:2,0:2:0:0:
70,165,66417,1,0,3:2:0:0:
70,165,66500,1,0,1:2:0:0:
226,384,66666,5,0,3:2:0:0:
226,384,66750,1,0,1:2:0:0:
226,384,66833,2,0,B|230:361|229:336|229:336|241:306|241:306|242:269|255:215,1,139.230000849792,8|0,0:2|0:2,0:2:0:0:
251,220,67165,2,0,P|294:203|339:195,1,92.8200005665283,0|0,1:2|0:2,0:2:0:0:
171,25,67497,2,0,P|125:32|82:49,1,92.8200005665283,8|0,0:2|0:2,0:2:0:0:
339,71,67830,6,0,P|390:105|470:90,1,139.230000849792,4|0,1:2|0:2,0:2:0:0:
482,73,68162,2,0,P|499:128|504:183,1,92.8200005665283,8|0,0:2|0:2,0:2:0:0:
412,344,68494,2,0,P|405:298|390:254,1,92.8200005665283,0|0,0:2|1:2,0:2:0:0:
380,227,68743,1,0,3:2:0:0:
380,227,68826,1,8,0:2:0:0:
222,384,68993,1,0,0:2:0:0:
293,153,69159,5,0,1:2:0:0:
171,227,69325,1,0,0:2:0:0:
412,344,69491,1,8,0:2:0:0:
384,119,69657,2,0,P|378:75|365:18,1,92.8200005665283,0|0,1:2|0:2,0:2:0:0:
286,284,69990,1,0,1:2:0:0:
487,170,70156,1,8,0:2:0:0:
283,82,70322,5,0,3:2:0:0:
283,82,70405,1,0,3:2:0:0:
283,82,70488,2,0,P|223:44|139:69,1,139.230000849792,0|0,1:2|0:2,0:2:0:0:
131,73,70820,1,8,0:2:0:0:
285,205,70987,2,0,P|333:186|394:177,1,92.8200005665283,0|0,1:2|0:2,0:2:0:0:
152,322,71319,2,0,P|106:331|63:348,1,92.8200005665283,0|8,1:2|0:2,0:2:0:0:
324,379,71651,1,0,1:2:0:0:
324,379,71734,1,0,3:2:0:0:
324,379,71817,5,0,3:2:0:0:
169,214,71984,1,0,1:2:0:0:
340,103,72150,1,8,0:2:0:0:
278,283,72316,1,0,1:2:0:0:
493,147,72482,1,8,0:2:0:0:
283,13,72648,1,0,1:2:0:0:
163,216,72814,1,8,0:2:0:0:
120,234,72897,1,8,0:2:0:0:
75,228,72980,1,8,0:2:0:0:
39,200,73063,1,8,0:2:0:0:
22,157,73147,6,0,B|55:150|75:140|75:140|110:144|110:144|145:131|188:126,1,139.230000849792,4|0,1:2|0:2,0:2:0:0:
184,125,73479,2,0,P|194:66|194:26,1,92.8200005665283,8|0,0:2|0:2,0:2:0:0:
298,217,73811,1,0,0:2:0:0:
419,26,73977,1,0,1:2:0:0:
500,186,74144,2,0,P|439:168|398:165,1,92.8200005665283,8|0,0:2|3:2,0:2:0:0:
410,165,74393,1,0,3:2:0:0:
410,165,74476,6,0,B|430:231|411:246|437:320,1,139.230000849792,0|0,1:2|0:2,0:2:0:0:
434,338,74808,1,8,0:2:0:0:
212,248,74974,2,0,P|257:224|314:216,1,92.8200005665283,0|0,1:2|0:2,0:2:0:0:
173,92,75307,1,0,1:2:0:0:
102,324,75473,1,8,0:2:0:0:
12,229,75639,5,0,3:2:0:0:
12,229,75722,1,0,3:2:0:0:
12,229,75805,2,0,B|104:173|91:275|220:195,1,185.640001133057,0|8,1:2|0:2,0:2:0:0:
345,101,76304,1,0,3:2:0:0:
345,101,76387,1,0,3:2:0:0:
345,101,76470,1,0,3:2:0:0:
269,325,76636,1,0,1:2:0:0:
466,241,76802,2,0,P|418:222|358:213,1,92.8200005665283,8|0,0:2|0:2,0:2:0:0:
159,8,77134,6,0,P|204:17|247:34,1,92.8200005665283,0|0,1:2|0:2,0:2:0:0:
247,34,77384,1,0,1:2:0:0:
247,34,77467,2,0,B|258:80|258:80|245:106|245:106|263:145|264:186,1,139.230000849792,8|0,0:2|0:2,0:2:0:0:
257,193,77799,2,0,P|245:249|243:296,1,92.8200005665283,0|0,1:2|0:2,0:2:0:0:
28,208,78131,1,0,1:2:0:0:
48,171,78214,1,0,3:2:0:0:
82,149,78297,1,0,3:2:0:0:
124,145,78380,1,0,3:2:0:0:
162,160,78464,6,0,P|158:239|139:318,1,139.230000849792,0|0,1:2|0:2,0:2:0:0:
134,326,78796,1,8,0:2:0:0:
355,187,78962,1,0,1:2:0:0:
424,298,79128,2,0,P|396:287|355:278,1,46.4100002832642,0|0,3:2|3:2,0:2:0:0:
296,80,79295,2,0,P|318:86|339:95,1,46.4100002832642,0|0,3:2|3:2,0:2:0:0:
236,218,79461,2,0,P|172:248|103:229,1,139.230000849792,8|0,0:2|0:2,0:2:0:0:
88,209,79793,6,0,P|91:162|102:117,1,92.8200005665283,0|0,1:2|0:2,0:2:0:0:
296,293,80125,2,0,P|285:338|281:384,1,92.8200005665283,8|0,1:2|0:2,0:2:0:0:
416,140,80458,1,8,0:2:0:0:
179,287,80624,1,8,0:2:0:0:
309,49,80790,1,8,0:2:0:0:
290,90,80873,1,8,0:2:0:0:
252,116,80956,1,8,0:2:0:0:
206,118,81039,1,8,0:2:0:0:
167,95,81122,5,4,1:2:0:0:
298,210,81288,1,0,1:2:0:0:
121,358,81455,1,8,0:2:0:0:
188,214,81621,1,0,3:2:0:0:
188,214,81704,1,0,3:2:0:0:
188,214,81787,1,0,1:2:0:0:
351,322,81953,1,0,1:2:0:0:
79,206,82119,1,8,0:2:0:0:
226,32,82285,1,0,1:2:0:0:
298,210,82452,6,0,P|308:152|319:118,2,74.6200011386109,0|0|0,1:2|0:2|0:2,0:2:0:0:
391,96,82950,2,0,P|365:52|271:47,1,149.240002277222,0|2,3:2|0:2,0:2:0:0:
250,62,83365,1,2,0:2:0:0:
253,75,83448,1,6,0:2:0:0:
154,7,83615,1,2,0:2:0:0:
104,78,83781,6,0,P|118:139|131:201,1,112.839995523316,2|0,0:2|0:2,0:2:0:0:
206,261,84279,1,2,0:2:0:0:
193,366,84445,1,2,0:2:0:0:
193,366,84612,2,0,P|233:356|259:354,2,56.4199977616578,2|0|0,0:2|0:2|0:2,0:2:0:0:
359,373,85110,6,0,B|364:354|364:334|364:334|374:316|374:316|376:290|381:245,1,112.839995523316,0|2,0:2|0:2,0:2:0:0:
443,190,85609,2,0,P|406:177|383:174,1,56.4199977616578,2|0,0:2|0:2,0:2:0:0:
342,75,85941,2,0,P|369:80|395:90,1,56.4199977616578,2|0,0:2|0:2,0:2:0:0:
287,160,86273,1,2,0:2:0:0:
287,160,86439,6,0,P|237:179|185:159,1,84.6299966424867,2|0,0:2|0:2,0:2:0:0:
191,162,86772,2,0,P|193:124|202:83,1,56.4199977616578,2|0,0:2|0:2,0:2:0:0:
106,51,87104,1,2,0:2:0:0:
106,51,87270,2,0,P|101:78|100:107,1,56.4199977616578,2|2,0:2|0:2,0:2:0:0:
50,184,87602,6,0,B|52:210|54:236|54:236|64:254|64:254|64:274|69:293,1,112.839995523316,2|0,0:2|0:2,0:2:0:0:
127,361,88101,2,0,P|176:332|237:345,1,112.839995523316,2|0,0:2|0:2,0:2:0:0:
291,261,88599,1,2,0:2:0:0:
320,384,88766,1,2,0:2:0:0:
291,261,88932,1,2,0:2:0:0:
379,313,89098,6,0,P|425:317|464:296,1,84.6299966424867,2|0,0:2|0:2,0:2:0:0:
471,281,89430,2,0,P|474:239|479:211,1,56.4199977616578,2|2,0:2|0:2,0:2:0:0:
402,159,89763,2,0,P|403:130|407:102,1,56.4199977616578,0|2,0:2|0:2,0:2:0:0:
445,20,90095,5,0,0:2:0:0:
445,20,90261,2,0,P|408:52|334:42,1,112.839995523316,2|2,0:2|0:2,0:2:0:0:
246,90,90759,2,0,P|202:55|147:60,1,112.839995523316,0|0,0:2|0:2,0:2:0:0:
46,112,91258,2,0,P|36:69|27:48,2,56.4199977616578,2|0|2,0:2|0:2|0:2,0:2:0:0:
137,169,91756,5,2,0:2:0:0:
40,348,92089,2,0,P|82:325|131:329,1,84.6299966424867,2|0,0:2|0:2,0:2:0:0:
141,317,92421,2,0,P|152:362|154:390,1,56.4199977616578,2|0,0:2|0:2,0:2:0:0:
237,314,92753,1,2,0:2:0:0:
310,370,92920,5,2,0:2:0:0:
310,370,93086,1,2,0:2:0:0:
349,225,93418,1,2,0:2:0:0:
380,115,93667,5,0,0:2:0:0:
380,115,93750,1,2,0:2:0:0:
349,225,93916,1,2,0:2:0:0:
256,175,94083,2,0,L|250:151,6,14.1049994404145,10|0|0|0|0|0|0,0:2|0:2|0:2|0:2|0:2|0:2|0:2,0:2:0:0:
237,148,94415,6,0,P|166:119|107:139,1,139.230000849792,6|0,1:2|0:2,0:2:0:0:
90,163,94747,1,8,0:2:0:0:
214,340,94913,2,0,P|220:294|234:237,1,92.8200005665283,2|0,0:2|0:2,0:2:0:0:
110,278,95246,1,0,1:2:0:0:
308,183,95412,1,8,0:2:0:0:
159,64,95578,5,0,3:2:0:0:
159,64,95661,1,0,3:2:0:0:
159,64,95744,2,0,B|194:25|247:22|247:22|284:58|347:50,1,185.640001133057,2|8,1:2|0:2,0:2:0:0:
265,172,96243,1,2,3:2:0:0:
258,145,96326,1,0,3:2:0:0:
246,120,96409,1,0,1:2:0:0:
366,217,96575,1,0,3:2:0:0:
392,224,96658,1,0,3:2:0:0:
420,226,96741,1,0,1:2:0:0:
256,274,96907,1,0,3:2:0:0:
236,293,96990,1,0,3:2:0:0:
221,316,97074,6,0,B|218:290|208:269|208:269|212:241|212:241|203:217|196:169,1,139.230000849792,2|0,1:2|0:2,0:2:0:0:
182,166,97406,2,0,P|129:149|77:150,1,92.8200005665283,8|0,0:2|0:2,0:2:0:0:
164,58,97738,1,0,0:2:0:0:
112,262,97904,1,0,1:2:0:0:
281,164,98070,2,0,B|332:146|332:146|363:158|363:158|426:138,1,139.230000849792,8|0,0:2|0:2,0:2:0:0:
441,123,98403,6,0,P|440:181|433:235,1,92.8200005665283,2|0,1:2|0:2,0:2:0:0:
433,247,98652,1,0,1:2:0:0:
433,247,98735,1,8,0:2:0:0:
320,53,98901,1,0,0:2:0:0:
192,190,99067,2,0,P|265:165|293:164,1,92.8200005665283,0|0,1:2|0:2,0:2:0:0:
88,38,99400,2,0,P|42:45|0:64,1,92.8200005665283,8|0,0:2|0:2,0:2:0:0:
62,303,99732,6,0,P|69:242|90:149,1,139.230000849792,2|0,1:2|0:2,0:2:0:0:
91,136,100064,1,8,0:2:0:0:
191,231,100231,1,2,3:2:0:0:
191,231,100314,1,0,3:2:0:0:
191,231,100397,1,0,0:2:0:0:
295,52,100563,1,0,1:2:0:0:
419,154,100729,2,0,P|405:220|400:263,1,92.8200005665283,8|0,0:2|0:2,0:2:0:0:
401,245,100978,1,0,3:2:0:0:
401,245,101061,6,0,P|346:257|299:274,1,92.8200005665283,2|0,1:2|0:2,0:2:0:0:
132,152,101394,2,0,P|176:137|221:128,1,92.8200005665283,8|0,0:2|3:2,0:2:0:0:
241,124,101643,1,0,3:2:0:0:
241,124,101726,1,0,1:2:0:0:
211,311,101892,1,0,3:2:0:0:
206,333,101975,1,0,3:2:0:0:
202,356,102058,1,0,1:2:0:0:
43,230,102224,1,0,3:2:0:0:
38,252,102307,1,0,3:2:0:0:
34,275,102391,6,0,P|84:292|166:247,1,139.230000849792,2|0,1:2|0:2,0:2:0:0:
151,229,102723,2,0,P|202:236|248:251,1,92.8200005665283,8|0,0:2|0:2,0:2:0:0:
367,153,103055,1,0,0:2:0:0:
298,341,103221,1,0,1:2:0:0:
472,227,103388,1,8,0:2:0:0:
279,103,103554,1,0,1:2:0:0:
279,103,103637,1,0,3:2:0:0:
279,103,103720,5,2,1:2:0:0:
362,250,103886,1,0,1:2:0:0:
319,267,103969,1,0,1:2:0:0:
274,258,104052,1,8,0:2:0:0:
242,226,104135,1,8,0:2:0:0:
199,208,104218,1,8,0:2:0:0:
154,217,104301,1,8,0:2:0:0:
122,249,104385,6,0,B|119:285|134:307|134:307|128:277|143:251,1,111.930001707916,2|0,1:2|0:2,0:2:0:0:
122,125,104717,6,0,L|113:91,6,27.7549988565293,14|0|0|0|0|0|0,0:2|0:2|0:2|0:2|0:2|0:2|0:2,0:2:0:0:
35,190,105049,6,0,B|67:198|98:201|98:201|122:220|122:220|165:221|196:231,1,152.880001866211,4|0,1:2|0:2,0:2:0:0:
247,163,105381,2,0,P|249:105|221:65,1,101.920001244141,10|0,0:2|0:2,0:2:0:0:
339,283,105714,6,0,P|394:299|410:309,1,50.9600006220703,2|0,3:2|3:2,0:2:0:0:
481,142,105880,2,0,P|457:133|432:129,1,50.9600006220703,0|0,1:2|3:2,0:2:0:0:
326,301,106046,1,10,0:2:0:0:
401,48,106212,5,2,3:2:0:0:
401,48,106295,1,0,3:2:0:0:
401,48,106378,2,0,P|349:28|298:22,1,101.920001244141,0|2,1:2|0:2,0:2:0:0:
435,225,106711,1,8,0:2:0:0:
197,168,106877,2,0,P|244:127|344:137,1,152.880001866211,2|0,1:2|0:2,0:2:0:0:
347,142,107209,1,0,1:2:0:0:
245,348,107375,5,10,0:2:0:0:
202,375,107458,1,0,3:2:0:0:
152,374,107541,1,2,3:2:0:0:
111,345,107624,1,0,3:2:0:0:
94,297,107707,5,6,1:2:0:0:
237,104,107874,1,0,3:2:0:0:
15,222,108040,1,8,0:2:0:0:
197,270,108206,1,0,3:2:0:0:
63,121,108372,1,0,3:2:0:0:
273,10,108538,1,0,1:2:0:0:
167,175,108705,1,8,0:2:0:0:
370,294,108871,5,2,3:2:0:0:
370,294,108954,1,0,3:2:0:0:
370,294,109037,2,0,P|362:241|350:180,1,101.920001244141,0|0,1:2|3:2,0:2:0:0:
274,257,109286,1,0,1:2:0:0:
262,230,109369,2,0,B|272:201|269:178|269:178|284:141|284:141|280:97|294:55,1,152.880001866211,8|0,0:2|0:2,0:2:0:0:
274,63,109702,6,0,P|219:42|162:41,1,101.920001244141,2|0,1:2|0:2,0:2:0:0:
370,294,110034,2,0,P|425:315|482:316,1,101.920001244141,10|0,0:2|0:2,0:2:0:0:
188,153,110366,6,0,B|151:166|110:157|110:157|82:186|25:195,1,152.880001866211,6|0,1:2|0:2,0:2:0:0:
5,269,110699,2,0,P|11:341|48:368,1,101.920001244141,10|0,0:2|0:2,0:2:0:0:
247,219,111031,6,0,P|223:277|223:289,1,50.9600006220703,2|0,3:2|3:2,0:2:0:0:
97,125,111197,2,0,P|105:100|119:79,1,50.9600006220703,0|0,1:2|3:2,0:2:0:0:
230,294,111363,1,10,0:2:0:0:
408,160,111529,5,2,3:2:0:0:
408,160,111612,1,0,3:2:0:0:
408,160,111696,2,0,P|393:87|378:47,1,101.920001244141,6|0,1:2|0:2,0:2:0:0:
317,350,112028,1,10,0:2:0:0:
435,246,112194,1,2,1:2:0:0:
230,294,112360,1,0,3:2:0:0:
350,83,112526,1,2,1:2:0:0:
125,294,112692,1,8,0:2:0:0:
219,13,112859,5,2,3:2:0:0:
219,13,112942,1,0,3:2:0:0:
219,13,113025,2,0,B|163:14|141:47|141:47|94:54|64:26,1,152.880001866211,6|0,1:2|0:2,0:2:0:0:
16,0,113357,1,10,0:2:0:0:
71,224,113523,1,0,1:0:0:0:
219,13,113689,1,2,0:0:0:0:
152,277,113856,1,0,1:2:0:0:
303,112,114022,1,8,0:2:0:0:
423,261,114188,5,2,1:2:0:0:
423,261,114271,1,0,3:2:0:0:
423,261,114354,1,6,1:2:0:0:
234,171,114520,1,0,1:2:0:0:
400,53,114686,1,8,0:2:0:0:
288,249,114853,1,0,1:2:0:0:
100,173,115019,1,14,0:2:0:0:
196,365,115185,1,0,1:2:0:0:
298,102,115351,1,8,0:0:0:0:
253,125,115434,1,8,0:0:0:0:
234,171,115517,1,8,0:0:0:0:
247,219,115600,1,8,0:0:0:0:
288,249,115683,6,0,B|248:252|215:279|215:279|179:265|119:274,1,152.880001866211,6|0,1:2|0:2,0:2:0:0:
73,322,116016,2,0,P|27:271|41:213,1,101.920001244141,10|0,0:2|0:2,0:2:0:0:
136,35,116348,6,0,P|119:91|119:104,1,50.9600006220703,0|0,3:2|3:2,0:2:0:0:
210,239,116514,2,0,P|215:214|226:191,1,50.9600006220703,0|0,1:2|3:2,0:2:0:0:
360,46,116680,1,10,0:2:0:0:
495,174,116846,5,0,3:2:0:0:
495,174,116930,1,0,3:2:0:0:
495,174,117013,2,0,B|453:160|421:148|421:148|376:169|376:169|331:148|274:137,1,203.840002488281,6|10,1:2|0:2,0:2:0:0:
404,286,117511,2,0,P|422:347|424:393,1,101.920001244141,2|0,1:2|0:2,0:2:0:0:
304,143,117843,1,2,1:2:0:0:
172,272,118010,1,8,0:2:0:0:
188,303,118093,1,0,3:2:0:0:
218,323,118176,1,2,3:2:0:0:
253,327,118259,1,0,3:2:0:0:
286,315,118342,6,0,B|265:275|265:275|284:235|284:235|252:188|261:109,1,203.840002488281,6|8,1:2|0:2,0:2:0:0:
116,204,118840,1,0,3:2:0:0:
243,0,119006,1,0,3:2:0:0:
124,78,119173,1,0,1:2:0:0:
124,78,119256,1,0,3:2:0:0:
124,78,119339,1,8,0:2:0:0:
355,175,119505,1,2,3:2:0:0:
188,341,119671,6,0,P|248:320|307:313,1,101.920001244141,6|0,1:2|3:2,0:2:0:0:
431,277,119920,1,0,1:2:0:0:
422,297,120003,2,0,B|391:291|360:281|360:281|326:290|326:290|289:278|263:275,1,152.880001866211,8|0,0:2|0:2,0:2:0:0:
249,260,120336,6,0,P|237:196|239:149,1,101.920001244141,6|0,1:2|0:2,0:2:0:0:
55,13,120668,2,0,P|55:63|66:113,1,101.920001244141,14|0,0:2|0:2,0:2:0:0:
22,341,121000,6,0,P|62:291|165:318,1,152.880001866211,6|0,1:2|0:2,0:2:0:0:
160,317,121333,1,10,0:2:0:0:
367,133,121499,2,0,B|289:91|296:165|186:105,1,152.880001866211,0|0,1:2|0:2,0:2:0:0:
200,107,121831,2,0,P|191:78|196:43,1,50.9600006220703,0|0,3:2|3:2,0:2:0:0:
317,204,121997,2,0,B|313:245|302:274|302:274|307:305|307:305|297:328|292:359,1,152.880001866211,8|0,0:2|0:2,0:2:0:0:
296,383,122330,6,0,P|347:366|416:363,1,101.920001244141,2|0,1:2|0:2,0:2:0:0:
123,255,122662,2,0,P|72:259|24:276,1,101.920001244141,10|0,0:2|0:2,0:2:0:0:
234,106,122994,1,8,0:2:0:0:
81,0,123160,1,8,0:2:0:0:
263,210,123327,1,8,0:2:0:0:
310,194,123410,1,8,0:2:0:0:
341,154,123493,1,8,0:2:0:0:
344,104,123576,1,8,0:2:0:0:
319,61,123659,5,6,1:2:0:0:
381,281,123825,1,0,1:2:0:0:
319,61,123991,2,0,B|242:33|247:89|153:53,1,152.880001866211,8|0,0:2|0:2,0:2:0:0:
144,48,124324,1,0,1:2:0:0:
206,268,124490,1,0,1:2:0:0:
21,173,124656,1,8,0:2:0:0:
159,384,124822,1,0,1:2:0:0:
45,288,124988,6,0,B|79:279|99:265|99:265|133:268|133:268|157:256|205:240,1,149.240002277222,2|2,3:2|0:2,0:2:0:0:
152,93,125487,2,0,P|131:153|124:184,1,74.6200011386109,2|0,0:2|0:2,0:2:0:0:
267,148,125819,2,0,P|274:103|392:119,1,186.550002846527,2|0,0:2|0:2,0:2:0:0:
394,144,126317,6,0,B|267:114|315:232|178:194,1,225.679991046631,2|0,0:2|0:2,0:2:0:0:
