osu file format v14

[General]
AudioFilename: audio.mp3
AudioLeadIn: 0
PreviewTime: 149289
Countdown: 0
SampleSet: Soft
StackLeniency: 0.5
Mode: 0
LetterboxInBreaks: 0
WidescreenStoryboard: 1

[Editor]
Bookmarks: 15555,27784,40013,52243,64472,76701,88931,101160,113389,125618,137848,150077,162306,174536,186765
DistanceSpacing: 0.8
BeatDivisor: 4
GridSize: 32
TimelineZoom: 1.499999

[Metadata]
Title:Everything Goes On
TitleUnicode:Everything Goes On
Artist:Porter Robinson
ArtistUnicode:Porter Robinson
Creator:KeyWee
Version:Normal
Source:League of Legends
Tags:Riot Music team English Electronic Pop Star Guardian 2022 Red Dog Culture House Riot games video Game Iceluin FairyAccel
BeatmapID:3924821
BeatmapSetID:1903598

[Difficulty]
HPDrainRate:4
CircleSize:3.2
OverallDifficulty:5
ApproachRate:5
SliderMultiplier:1.1
SliderTickRate:1

[Events]
//Background and Video events
0,0,"Iceluin_Keywee_Collab.jpg",0,0
//Break Periods
//Storyboard Layer 0 (Background)
//Storyboard Layer 1 (Fail)
//Storyboard Layer 2 (Pass)
//Storyboard Layer 3 (Foreground)
//Storyboard Layer 4 (Overlay)
//Storyboard Sound Samples

[TimingPoints]
3326,382.165605095541,4,2,1,30,1,0
15555,-111.111111111111,4,2,1,50,0,0
27784,-111.111111111111,4,2,1,50,0,0
40013,-100,4,2,1,60,0,0
64472,-111.111111111111,4,2,1,40,0,0
76701,-111.111111111111,4,2,1,45,0,0
88931,-90.9090909090909,4,2,1,70,0,0
111861,-90.9090909090909,4,2,1,50,0,0
113389,-100,4,2,1,60,0,0
125618,-111.111111111111,4,2,1,50,0,0
137848,-100,4,2,1,60,0,0
150077,-111.111111111111,4,2,1,30,0,0
162306,-111.111111111111,4,2,1,35,0,0
174154,-111.111111111111,4,2,1,50,0,0
174536,-83.3333333333333,4,2,1,75,0,1
186383,-83.3333333333333,4,2,1,75,0,0
186765,-83.3333333333333,4,2,1,75,0,1
197466,-100,4,2,1,55,0,0
198867,-125,4,2,1,40,0,0
199759,-125,4,2,1,15,0,0

[Colours]
Combo1 : 165,237,188
Combo2 : 242,57,108
Combo3 : 237,154,179
Combo4 : 45,176,87

[HitObjects]
96,320,15555,6,0,L|193:302,1,98.9999969787599,0|2,0:0|0:0,0:0:0:0:
283,363,16319,2,0,L|380:345,1,98.9999969787599
434,337,16892,1,2,0:0:0:0:
495,246,17275,1,0,0:0:0:0:
398,196,17657,2,0,L|423:49,1,148.49999546814,2|0,0:0|0:0,0:0:0:0:
379,17,18421,2,0,L|325:27,1,49.4999984893799,2|0,0:0|0:0,0:0:0:0:
253,103,18994,5,0,0:0:0:0:
154,56,19376,2,0,L|162:7,2,49.4999984893799
122,100,19950,2,0,P|54:77|0:121,1,148.49999546814,2|0,0:0|0:0,0:0:0:0:
75,199,20905,1,2,0:0:0:0:
28,297,21287,1,2,0:0:0:0:
117,358,21669,38,0,L|214:340,1,98.9999969787599,0|2,0:0|0:0,0:0:0:0:
320,368,22434,2,0,P|332:321|305:282,1,98.9999969787599
260,251,23006,1,2,0:0:0:0:
178,178,23389,1,0,0:0:0:0:
257,103,23771,2,0,L|239:4,2,98.9999969787599,2|0|0,0:0|0:0|0:0,0:0:0:0:
302,133,24727,5,2,0:0:0:0:
389,68,25108,2,0,P|435:56|475:83,1,98.9999969787599
506,126,25682,1,2,0:0:0:0:
417,195,26064,2,0,L|434:292,1,98.9999969787599,2|0,0:0|0:0,0:0:0:0:
394,329,26637,2,0,L|296:310,1,98.9999969787599
210,377,27401,1,2,0:0:0:0:
117,319,27784,6,0,L|105:253,1,49.4999984893799,2|0,0:0|0:0,0:0:0:0:
64,238,28166,2,0,P|43:192|54:140,1,98.9999969787599,2|0,0:0|0:0,0:0:0:0:
97,46,28931,2,0,B|176:34|176:34|207:45|207:45|305:34,1,197.99999395752,2|0,0:0|0:0,0:0:0:0:
338,63,29886,2,0,L|436:52,2,98.9999969787599,2|0|0,0:0|0:0|0:0,0:0:0:0:
312,110,30841,6,0,P|302:158|330:207,1,98.9999969787599
407,269,31606,2,0,L|466:276,2,49.4999984893799
365,303,32179,2,0,L|217:285,1,148.49999546814,2|0,0:0|0:0,0:0:0:0:
125,341,33134,1,2,0:0:0:0:
125,341,33325,2,0,P|135:294|100:238,1,98.9999969787599,2|0,0:0|0:0,0:0:0:0:
68,219,33899,37,0,0:0:0:0:
16,123,34281,1,0,0:0:0:0:
95,48,34663,2,0,L|100:-1,2,49.4999984893799
155,138,35427,2,0,P|200:160|254:146,1,98.9999969787599,2|0,0:0|0:0,0:0:0:0:
291,119,36001,1,2,0:0:0:0:
348,26,36383,2,0,P|404:-5|474:51,1,148.49999546814,2|0,0:0|0:0,0:0:0:0:
488,148,37338,1,2,0:0:0:0:
488,148,37529,2,0,L|479:266,1,98.9999969787599
437,281,38103,2,0,L|387:277,1,49.4999984893799
247,360,38867,6,0,P|198:369|145:344,1,98.9999969787599
64,287,39631,2,0,L|67:237,1,49.4999984893799,8|0,0:0|0:0,0:0:0:0:
107,200,40013,6,0,L|174:211,2,55,2|2|8,1:2|0:0|0:0,0:0:0:0:
74,155,40587,2,0,P|57:104|90:63,1,110,2|0,0:0|1:0,0:0:0:0:
139,39,41160,1,8,0:0:0:0:
217,114,41542,2,0,L|325:94,1,110,0|8,1:0|0:0,0:0:0:0:
360,52,42115,2,0,L|414:42,1,55,0|0,0:0|1:0,0:0:0:0:
501,109,42688,1,0,1:0:0:0:
454,208,43071,6,0,L|390:220,2,55,2|2|8,1:2|0:0|0:0,0:0:0:0:
497,241,43644,2,0,L|475:368,1,110,2|0,0:0|1:0,0:0:0:0:
432,378,44217,1,8,0:0:0:0:
331,348,44599,1,0,1:0:0:0:
331,348,44790,2,0,L|342:284,2,55,0|10|2,0:0|0:0|0:0,0:0:0:0:
279,368,45364,1,0,1:0:0:0:
194,297,45746,1,0,1:0:0:0:
87,323,46128,38,0,L|97:377,2,55,0|2|10,1:0|0:0|0:0,0:0:0:0:
42,290,46701,2,0,P|25:239|56:196,1,110,2|0,0:0|1:0,0:0:0:0:
103,167,47275,1,8,0:0:0:0:
205,207,47657,2,0,L|323:187,1,110,0|8,1:0|0:0,0:0:0:0:
414,232,48421,1,0,1:0:0:0:
487,149,48803,1,0,1:0:0:0:
426,58,49185,6,0,L|438:-14,2,55,2|2|8,1:2|0:0|0:0,0:0:0:0:
378,86,49759,1,2,0:0:0:0:
287,34,50141,1,0,1:0:0:0:
287,34,50332,2,0,L|222:44,1,55,8|2,0:0|1:2,0:0:0:0:
201,87,50714,2,0,L|214:157,2,55,2|2|8,1:2|0:0|0:0,0:0:0:0:
152,61,51287,2,0,L|98:71,1,55,2|0,0:0|1:0,0:0:0:0:
45,167,51861,1,10,0:0:0:0:
119,248,52243,6,0,L|100:356,1,110,0|8,1:0|0:0,0:0:0:0:
214,352,53007,1,2,0:0:0:0:
214,352,53198,2,0,L|227:278,1,55,2|8,1:2|0:0,0:0:0:0:
262,259,53580,2,0,P|314:249|369:283,1,110,2|0,0:0|0:0,0:0:0:0:
439,353,54345,2,0,L|448:298,1,55,2|0,0:0|1:0,0:0:0:0:
493,267,54727,2,0,L|514:146,1,110,2|0,0:0|0:0,0:0:0:0:
486,109,55300,5,2,1:2:0:0:
377,125,55682,1,8,0:0:0:0:
369,15,56064,2,0,L|434:7,2,55,2|0|8,0:0|1:0|0:0,0:0:0:0:
324,47,56638,2,0,P|287:68|222:58,1,110,2|0,0:0|0:0,0:0:0:0:
174,31,57211,1,8,0:0:0:0:
72,74,57593,2,0,L|76:135,1,55,2|0,1:2|0:0,0:0:0:0:
40,171,57975,2,0,P|23:221|61:277,1,110,2|0,1:2|1:0,0:0:0:0:
141,327,58740,38,0,L|148:392,2,55,10|0|0,0:0|0:0|0:0,0:0:0:0:
172,281,59313,2,0,L|162:171,1,110,0|0,1:0|0:0,0:0:0:0:
158,116,59886,1,0,1:0:0:0:
211,21,60268,1,8,0:0:0:0:
211,21,60459,2,0,P|267:10|319:54,1,110,2|0,0:0|0:0,0:0:0:0:
347,77,61033,2,0,L|460:90,1,110,0|0,1:0|1:0,0:0:0:0:
512,190,61797,5,10,0:0:0:0:
512,190,61988,2,0,P|523:231|488:298,1,110,0|0,0:0|1:0,0:0:0:0:
453,324,62561,2,0,L|398:317,1,55,8|0,0:0|1:0,0:0:0:0:
343,309,62943,1,0,1:0:0:0:
356,199,63325,2,0,L|301:205,1,55,8|0,0:0|0:0,0:0:0:0:
266,247,63708,2,0,L|211:253,1,55,0|0,1:0|0:0,0:0:0:0:
172,292,64090,2,0,L|117:298,1,55,8|0,0:0|0:0,0:0:0:0:
69,271,64472,6,0,L|40:109,1,148.49999546814,2|0,0:0|0:0,0:0:0:0:
168,19,65618,1,2,0:0:0:0:
168,19,65810,2,0,P|215:11|251:43,1,98.9999969787599,2|0,0:0|0:0,0:0:0:0:
353,170,66765,1,2,0:0:0:0:
420,84,67147,1,2,0:0:0:0:
512,142,67529,6,0,B|541:189|499:243|482:227|440:273|470:319,2,197.99999395752,2|2|2,0:0|0:0|0:0,0:0:0:0:
343,13,69822,1,2,0:0:0:0:
343,13,70013,1,2,0:0:0:0:
269,93,70396,38,0,L|171:74,1,98.9999969787599,2|0,0:0|0:0,0:0:0:0:
85,8,71160,2,0,L|66:105,1,98.9999969787599,2|0,0:0|0:0,0:0:0:0:
0,192,71924,2,0,L|97:210,1,98.9999969787599,2|0,0:0|0:0,0:0:0:0:
261,248,72880,1,2,0:0:0:0:
261,248,73071,1,2,0:0:0:0:
322,158,73453,6,0,P|378:114|446:137,1,148.49999546814,2|0,0:0|0:0,0:0:0:0:
481,178,74217,2,0,P|473:224|463:275,2,98.9999969787599,2|2|2,0:0|0:0|0:0,0:0:0:0:
278,359,75937,1,2,0:0:0:0:
278,359,76128,1,2,0:0:0:0:
189,295,76510,1,2,0:0:0:0:
189,295,76701,6,0,P|137:315|84:289,1,98.9999969787599,2|0,0:0|0:0,0:0:0:0:
53,269,77275,2,0,L|46:153,1,98.9999969787599,2|0,0:0|0:0,0:0:0:0:
93,71,78039,2,0,P|146:49|229:100,1,148.49999546814,2|0,0:0|0:0,0:0:0:0:
314,155,78994,1,2,0:0:0:0:
314,155,79185,2,0,L|329:43,1,98.9999969787599,2|0,0:0|0:0,0:0:0:0:
336,2,79759,5,2,0:0:0:0:
478,166,80523,1,2,0:0:0:0:
352,343,81287,2,0,B|306:368|252:322|292:342|234:267|169:307,1,197.99999395752,2|0,0:0|0:0,0:0:0:0:
19,151,82816,37,0,0:0:0:0:
60,51,83198,2,0,L|176:40,1,98.9999969787599,2|0,0:0|0:0,0:0:0:0:
236,117,83962,1,2,0:0:0:0:
236,117,84154,2,0,P|308:137|375:84,1,148.49999546814,2|0,0:0|0:0,0:0:0:0:
397,54,84918,1,0,0:0:0:0:
479,313,85873,6,0,P|436:331|380:322,1,98.9999969787599,0|2,0:0|0:0,0:0:0:0:
292,267,86638,2,0,L|285:193,2,74.2499977340699,2|2|0,0:0|0:0|0:0,0:0:0:0:
258,310,87402,2,0,P|215:328|159:319,1,98.9999969787599,0|8,1:0|0:0,0:0:0:0:
120,299,87975,1,0,3:0:0:0:
120,299,88166,2,0,L|55:304,2,49.4999984893799,0|0|8,3:0|1:0|0:0,0:0:0:0:
77,198,88931,6,0,L|55:79,1,121.000003692627,4|10,1:2|0:0,0:0:0:0:
148,22,89695,2,0,P|177:17|200:34,1,60.5000018463135,2|0,0:0|1:0,0:0:0:0:
241,78,90077,1,10,0:0:0:0:
241,78,90268,2,0,L|219:196,1,121.000003692627,2|2,0:0|0:0,0:0:0:0:
212,254,90841,1,8,0:0:0:0:
212,254,91033,1,0,1:0:0:0:
299,327,91415,1,0,1:0:0:0:
299,327,91606,2,0,L|358:316,1,60.5000018463135,10|2,0:0|0:0,0:0:0:0:
412,306,91988,6,0,L|433:186,1,121.000003692627,0|8,1:0|0:0,0:0:0:0:
377,92,92752,2,0,L|389:19,2,60.5000018463135,0|0|8,0:0|1:0|0:0,0:0:0:0:
336,127,93325,2,0,L|216:106,1,121.000003692627
183,63,93899,1,8,0:0:0:0:
89,6,94281,1,2,1:2:0:0:
25,94,94663,1,2,1:2:0:0:
119,151,95045,38,0,L|97:269,1,121.000003692627,0|10,1:0|0:0,0:0:0:0:
176,344,95810,2,0,L|235:333,1,60.5000018463135,2|0,0:0|1:0,0:0:0:0:
283,369,96191,1,10,0:0:0:0:
283,369,96382,2,0,L|402:348,1,121.000003692627,2|2,0:0|0:0,0:0:0:0:
435,306,96956,1,8,0:0:0:0:
435,306,97147,1,2,1:2:0:0:
488,214,97529,1,2,1:2:0:0:
488,214,97720,1,8,0:0:0:0:
404,143,98103,6,0,L|415:83,2,60.5000018463135,0|0|8,1:0|0:0|0:0,0:0:0:0:
359,172,98676,1,2,1:2:0:0:
359,172,98867,2,0,L|347:231,2,60.5000018463135,0|0|8,0:0|1:0|0:0,0:0:0:0:
324,137,99440,1,2,1:2:0:0:
324,137,99631,2,0,P|266:123|217:155,1,121.000003692627,0|8,0:0|0:0,0:0:0:0:
182,196,100204,1,8,0:0:0:0:
77,190,100587,1,0,1:0:0:0:
77,190,100778,2,0,L|66:130,1,60.5000018463135,8|8,0:0|0:0,0:0:0:0:
77,77,101160,6,0,P|128:49|191:60,1,121.000003692627,6|10,1:2|0:0,0:0:0:0:
232,99,101733,1,0,0:0:0:0:
232,99,101924,2,0,L|243:159,1,60.5000018463135,0|0,0:0|1:0,0:0:0:0:
290,184,102306,2,0,P|350:195|420:153,1,121.000003692627,10|0,0:0|1:0,0:0:0:0:
491,245,103071,1,10,0:0:0:0:
491,245,103262,2,0,L|480:305,1,60.5000018463135,2|0,1:2|0:0,0:0:0:0:
433,342,103644,2,0,P|360:350|318:313,1,121.000003692627,2|0,1:2|0:0,0:0:0:0:
286,284,104217,5,0,1:0:0:0:
202,354,104599,1,8,0:0:0:0:
107,298,104982,2,0,L|40:305,2,60.5000018463135,0|0|8,0:0|1:0|0:0,0:0:0:0:
139,255,105555,1,2,0:0:0:0:
139,255,105746,2,0,P|152:198|118:135,1,121.000003692627,0|8,1:0|0:0,0:0:0:0:
85,107,106319,1,2,0:0:0:0:
85,107,106510,1,2,1:2:0:0:
148,18,106892,1,0,1:0:0:0:
235,83,107275,38,0,L|370:70,1,121.000003692627,0|8,1:0|0:0,0:0:0:0:
400,111,107848,1,0,1:0:0:0:
400,111,108039,2,0,L|471:104,1,60.5000018463135,0|0,3:0|3:0,0:0:0:0:
508,129,108421,1,8,0:0:0:0:
442,215,108803,2,0,P|470:266|455:335,1,121.000003692627,2|8,1:2|0:0,0:0:0:0:
424,366,109376,1,2,0:0:0:0:
424,366,109568,2,0,L|360:373,1,60.5000018463135,8|8,0:0|0:0,0:0:0:0:
319,340,109950,2,0,L|312:276,1,60.5000018463135,8|8,0:0|0:0,0:0:0:0:
276,238,110332,6,0,P|210:209|158:233,1,121.000003692627,4|8,1:2|0:0,0:0:0:0:
96,307,111096,2,0,L|21:299,1,60.5000018463135,0|0,1:0|1:0,0:0:0:0:
0,260,111478,1,10,0:0:0:0:
0,260,111669,1,2,1:2:0:0:
21,152,112052,1,2,0:0:0:0:
41,45,112434,1,2,0:0:0:0:
182,126,113007,1,10,0:0:0:0:
269,58,113389,5,6,1:2:0:0:
269,58,113580,2,0,L|377:77,1,110,2|2,0:0|0:0,0:0:0:0:
487,70,114345,2,0,L|477:124,1,55,2|10,1:2|0:0,0:0:0:0:
461,176,114727,2,0,P|408:166|368:201,2,110,2|2|2,0:0|0:0|0:0,0:0:0:0:
442,287,115873,1,0,1:0:0:0:
442,287,116064,2,0,L|451:343,1,55,8|0,0:0|0:0,0:0:0:0:
414,382,116447,5,2,1:2:0:0:
414,382,116638,2,0,L|305:362,1,110,2|2,0:0|0:0,0:0:0:0:
229,282,117403,2,0,P|203:276|180:294,1,55,2|10,1:2|0:0,0:0:0:0:
142,330,117784,2,0,L|11:306,2,110,2|2|2,0:0|0:0|0:0,0:0:0:0:
129,225,118931,1,0,0:0:0:0:
129,225,119122,2,0,L|75:214,1,55,0|0,1:2|0:0,0:0:0:0:
46,174,119504,37,2,1:2:0:0:
46,174,119695,2,0,P|29:123|61:81,1,110,2|2,0:0|0:0,0:0:0:0:
145,10,120460,2,0,L|207:20,1,55,2|10,1:2|0:0,0:0:0:0:
251,35,120841,2,0,P|267:85|235:127,1,110,2|2,0:0|0:0,0:0:0:0:
160,208,121606,2,0,L|182:323,1,110,2|2,0:0|1:2,0:0:0:0:
235,340,122179,1,10,0:0:0:0:
235,340,122370,6,0,L|350:317,1,110,2|2,0:0|0:0,0:0:0:0:
435,378,123134,2,0,P|467:335|450:285,1,110,2|0,1:2|1:0,0:0:0:0:
417,241,123708,2,0,L|427:186,1,55,10|2,0:0|1:2,0:0:0:0:
441,132,124090,37,0,1:0:0:0:
367,51,124472,1,0,1:0:0:0:
276,113,124854,1,0,1:0:0:0:
204,29,125236,2,0,P|177:27|155:44,1,55,0|0,1:0|0:0,0:0:0:0:
131,81,125618,22,0,L|26:68,1,98.9999969787599,2|0,0:0|0:0,0:0:0:0:
19,170,126383,1,2,0:0:0:0:
19,170,126574,2,0,L|138:185,1,98.9999969787599,2|0,0:0|0:0,0:0:0:0:
186,319,127529,1,2,0:0:0:0:
186,319,127720,2,0,P|230:338|292:320,1,98.9999969787599,2|0,0:0|0:0,0:0:0:0:
329,243,128485,1,0,0:0:0:0:
329,243,128676,6,0,L|317:127,1,98.9999969787599,2|0,0:0|0:0,0:0:0:0:
396,82,129440,2,0,L|390:32,2,49.4999984893799
436,110,130013,2,0,L|446:208,1,98.9999969787599,2|0,0:0|0:0,0:0:0:0:
453,257,130587,1,0,0:0:0:0:
342,356,131160,2,0,L|292:350,1,49.4999984893799,2|0,0:0|0:0,0:0:0:0:
258,315,131542,38,0,P|190:274|128:295,1,148.49999546814,2|0,0:0|0:0,0:0:0:0:
90,325,132306,1,2,0:0:0:0:
5,272,132689,1,2,0:0:0:0:
56,187,133071,2,0,L|71:70,1,98.9999969787599,2|0,0:0|0:0,0:0:0:0:
146,27,133835,2,0,L|244:39,1,98.9999969787599,2|0,0:0|0:0,0:0:0:0:
272,79,134408,2,0,L|266:128,2,49.4999984893799,0|0|2,0:0|0:0|0:0,0:0:0:0:
351,18,135173,1,0,0:0:0:0:
351,18,135364,1,2,0:0:0:0:
415,93,135746,2,0,L|464:98,2,49.4999984893799
375,122,136319,6,0,P|354:168|377:223,1,98.9999969787599,2|0,0:0|0:0,0:0:0:0:
427,291,137083,2,0,L|421:340,1,49.4999984893799,2|0,0:0|0:0,0:0:0:0:
387,376,137466,1,10,0:0:0:0:
305,301,137848,6,0,P|251:294|209:327,1,110,2|8,1:2|0:0,0:0:0:0:
100,317,138612,2,0,L|113:388,2,55,2|2|8,0:0|1:2|0:0,0:0:0:0:
52,289,139185,2,0,B|27:249|62:204|76:217|111:180|86:141,1,165,2|8,0:0|0:0,0:0:0:0:
44,106,139950,2,0,P|38:79|55:58,1,55,2|0,0:0|1:0,0:0:0:0:
150,3,140523,1,0,1:0:0:0:
215,90,140905,6,0,L|323:71,1,110,2|8,1:2|0:0,0:0:0:0:
423,26,141669,2,0,L|433:80,1,55,2|0,0:0|1:0,0:0:0:0:
412,133,142052,1,8,0:0:0:0:
412,133,142243,2,0,L|429:241,1,110,2|0,0:0|0:0,0:0:0:0:
471,277,142816,1,8,0:0:0:0:
400,361,143198,1,0,1:2:0:0:
304,306,143580,1,0,1:2:0:0:
211,365,143962,38,0,L|150:355,1,55,0|0,1:0|0:0,0:0:0:0:
118,316,144345,2,0,P|102:265|133:222,1,110,10|0,0:0|0:0,0:0:0:0:
183,199,144918,2,0,L|238:208,1,55,2|8,1:2|0:0,0:0:0:0:
323,140,145491,2,0,L|432:160,2,110,2|8|0,1:2|0:0|1:0,0:0:0:0:
266,45,146637,1,0,1:0:0:0:
179,113,147020,6,0,L|70:93,1,110,2|8,1:2|0:0,0:0:0:0:
25,123,147593,2,0,L|7:232,1,110,2|0,0:0|1:0,0:0:0:0:
42,273,148166,2,0,L|97:283,1,55,8|0,0:0|1:0,0:0:0:0:
149,294,148548,1,0,1:0:0:0:
240,231,148931,1,8,0:0:0:0:
308,316,149313,1,0,1:0:0:0:
399,253,149696,1,8,0:0:0:0:
330,166,150077,5,2,0:0:0:0:
212,57,151606,1,2,0:0:0:0:
62,155,153134,2,0,P|35:246|108:316,2,197.99999395752,2|2|2,0:0|0:0|0:0,0:0:0:0:
212,57,156192,5,2,0:0:0:0:
330,166,157720,1,2,0:0:0:0:
470,49,159249,1,2,0:0:0:0:
330,166,160778,2,0,P|416:136|488:210,1,197.99999395752,2|0,0:0|0:0,0:0:0:0:
503,249,161733,1,2,0:0:0:0:
476,344,162115,1,2,0:0:0:0:
476,344,162306,6,0,L|314:318,1,148.49999546814,2|2,0:0|0:0,0:0:0:0:
246,374,163262,1,2,0:0:0:0:
172,307,163644,2,0,P|154:264|184:225,1,98.9999969787599,2|0,0:0|0:0,0:0:0:0:
302,135,164599,1,2,0:0:0:0:
365,58,164982,1,2,0:0:0:0:
278,9,165364,6,0,B|229:-21|175:21|191:37|147:79|100:49,2,197.99999395752,2|2|2,0:0|0:0|0:0,0:0:0:0:
480,224,168039,1,2,0:0:0:0:
480,224,168421,38,0,L|460:333,1,98.9999969787599,2|0,0:0|0:0,0:0:0:0:
365,303,169185,2,0,L|382:205,1,98.9999969787599,2|0,0:0|0:0,0:0:0:0:
348,169,169759,2,0,P|276:158|220:203,1,148.49999546814,2|0,0:0|0:0,0:0:0:0:
21,349,171287,5,2,0:0:0:0:
21,349,171478,2,0,L|3:243,1,98.9999969787599,2|0,0:0|0:0,0:0:0:0:
79,186,172243,1,2,0:0:0:0:
79,186,172434,2,0,L|61:80,1,98.9999969787599,2|0,0:0|0:0,0:0:0:0:
57,39,173007,1,2,0:0:0:0:
155,27,173389,2,0,L|170:128,1,98.9999969787599,8|0,0:0|0:0,0:0:0:0:
255,175,174154,1,8,0:0:0:0:
336,108,174536,6,0,P|394:95|465:139,1,131.99999597168,4|10,1:2|0:0,0:0:0:0:
498,166,175109,1,0,0:0:0:0:
486,217,175300,2,0,L|472:294,1,65.9999979858399,2|0,0:0|1:0,0:0:0:0:
461,333,175682,1,10,0:0:0:0:
414,357,175873,2,0,P|356:370|285:326,1,131.99999597168,2|0,0:0|0:0,0:0:0:0:
218,264,176638,2,0,P|160:251|89:295,1,131.99999597168,2|0,1:2|1:0,0:0:0:0:
56,316,177211,1,10,0:0:0:0:
19,278,177402,6,0,B|30:221|30:221|46:203|46:203|58:139,1,131.99999597168,2|0,0:0|0:0,0:0:0:0:
71,103,177975,1,8,0:0:0:0:
145,27,178357,2,0,L|215:21,1,65.9999979858399,0|0,0:0|1:0,0:0:0:0:
257,45,178740,2,0,L|327:39,1,65.9999979858399,8|0,0:0|0:0,0:0:0:0:
370,61,179122,2,0,P|400:125|364:193,1,131.99999597168,0|8,1:0|0:0,0:0:0:0:
480,209,179886,1,2,1:2:0:0:
453,311,180268,1,2,1:2:0:0:
350,286,180650,37,0,1:0:0:0:
379,179,181033,2,0,L|225:138,1,131.99999597168,10|0,0:0|0:0,0:0:0:0:
220,102,181606,1,0,1:0:0:0:
188,59,181797,2,0,L|102:36,1,65.9999979858399,10|0,0:0|0:0,0:0:0:0:
72,30,182179,2,0,P|97:87|57:171,1,131.99999597168,0|8,1:0|0:0,0:0:0:0:
43,191,182752,1,2,1:2:0:0:
53,296,183134,1,2,1:2:0:0:
141,237,183517,6,0,P|189:207|268:240,1,131.99999597168,2|0,0:0|0:0,0:0:0:0:
299,259,184090,1,8,0:0:0:0:
340,291,184281,2,0,L|405:281,1,65.9999979858399,2|0,1:2|0:0,0:0:0:0:
439,241,184663,2,0,L|429:175,1,65.9999979858399,2|8,1:2|0:0,0:0:0:0:
388,142,185045,2,0,L|322:151,2,65.9999979858399,2|0|0,1:2|0:0|1:0,0:0:0:0:
413,95,185618,2,0,L|479:86,2,65.9999979858399,8|0|8,0:0|1:0|0:0,0:0:0:0:
322,64,186383,1,8,0:0:0:0:
322,64,186574,1,8,0:0:0:0:
322,64,186765,1,6,1:2:0:0:
225,21,187147,6,0,L|94:41,1,131.99999597168,10|0,0:0|0:0,0:0:0:0:
67,86,187720,1,0,1:0:0:0:
105,121,187911,2,0,L|115:186,1,65.9999979858399,10|0,0:0|0:0,0:0:0:0:
92,234,188294,2,0,P|153:216|205:253,1,131.99999597168,0|8,1:0|0:0,0:0:0:0:
239,293,188867,2,0,L|383:267,1,131.99999597168,2|0,1:2|1:0,0:0:0:0:
395,224,189440,1,8,0:0:0:0:
499,240,189822,6,0,L|472:391,1,131.99999597168,0|8,1:0|0:0,0:0:0:0:
424,381,190396,1,0,0:0:0:0:
382,348,190587,2,0,L|317:360,1,65.9999979858399,0|0,0:0|1:0,0:0:0:0:
265,369,190969,1,8,0:0:0:0:
226,333,191160,2,0,L|161:345,1,65.9999979858399,2|0,0:0|1:0,0:0:0:0:
57,326,191733,2,0,L|79:196,1,131.99999597168,8|0,0:0|1:0,0:0:0:0:
51,93,192497,1,0,1:0:0:0:
155,73,192880,38,0,P|217:59|271:95,1,131.99999597168,0|8,1:0|0:0,0:0:0:0:
305,131,193453,2,0,L|282:260,1,131.99999597168,0|0,1:0|3:0,0:0:0:0:
310,305,194026,2,0,P|336:322|367:315,1,65.9999979858399,8|0,0:0|3:0,0:0:0:0:
410,284,194408,2,0,L|432:154,1,131.99999597168,0|8,1:0|0:0,0:0:0:0:
442,48,195173,2,0,L|370:60,1,65.9999979858399,8|8,0:0|0:0,0:0:0:0:
334,27,195555,2,0,L|262:39,1,65.9999979858399,8|8,0:0|0:0,0:0:0:0:
226,61,195937,5,4,1:2:0:0:
226,61,196128,1,0,1:0:0:0:
226,61,196319,1,8,0:0:0:0:
121,27,196701,1,0,1:0:0:0:
121,27,196892,1,0,1:0:0:0:
121,27,197083,2,0,P|102:53|110:84,1,65.9999979858399,8|0,0:0|1:0,0:0:0:0:
150,120,197466,38,0,B|188:185|136:258|112:237|57:305|100:367,1,275,2|2,1:2|0:0,0:0:0:0:
285,296,198867,6,0,P|389:288|465:347,1,205.333333333333,2|0,0:0|0:0,0:0:0:0:
