osu file format v14

[General]
AudioFilename: audio.mp3
AudioLeadIn: 0
PreviewTime: 149289
Countdown: 0
SampleSet: Soft
StackLeniency: 0.5
Mode: 0
LetterboxInBreaks: 0
WidescreenStoryboard: 1

[Editor]
Bookmarks: 15555,27784,40013,52243,64472,76701,88931,101160,113389,125618,137848,150077,162306,174536,186765
DistanceSpacing: 0.4
BeatDivisor: 4
GridSize: 32
TimelineZoom: 1.599999

[Metadata]
Title:Everything Goes On
TitleUnicode:Everything Goes On
Artist:Porter Robinson
ArtistUnicode:Porter Robinson
Creator:KeyWee
Version:Hard
Source:League of Legends
Tags:Riot Music team English Electronic Pop Star Guardian 2022 Red Dog Culture House Riot games video Game Iceluin FairyAccel
BeatmapID:3924820
BeatmapSetID:1903598

[Difficulty]
HPDrainRate:4.5
CircleSize:3.5
OverallDifficulty:6.5
ApproachRate:8
SliderMultiplier:1.5
SliderTickRate:1

[Events]
//Background and Video events
0,0,"Iceluin_Keywee_Collab.jpg",0,0
//Break Periods
//Storyboard Layer 0 (Background)
//Storyboard Layer 1 (Fail)
//Storyboard Layer 2 (Pass)
//Storyboard Layer 3 (Foreground)
//Storyboard Layer 4 (Overlay)
//Storyboard Sound Samples

[TimingPoints]
3326,382.165605095541,4,2,1,30,1,0
15555,-133.333333333333,4,2,1,50,0,0
27784,-133.333333333333,4,2,1,50,0,0
40013,-100,4,2,1,60,0,0
64472,-153.846153846153,4,2,1,40,0,0
76701,-153.846153846153,4,2,1,45,0,0
88931,-90.9090909090909,4,2,1,70,0,0
111861,-90.9090909090909,4,2,1,50,0,0
113389,-100,4,2,1,60,0,0
120077,-90.9090909090909,4,2,1,60,0,0
120650,-100,4,2,1,60,0,0
121606,-83.3333333333333,4,2,1,60,0,0
122179,-100,4,2,1,60,0,0
123134,-76.9230769230769,4,2,1,60,0,0
123708,-100,4,2,1,60,0,0
125618,-125,4,2,1,50,0,0
137848,-100,4,2,1,60,0,0
150077,-200,4,2,1,30,0,0
162306,-153.846153846153,4,2,1,35,0,0
174154,-100,4,2,1,50,0,0
174536,-83.3333333333333,4,2,1,75,0,1
186383,-83.3333333333333,4,2,1,75,0,0
186765,-83.3333333333333,4,2,1,75,0,1
197466,-133.333333333333,4,2,1,55,0,0
198867,-181.818181818181,4,2,1,40,0,0
199759,-181.818181818182,4,2,1,15,0,0

[Colours]
Combo1 : 165,237,188
Combo2 : 242,57,108
Combo3 : 237,154,179
Combo4 : 45,176,87

[HitObjects]
96,288,15555,6,0,P|142:276|201:331,1,112.500004291535,0|2,0:0|0:0,0:0:0:0:
330,193,16319,2,0,P|373:225|427:215,1,112.500004291535
484,145,16892,2,0,L|464:34,2,112.500004291535,2|0|0,0:0|0:0|0:0,0:0:0:0:
394,131,17848,2,0,L|380:64,1,56.2500021457673
297,93,18230,1,2,0:0:0:0:
297,93,18421,2,0,L|309:162,1,56.2500021457673,2|0,0:0|0:0,0:0:0:0:
320,327,18994,6,0,P|277:292|223:300,1,112.500004291535
149,351,19568,2,0,L|81:339,1,56.2500021457673
28,279,19950,2,0,L|49:168,1,112.500004291535,2|0,0:0|0:0,0:0:0:0:
127,120,20523,1,0,0:0:0:0:
127,120,20905,2,0,L|114:51,1,56.2500021457673,2|0,0:0|0:0,0:0:0:0:
207,50,21287,2,0,L|221:117,1,56.2500021457673,2|0,0:0|0:0,0:0:0:0:
282,166,21669,38,0,P|229:150|186:183,1,112.500004291535,0|2,0:0|0:0,0:0:0:0:
221,359,22434,2,0,P|272:373|315:340,1,112.500004291535
304,251,23007,2,0,L|193:271,2,112.500004291535,2|0|0,0:0|0:0|0:0,0:0:0:0:
385,210,23963,2,0,L|394:265,1,56.2500021457673
483,252,24345,1,0,0:0:0:0:
483,252,24536,2,0,L|473:196,1,56.2500021457673,2|2,0:0|0:0,0:0:0:0:
376,44,25109,6,0,P|335:38|300:61,1,84.3750032186509
273,97,25491,2,0,L|217:87,1,56.2500021457673
161,16,25873,1,0,0:0:0:0:
86,67,26065,2,0,L|107:191,1,112.500004291535,2|0,0:0|0:0,0:0:0:0:
127,265,26638,1,0,0:0:0:0:
127,265,27020,1,0,0:0:0:0:
208,302,27211,1,0,0:0:0:0:
290,338,27402,1,0,0:0:0:0:
290,338,27784,6,0,P|330:346|401:309,1,112.500004291535,2|0,0:0|0:0,0:0:0:0:
500,172,28548,2,0,L|481:61,1,112.500004291535,0|2,0:0|0:0,0:0:0:0:
407,9,29122,2,0,P|367:1|296:38,1,112.500004291535
243,96,29695,1,2,0:0:0:0:
243,96,29886,2,0,L|252:151,1,56.2500021457673,2|0,0:0|0:0,0:0:0:0:
168,193,30268,2,0,L|147:64,1,112.500004291535
66,49,30841,6,0,P|124:39|159:-12,2,112.500004291535
11,120,31797,1,0,0:0:0:0:
11,120,31988,1,0,0:0:0:0:
57,197,32179,2,0,B|53:246|53:246|41:262|41:262|36:320,1,112.500004291535,2|0,0:0|0:0,0:0:0:0:
37,305,32943,1,0,0:0:0:0:
99,369,33134,1,2,0:0:0:0:
99,369,33325,2,0,P|144:378|207:337,1,112.500004291535,2|0,0:0|0:0,0:0:0:0:
263,282,33899,38,0,P|317:274|364:303,1,112.500004291535
364,303,34663,2,0,L|370:366,2,56.2500021457673
426,237,35236,1,0,0:0:0:0:
426,237,35427,2,0,L|412:104,1,112.500004291535,2|0,0:0|0:0,0:0:0:0:
425,35,36001,2,0,P|386:80|337:82,1,112.500004291535,2|0,0:0|0:0,0:0:0:0:
266,25,36574,2,0,L|154:36,1,112.500004291535
52,186,37338,5,0,0:0:0:0:
52,186,37529,2,0,L|163:174,1,112.500004291535
236,228,38103,1,0,0:0:0:0:
175,294,38294,37,0,0:0:0:0:
175,294,38867,1,0,0:0:0:0:
283,374,39154,1,0,0:0:0:0:
296,365,39249,2,0,L|351:371,1,56.2500021457673
426,320,39631,2,8,L|450:322,6,14.0625005364418
463,325,40013,22,0,L|475:246,1,75,2|2,1:2|0:0,0:0:0:0:
415,183,40396,1,8,0:0:0:0:
337,228,40587,2,0,P|264:213|189:200,1,150,2|0,0:0|1:0,0:0:0:0:
119,256,41160,2,0,P|81:264|51:233,1,75,8|0,0:0|0:0,0:0:0:0:
26,214,41447,1,0,0:0:0:0:
26,214,41542,2,0,L|43:116,1,75,0|0,1:0|0:0,0:0:0:0:
5,59,41924,2,0,P|56:42|100:74,1,112.5,8|0,0:0|0:0,0:0:0:0:
135,102,42306,2,0,L|292:72,1,150,0|0,1:0|1:0,0:0:0:0:
459,37,43071,6,0,L|440:140,1,75,0|2,1:2|0:0,0:0:0:0:
502,185,43453,1,8,0:0:0:0:
431,240,43644,2,0,P|360:257|300:216,1,150,2|0,0:0|1:0,0:0:0:0:
252,144,44217,2,0,L|168:158,1,75,8|0,0:0|0:0,0:0:0:0:
106,102,44599,1,0,1:0:0:0:
60,187,44790,1,2,3:2:0:0:
60,187,44886,1,0,3:0:0:0:
60,187,44982,1,10,0:0:0:0:
133,238,45173,1,2,0:0:0:0:
90,317,45364,2,0,B|119:333|119:333|234:311,1,150,0|0,1:0|1:0,0:0:0:0:
405,363,46128,38,0,L|417:284,1,75,0|2,1:0|0:0,0:0:0:0:
482,227,46511,1,10,0:0:0:0:
428,154,46702,2,0,P|357:135|299:178,1,150,2|0,0:0|1:0,0:0:0:0:
232,238,47275,2,0,L|148:223,1,75,8|0,0:0|0:0,0:0:0:0:
117,223,47562,1,0,3:0:0:0:
117,223,47657,2,0,L|134:125,1,75,0|0,1:0|0:0,0:0:0:0:
69,88,48039,2,0,P|120:104|164:72,1,112.5,8|0,0:0|0:0,0:0:0:0:
191,38,48421,2,0,L|348:68,1,150,0|0,1:0|1:0,0:0:0:0:
502,2,49185,6,0,P|520:33|512:69,1,75,2|2,1:2|0:0,0:0:0:0:
440,124,49568,1,8,0:0:0:0:
494,195,49759,2,0,L|467:342,1,150,2|0,0:0|1:0,0:0:0:0:
387,382,50332,1,8,0:0:0:0:
316,330,50523,1,2,1:2:0:0:
316,330,50618,1,0,3:0:0:0:
316,330,50714,2,0,L|168:356,1,150,2|8,1:2|0:0,0:0:0:0:
152,269,51287,1,0,3:0:0:0:
152,269,51383,1,0,1:0:0:0:
152,269,51478,2,0,L|242:252,1,75,0|0,1:0|0:0,0:0:0:0:
291,192,51861,2,0,L|293:173,6,18.75,10|0|0|0|0|0|0,0:0|0:0|0:0|0:0|0:0|0:0|0:0,0:0:0:0:
329,168,52243,6,0,L|355:20,1,150,0|8,1:0|0:0,0:0:0:0:
266,38,52816,1,0,0:0:0:0:
179,61,53007,1,2,0:0:0:0:
179,61,53198,2,0,L|162:152,1,75,2|8,1:2|0:0,0:0:0:0:
96,190,53580,1,0,3:0:0:0:
96,190,53676,1,0,3:0:0:0:
96,190,53771,2,0,P|66:222|80:328,1,150,0|8,1:0|0:0,0:0:0:0:
141,382,54345,2,0,L|230:371,1,75,2|0,0:0|1:0,0:0:0:0:
277,307,54727,2,0,L|267:232,1,75,2|0,0:0|1:0,0:0:0:0:
337,176,55109,1,0,0:0:0:0:
415,219,55300,6,0,L|437:376,2,150,2|8|2,1:2|0:0|0:0,0:0:0:0:
474,151,56255,1,0,1:0:0:0:
398,101,56447,2,0,L|408:26,1,75,8|2,0:0|0:0,0:0:0:0:
321,0,56829,2,0,L|304:111,1,112.5,0|0,1:0|1:0,0:0:0:0:
267,136,57211,2,0,P|226:140|182:109,1,75,8|0,0:0|0:0,0:0:0:0:
164,93,57497,1,0,1:0:0:0:
164,93,57593,2,0,L|176:3,2,75,2|0|2,1:2|0:0|1:2,0:0:0:0:
24,206,58357,38,0,P|24:312|79:341,1,150,2|8,1:2|0:0,0:0:0:0:
130,376,58931,2,0,L|225:359,1,75
260,295,59313,1,0,1:0:0:0:
260,295,59408,1,0,0:0:0:0:
260,295,59504,2,0,L|333:308,1,75,8|2,0:0|0:0,0:0:0:0:
388,379,59886,1,2,1:2:0:0:
466,334,60077,2,0,P|493:285|486:230,1,112.5,2|0,0:0|0:0,0:0:0:0:
463,192,60459,2,0,L|476:119,1,75,2|0,0:0|1:0,0:0:0:0:
415,51,60841,1,2,0:0:0:0:
336,95,61033,2,0,L|323:168,1,75,0|0,1:0|0:0,0:0:0:0:
245,214,61415,5,0,1:0:0:0:
245,214,61797,1,10,0:0:0:0:
168,166,61988,2,0,L|144:39,1,112.5
137,11,62370,1,0,1:0:0:0:
48,28,62561,2,0,L|61:101,1,75,8|0,0:0|1:0,0:0:0:0:
12,177,62943,2,0,P|6:237|57:294,1,112.5,0|0,1:0|0:0,0:0:0:0:
72,301,63325,2,0,L|186:278,1,112.5,8|0,0:0|0:0,0:0:0:0:
224,296,63708,2,0,L|297:280,1,75,0|0,1:0|0:0,0:0:0:0:
340,201,64090,2,0,L|324:127,1,75,8|0,0:0|0:0,0:0:0:0:
314,83,64376,1,0,3:0:0:0:
314,83,64472,6,0,P|276:112|229:106,1,97.4999955368044,2|0,0:0|0:0,0:0:0:0:
165,39,65045,2,0,P|98:16|50:70,1,146.249993305207,2|0,0:0|0:0,0:0:0:0:
123,119,65810,2,0,L|106:215,1,97.4999955368044,2|0,0:0|0:0,0:0:0:0:
256,352,66765,5,2,0:0:0:0:
337,268,67147,1,2,0:0:0:0:
337,268,67529,38,0,B|375:237|428:278|413:297|466:338|513:307,2,194.999991073609,2|2|2,0:0|0:0|0:0,0:0:0:0:
128,352,69822,5,2,0:0:0:0:
71,292,70013,1,2,0:0:0:0:
71,292,70396,2,0,L|78:243,1,48.7499977684022,2|0,0:0|0:0,0:0:0:0:
150,197,70778,2,0,L|157:148,1,48.7499977684022,2|0,0:0|0:0,0:0:0:0:
100,86,71160,2,0,P|86:40|114:2,2,97.4999955368044,2|2|2,0:0|0:0|0:0,0:0:0:0:
150,197,72306,38,0,P|221:184|294:172,1,146.249993305207,2|0,0:0|0:0,0:0:0:0:
373,212,73071,1,2,0:0:0:0:
373,212,73453,2,0,L|390:116,1,97.4999955368044,2|0,0:0|0:0,0:0:0:0:
417,35,74026,1,2,0:0:0:0:
417,35,74217,2,0,P|370:25|332:53,1,97.4999955368044,2|0,0:0|0:0,0:0:0:0:
251,139,74982,2,0,P|179:124|107:113,1,146.249993305207,2|0,0:0|0:0,0:0:0:0:
38,209,75937,1,2,0:0:0:0:
38,209,76128,2,0,P|24:254|53:291,1,97.4999955368044,2|0,0:0|0:0,0:0:0:0:
125,346,76701,22,0,L|236:337,1,97.4999955368044,2|0,0:0|0:0,0:0:0:0:
275,268,77275,2,0,L|267:170,1,97.4999955368044,2|0,0:0|0:0,0:0:0:0:
177,38,78039,2,0,P|242:88|314:63,1,146.249993305207,2|0,0:0|0:0,0:0:0:0:
358,9,78803,1,0,0:0:0:0:
444,41,78994,1,2,0:0:0:0:
444,41,79185,2,0,B|435:92|435:92|441:110|441:110|429:174,1,121.874994421006,2|0,0:0|0:0,0:0:0:0:
459,198,79759,6,0,P|474:275|419:336,1,146.249993305207,2|0,0:0|0:0,0:0:0:0:
358,366,80523,2,0,P|281:381|220:326,1,146.249993305207,2|0,0:0|0:0,0:0:0:0:
184,268,81287,2,0,P|117:223|150:341,1,292.499986610413,2|0,0:0|0:0,0:0:0:0:
303,293,82816,37,0,0:0:0:0:
342,214,83007,1,0,0:0:0:0:
342,214,83198,2,0,L|335:148,1,48.7499977684022,2|0,0:0|0:0,0:0:0:0:
263,117,83580,2,0,L|252:20,1,97.4999955368044,2|0,0:0|0:0,0:0:0:0:
160,8,84154,2,0,L|177:158,1,146.249993305207,2|0,0:0|0:0,0:0:0:0:
214,232,84918,2,0,P|151:182|82:206,1,146.249993305207
51,349,85873,6,0,L|46:301,1,48.7499977684022
134,277,86255,2,0,L|144:367,1,73.1249966526033,2|0,0:0|0:0,0:0:0:0:
181,371,86638,2,0,P|215:374|267:349,1,73.1249966526033,2|2,0:0|0:0,0:0:0:0:
321,249,87211,1,2,0:0:0:0:
256,189,87402,38,0,L|247:116,1,73.1249966526033,0|0,1:0|0:0,0:0:0:0:
272,79,87784,2,0,L|337:71,1,48.7499977684022,8|0,0:0|3:0,0:0:0:0:
358,96,88071,1,0,3:0:0:0:
358,96,88166,2,0,L|423:88,1,48.7499977684022,0|0,3:0|1:0,0:0:0:0:
481,135,88548,1,8,0:0:0:0:
481,135,88931,22,0,L|454:288,1,123.75000377655,4|0,1:2|0:0,0:0:0:0:
448,305,89313,2,0,P|413:284|373:292,1,82.5000025177003,10|0,0:0|0:0,0:0:0:0:
307,365,89695,1,2,0:0:0:0:
225,308,89886,1,0,1:0:0:0:
150,373,90077,2,0,L|68:358,1,82.5000025177003,10|0,0:0|0:0,0:0:0:0:
24,351,90364,1,0,3:0:0:0:
24,351,90459,6,0,L|51:188,1,165.000005035401,0|8,1:0|0:0,0:0:0:0:
16,45,91033,2,0,P|76:97|155:82,1,165.000005035401,2|0,1:2|1:0,0:0:0:0:
223,11,91606,1,10,0:0:0:0:
315,70,91797,1,2,3:2:0:0:
315,70,91892,1,0,3:0:0:0:
315,70,91988,38,0,L|436:48,1,123.75000377655,0|0,1:0|0:0,0:0:0:0:
475,79,92370,2,0,L|458:186,1,82.5000025177003,8|0,0:0|0:0,0:0:0:0:
512,245,92752,1,0,0:0:0:0:
442,314,92943,1,0,1:0:0:0:
355,265,93134,2,0,L|273:279,1,82.5000025177003,8|0,0:0|0:0,0:0:0:0:
229,295,93421,1,0,3:0:0:0:
229,295,93517,1,0,1:0:0:0:
209,196,93708,5,0,3:0:0:0:
209,196,93803,1,0,1:0:0:0:
209,196,93899,2,0,L|290:181,1,82.5000025177003,8|0,0:0|0:0,0:0:0:0:
431,218,94281,2,0,P|440:156|451:95,1,123.75000377655,2|0,1:2|0:0,0:0:0:0:
415,62,94663,2,0,P|353:71|292:82,1,123.75000377655,2|0,1:2|0:0,0:0:0:0:
251,55,95045,38,0,P|205:16|146:28,1,123.75000377655,0|0,1:0|0:0,0:0:0:0:
107,59,95427,2,0,L|122:140,1,82.5000025177003,10|0,0:0|0:0,0:0:0:0:
66,221,95809,1,2,0:0:0:0:
146,279,96000,1,0,1:0:0:0:
202,198,96191,2,0,L|283:211,1,82.5000025177003,10|0,0:0|0:0,0:0:0:0:
329,218,96478,1,0,3:0:0:0:
329,218,96573,6,0,P|315:136|300:55,1,165.000005035401,0|8,1:0|0:0,0:0:0:0:
434,33,97147,2,0,P|447:114|462:195,1,165.000005035401,2|0,1:2|1:0,0:0:0:0:
405,278,97720,1,8,0:0:0:0:
329,218,97911,1,2,3:2:0:0:
329,218,98006,1,0,3:0:0:0:
329,218,98103,37,0,1:0:0:0:
281,306,98294,1,0,0:0:0:0:
197,263,98485,1,8,0:0:0:0:
197,263,98676,1,2,1:2:0:0:
145,347,98867,5,0,0:0:0:0:
57,299,99058,1,0,1:0:0:0:
109,215,99249,1,8,0:0:0:0:
109,215,99440,1,2,1:2:0:0:
22,167,99631,37,0,0:0:0:0:
70,79,99822,1,0,1:0:0:0:
154,131,100013,2,0,L|235:118,1,82.5000025177003,8|0,0:0|1:0,0:0:0:0:
310,183,100396,2,0,L|391:170,1,82.5000025177003,8|0,0:0|1:0,0:0:0:0:
474,224,100778,1,8,0:0:0:0:
497,241,100874,1,8,0:0:0:0:
508,269,100969,1,8,0:0:0:0:
504,299,101065,1,8,0:0:0:0:
486,323,101160,22,0,B|432:330|432:330|416:344|416:344|344:355,1,123.75000377655,6|0,1:2|0:0,0:0:0:0:
325,326,101542,2,0,P|276:287|190:312,1,123.75000377655,10|0,0:0|0:0,0:0:0:0:
173,313,101924,1,0,0:0:0:0:
90,368,102115,1,0,1:0:0:0:
30,288,102306,2,0,B|34:240|34:240|45:224|45:224|54:149,1,123.75000377655,10|0,0:0|0:0,0:0:0:0:
92,139,102689,6,0,L|180:148,1,82.5000025177003,0|0,1:0|0:0,0:0:0:0:
226,156,102975,1,0,3:0:0:0:
226,156,103071,1,10,0:0:0:0:
341,53,103262,2,0,P|387:47|424:66,1,82.5000025177003,2|0,1:2|0:0,0:0:0:0:
481,138,103644,2,0,P|487:184|468:221,1,82.5000025177003,2|8,1:2|0:0,0:0:0:0:
392,273,104026,1,2,0:0:0:0:
436,361,104217,38,0,P|369:325|311:351,1,123.75000377655,0|0,1:0|0:0,0:0:0:0:
280,356,104599,2,0,P|232:370|182:357,1,82.5000025177003,8|0,0:0|0:0,0:0:0:0:
161,344,104886,1,0,3:0:0:0:
161,344,104982,2,0,L|155:255,1,82.5000025177003,0|0,0:0|1:0,0:0:0:0:
79,192,105364,1,8,0:0:0:0:
146,119,105555,1,2,0:0:0:0:
253,182,105746,6,0,L|342:176,1,82.5000025177003,0|0,1:0|0:0,0:0:0:0:
388,175,106033,1,0,1:0:0:0:
388,175,106128,1,8,0:0:0:0:
429,84,106319,1,2,0:0:0:0:
340,39,106510,2,0,P|298:31|259:47,1,82.5000025177003,0|0,1:0|0:0,0:0:0:0:
190,111,106892,2,0,P|151:125|111:116,1,82.5000025177003,0|0,1:0|0:0,0:0:0:0:
21,26,107275,38,0,B|13:75|13:75|18:95|18:95|2:180,1,123.75000377655,0|0,1:0|0:0,0:0:0:0:
32,190,107657,2,0,L|14:279,1,82.5000025177003,8|0,0:0|1:0,0:0:0:0:
68,352,108039,1,0,3:0:0:0:
104,372,108134,1,0,3:0:0:0:
144,376,108230,1,0,3:0:0:0:
183,364,108325,1,0,3:0:0:0:
213,335,108421,1,8,0:0:0:0:
200,236,108612,1,0,0:0:0:0:
295,208,108803,6,0,L|314:347,1,123.75000377655,0|0,1:0|0:0,0:0:0:0:
353,357,109185,2,0,P|411:368|474:331,1,123.75000377655,8|0,0:0|0:0,0:0:0:0:
500,302,109568,1,8,0:0:0:0:
487,203,109759,1,8,0:0:0:0:
473,104,109950,1,8,0:0:0:0:
445,74,110045,1,8,0:0:0:0:
407,60,110141,1,8,0:0:0:0:
366,64,110236,1,8,0:0:0:0:
332,87,110332,37,4,1:2:0:0:
257,152,110523,1,0,1:0:0:0:
178,91,110714,2,0,B|114:74|114:74|33:110,1,123.75000377655,10|0,0:0|0:0,0:0:0:0:
17,120,111096,2,0,L|22:212,1,82.5000025177003,2|2,1:2|1:2,0:0:0:0:
96,266,111478,1,10,0:0:0:0:
165,196,111669,5,2,1:2:0:0:
335,82,112052,1,2,0:0:0:0:
432,257,112434,1,2,0:0:0:0:
271,369,112816,37,2,0:0:0:0:
271,369,112911,1,2,0:0:0:0:
271,369,113007,1,10,0:0:0:0:
301,274,113198,1,2,0:0:0:0:
213,248,113389,21,6,1:2:0:0:
213,248,113580,2,0,P|159:235|114:266,1,112.5,2|0,0:0|0:0,0:0:0:0:
90,308,113962,2,0,L|62:160,1,150,2|2,0:0|1:2,0:0:0:0:
71,152,114440,1,2,0:0:0:0:
80,144,114536,1,10,0:0:0:0:
153,79,114727,6,0,L|226:92,1,75,2|0,0:0|1:0,0:0:0:0:
312,44,115109,2,0,L|385:57,1,75,2|8,0:0|0:0,0:0:0:0:
445,133,115491,2,0,P|434:188|426:243,1,112.5,2|0,0:0|0:0,0:0:0:0:
416,291,115873,1,0,1:0:0:0:
349,361,116064,1,8,0:0:0:0:
262,319,116255,1,0,0:0:0:0:
276,224,116447,37,2,1:2:0:0:
276,224,116638,2,0,P|285:170|296:113,1,112.5,2|0,0:0|0:0,0:0:0:0:
265,75,117020,2,0,P|194:56|134:97,1,150,2|2,0:0|1:2,0:0:0:0:
129,109,117497,1,2,0:0:0:0:
125,121,117594,1,10,0:0:0:0:
27,106,117785,6,0,L|40:179,1,75,2|0,0:0|1:0,0:0:0:0:
38,285,118166,1,2,0:0:0:0:
38,285,118262,1,0,1:0:0:0:
38,285,118357,1,8,0:0:0:0:
134,300,118549,2,0,L|244:319,1,112.5,2|0,0:0|0:0,0:0:0:0:
286,328,118931,1,0,0:0:0:0:
368,379,119122,1,0,1:2:0:0:
442,317,119313,1,0,0:0:0:0:
406,228,119504,37,2,1:2:0:0:
406,228,119695,2,0,L|425:117,1,112.5,2|0,0:0|0:0,0:0:0:0:
434,72,120077,6,0,B|358:85|358:85|348:95|348:95|275:108,1,165.000005035401,2|2,0:0|1:2,0:0:0:0:
265,103,120555,37,2,0:0:0:0:
253,96,120650,1,10,0:0:0:0:
175,49,120841,2,0,P|154:78|162:113,1,75,2|0,0:0|1:0,0:0:0:0:
80,159,121224,2,0,P|95:191|130:202,1,75,2|8,0:0|0:0,0:0:0:0:
91,299,121606,6,0,P|178:294|233:227,1,179.999994506836,2|2,0:0|1:2,0:0:0:0:
233,214,122083,37,2,0:0:0:0:
227,202,122179,1,10,0:0:0:0:
297,134,122370,2,0,L|370:147,1,75,2|0,0:0|1:2,0:0:0:0:
471,129,122752,2,0,L|457:202,1,75,2|8,0:0|0:0,0:0:0:0:
464,307,123134,6,0,B|415:302|376:264|376:264|352:313|313:334,1,194.999991073609,2|0,1:2|1:0,0:0:0:0:
233,281,123708,37,10,0:0:0:0:
170,364,123899,1,2,1:2:0:0:
94,306,124090,2,0,P|81:232|68:158,1,150,0|0,1:0|1:0,0:0:0:0:
195,119,124759,1,0,3:0:0:0:
195,119,124854,2,0,P|201:155|208:192,1,75,0|0,1:0|0:0,0:0:0:0:
233,281,125236,1,0,1:0:0:0:
233,281,125427,1,0,0:0:0:0:
301,349,125618,22,0,P|370:364|416:329,1,120,2|0,0:0|0:0,0:0:0:0:
466,269,126192,1,0,0:0:0:0:
466,269,126383,2,0,L|461:191,1,60,2|0,0:0|0:0,0:0:0:0:
512,58,126956,2,0,P|460:31|404:48,1,120,2|0,0:0|0:0,0:0:0:0:
337,107,127529,1,0,0:0:0:0:
337,107,127720,2,0,L|277:110,1,60,2|0,0:0|0:0,0:0:0:0:
201,59,128103,2,0,B|151:61|151:61|136:71|136:71|75:74,1,120,2|0,0:0|0:0,0:0:0:0:
30,145,128676,6,0,P|16:196|67:263,1,120,2|0,0:0|0:0,0:0:0:0:
47,252,129440,2,0,L|55:311,2,60
131,210,130013,2,0,L|146:328,1,120,2|0,0:0|0:0,0:0:0:0:
226,370,130587,2,0,P|282:384|340:346,1,120
392,287,131160,1,0,0:0:0:0:
392,287,131351,1,0,0:0:0:0:
344,212,131542,1,0,0:0:0:0:
344,212,131733,38,0,L|359:92,1,120,2|0,0:0|0:0,0:0:0:0:
387,7,132306,2,0,P|347:48|269:41,1,120,2|0,0:0|0:0,0:0:0:0:
112,4,133071,2,0,L|44:18,1,60,2|0,0:0|0:0,0:0:0:0:
0,89,133453,2,0,B|9:136|9:136|4:155|4:155|20:221,1,120,2|0,0:0|0:0,0:0:0:0:
86,262,134026,2,0,P|114:273|150:265,1,60
216,218,134408,2,0,P|245:214|272:225,1,60
329,295,134790,5,2,0:0:0:0:
329,295,135173,1,0,0:0:0:0:
389,364,135364,2,0,P|379:312|414:249,1,120,2|0,0:0|0:0,0:0:0:0:
479,199,135937,2,0,L|491:121,1,60,0|2,0:0|0:0,0:0:0:0:
440,63,136319,2,0,L|326:44,1,90,2|0,0:0|0:0,0:0:0:0:
310,68,136701,2,0,L|196:49,1,90,2|0,0:0|0:0,0:0:0:0:
179,70,137083,2,0,L|110:58,1,60,2|0,0:0|0:0,0:0:0:0:
31,80,137466,2,0,L|16:77,6,15,10|0|0|0|0|0|0,0:0|0:0|0:0|0:0|0:0|0:0|0:0,0:0:0:0:
22,91,137848,6,0,P|36:168|48:238,1,150,2|8,1:2|0:0,0:0:0:0:
125,285,138421,1,0,0:0:0:0:
182,216,138612,1,2,0:0:0:0:
182,216,138803,2,0,L|255:229,1,75,2|8,1:2|0:0,0:0:0:0:
312,312,139185,1,2,3:2:0:0:
312,312,139281,1,0,3:0:0:0:
312,312,139376,2,0,P|290:243|334:186,1,150,0|8,1:0|0:0,0:0:0:0:
414,143,139950,2,0,L|487:156,1,75,2|0,0:0|1:0,0:0:0:0:
460,343,140523,1,0,1:0:0:0:
460,343,140905,6,0,L|312:317,1,150,2|8,1:2|0:0,0:0:0:0:
237,370,141478,1,0,3:0:0:0:
237,370,141574,1,0,3:0:0:0:
237,370,141669,2,0,P|279:311|258:242,1,150,2|8,0:0|0:0,0:0:0:0:
207,166,142243,1,2,0:0:0:0:
132,216,142434,2,0,L|58:202,1,75,0|0,1:0|0:0,0:0:0:0:
18,198,142720,1,0,1:0:0:0:
18,198,142816,1,8,0:0:0:0:
34,109,143007,2,0,L|124:124,1,75,0|0,0:0|1:2,0:0:0:0:
255,3,143580,1,0,1:0:0:0:
255,3,143962,38,0,P|210:36|213:92,1,112.5,0|0,1:0|0:0,0:0:0:0:
238,125,144345,2,0,P|223:199|211:272,1,150,10|0,0:0|0:0,0:0:0:0:
167,354,144918,1,2,1:2:0:0:
167,354,145013,1,0,3:0:0:0:
167,354,145109,2,0,L|277:373,1,112.5,8|0,0:0|0:0,0:0:0:0:
317,351,145491,2,0,L|390:364,1,75,2|0,1:2|0:0,0:0:0:0:
410,276,145873,2,0,L|336:262,1,75,10|0,0:0|0:0,0:0:0:0:
387,183,146255,2,0,L|413:35,1,150,0|0,1:0|1:0,0:0:0:0:
253,119,147020,6,0,L|266:45,2,75,2|0|8,1:2|0:0|0:0,0:0:0:0:
173,66,147593,2,0,P|101:52|45:98,1,150,2|0,0:0|1:0,0:0:0:0:
2,177,148166,1,8,0:0:0:0:
88,228,148357,1,0,1:0:0:0:
88,228,148453,1,0,3:0:0:0:
88,228,148548,2,0,L|66:347,1,112.5,0|0,1:0|0:0,0:0:0:0:
105,365,148931,2,0,L|215:345,1,112.5,8|0,0:0|0:0,0:0:0:0:
250,374,149313,1,0,1:0:0:0:
326,327,149504,2,0,L|339:253,1,75,0|8,0:0|0:0,0:0:0:0:
289,185,149886,1,0,3:0:0:0:
289,185,149982,1,0,3:0:0:0:
289,185,150077,6,0,B|324:117|263:48|263:48|183:20|120:73,1,300,2|2,0:0|0:0,0:0:0:0:
4,258,153134,6,0,P|84:249|129:306,2,150,2|2|2,0:0|0:0|0:0,0:0:0:0:
223,352,156192,38,0,B|307:393|373:311|328:317|394:221|482:265,2,300,2|2|2,0:0|0:0|0:0,0:0:0:0:
223,352,160778,6,0,L|238:241,1,112.5,2|0,0:0|0:0,0:0:0:0:
178,173,161542,1,2,0:0:0:0:
178,173,161733,2,0,L|190:94,1,75,2|0,0:0|0:0,0:0:0:0:
174,12,162306,6,0,P|221:5|254:39,1,97.4999955368044,2|0,0:0|0:0,0:0:0:0:
305,111,162880,1,2,0:0:0:0:
455,20,163262,1,2,0:0:0:0:
512,188,163644,1,2,0:0:0:0:
512,188,164026,6,0,P|502:238|494:289,1,97.4999955368044,2|0,0:0|0:0,0:0:0:0:
474,368,164599,1,2,0:0:0:0:
316,288,164982,1,2,0:0:0:0:
316,288,165364,38,0,B|267:317|216:280|232:262|183:223|140:253,2,194.999991073609,2|2|2,0:0|0:0|0:0,0:0:0:0:
480,96,168039,5,2,0:0:0:0:
480,96,168421,38,0,L|471:47,1,48.7499977684022,2|0,0:0|0:0,0:0:0:0:
381,37,168803,2,0,L|397:133,1,97.4999955368044,2|0,0:0|0:0,0:0:0:0:
436,309,169568,1,2,0:0:0:0:
436,309,169759,2,0,P|385:263|316:280,1,146.249993305207,2|0,0:0|0:0,0:0:0:0:
64,384,171287,5,2,0:0:0:0:
64,384,171478,2,0,L|50:321,1,48.7499977684022,2|0,0:0|0:0,0:0:0:0:
36,254,171861,2,0,P|72:283|119:276,1,97.4999955368044,2|0,0:0|0:0,0:0:0:0:
186,219,172434,1,2,0:0:0:0:
186,219,172816,38,0,L|281:236,1,97.4999955368044,2|0,0:0|0:0,0:0:0:0:
351,297,173389,2,0,P|378:258|366:212,1,97.4999955368044,8|0,0:0|0:0,0:0:0:0:
301,151,173962,1,0,0:0:0:0:
371,87,174154,2,0,L|389:91,6,18.75,8|8|8|8|8|8|8,0:0|0:0|0:0|0:0|0:0|0:0|0:0,0:0:0:0:
338,49,174536,22,0,P|297:32|240:56,1,89.9999972534181,4|0,1:2|0:0,0:0:0:0:
173,92,174918,2,0,L|38:79,1,134.999995880127,10|0,0:0|0:0,0:0:0:0:
10,102,175300,2,0,L|0:197,1,89.9999972534181,2|0,0:0|1:0,0:0:0:0:
86,241,175682,1,8,0:0:0:0:
0,354,175873,6,0,P|48:323|126:353,1,134.999995880127,2|0,0:0|0:0,0:0:0:0:
162,366,176255,2,0,P|201:377|245:353,1,89.9999972534181,2|8,0:0|0:0,0:0:0:0:
287,272,176638,2,0,B|275:195|275:195|260:174|260:174|247:88,1,179.999994506836,2|0,1:2|1:0,0:0:0:0:
304,18,177211,1,10,0:0:0:0:
304,18,177402,1,2,0:0:0:0:
438,74,177593,38,0,B|447:144|447:144|462:166|462:166|474:257,1,179.999994506836,0|8,1:0|0:0,0:0:0:0:
406,329,178166,1,0,0:0:0:0:
352,259,178357,1,0,0:0:0:0:
295,340,178548,1,0,1:0:0:0:
221,273,178740,1,8,0:0:0:0:
148,347,178931,1,0,3:0:0:0:
148,347,179026,1,0,3:0:0:0:
148,347,179122,6,0,L|131:242,1,89.9999972534181,0|0,1:0|0:0,0:0:0:0:
101,227,179408,1,0,1:0:0:0:
101,227,179504,2,0,L|87:136,1,89.9999972534181,8|0,0:0|0:0,0:0:0:0:
56,33,179886,2,0,P|135:92|185:68,1,134.999995880127,2|0,1:2|0:0,0:0:0:0:
194,47,180268,2,0,P|245:18|334:59,1,134.999995880127,2|0,1:2|0:0,0:0:0:0:
360,56,180650,38,0,L|341:192,1,134.999995880127,0|0,1:0|0:0,0:0:0:0:
383,217,181033,2,0,L|372:306,1,89.9999972534181,10|0,0:0|0:0,0:0:0:0:
456,355,181415,2,0,P|408:325|313:388,1,179.999994506836,2|10,0:0|0:0,0:0:0:0:
225,369,181988,5,2,3:2:0:0:
225,369,182083,1,0,3:0:0:0:
225,369,182179,2,0,L|135:357,1,89.9999972534181,0|2,1:0|0:0,0:0:0:0:
80,272,182561,1,8,0:0:0:0:
0,326,182752,2,0,P|34:272|11:196,1,134.999995880127,2|0,1:2|0:0,0:0:0:0:
5,158,183134,2,0,P|-8:98|32:31,1,134.999995880127,2|0,1:2|0:0,0:0:0:0:
69,11,183517,1,2,0:0:0:0:
135,127,183708,38,0,L|246:113,1,89.9999972534181,0|0,1:0|0:0,0:0:0:0:
295,46,184090,1,8,0:0:0:0:
377,100,184281,2,0,L|489:87,2,89.9999972534181,2|0|0,1:2|0:0|1:0,0:0:0:0:
306,169,184854,1,8,0:0:0:0:
394,215,185045,6,0,P|408:253|389:316,1,89.9999972534181,2|0,1:2|0:0,0:0:0:0:
325,367,185427,1,0,1:0:0:0:
256,303,185618,1,8,0:0:0:0:
256,303,185810,1,0,1:0:0:0:
191,227,186001,1,8,0:0:0:0:
125,300,186192,1,0,1:0:0:0:
60,225,186383,37,8,0:0:0:0:
27,194,186478,1,8,0:0:0:0:
14,152,186574,1,8,0:0:0:0:
22,108,186669,1,8,0:0:0:0:
59,75,186765,22,0,L|192:97,1,134.999995880127,6|0,1:2|0:0,0:0:0:0:
241,105,187147,2,0,P|307:48|393:64,1,179.999994506836,10|0,0:0|0:0,0:0:0:0:
464,133,187720,1,0,1:0:0:0:
393,202,187911,1,10,0:0:0:0:
478,284,188103,5,0,3:0:0:0:
478,284,188198,1,0,3:0:0:0:
478,284,188294,2,0,P|411:295|345:307,1,134.999995880127,0|0,1:0|0:0,0:0:0:0:
303,280,188676,1,10,0:0:0:0:
195,349,188867,2,0,P|153:361|116:337,1,89.9999972534181,2|0,1:2|0:0,0:0:0:0:
135,243,189249,2,0,P|176:230|213:254,1,89.9999972534181,2|8,1:2|0:0,0:0:0:0:
311,288,189631,37,2,3:2:0:0:
311,288,189727,1,0,3:0:0:0:
311,288,189822,2,0,P|324:211|342:110,1,179.999994506836,0|8,1:0|0:0,0:0:0:0:
289,26,190396,1,0,0:0:0:0:
208,82,190587,2,0,L|119:65,1,89.9999972534181,0|0,0:0|1:0,0:0:0:0:
43,1,190969,1,8,0:0:0:0:
0,95,191160,5,2,3:2:0:0:
0,95,191255,1,0,3:0:0:0:
0,95,191351,2,0,L|14:183,1,89.9999972534181,0|0,1:0|0:0,0:0:0:0:
56,188,191638,1,0,1:0:0:0:
56,188,191733,2,0,L|70:276,1,89.9999972534181,8|0,0:0|0:0,0:0:0:0:
3,335,192115,2,0,P|55:315|127:380,1,134.999995880127,2|0,1:2|0:0,0:0:0:0:
153,378,192497,2,0,L|296:351,1,134.999995880127,2|0,1:2|0:0,0:0:0:0:
334,342,192880,38,0,L|360:198,1,134.999995880127,0|0,1:0|0:0,0:0:0:0:
325,171,193262,1,10,0:0:0:0:
384,92,193453,2,0,P|299:73|234:131,1,179.999994506836,0|0,1:0|3:0,0:0:0:0:
223,182,193931,1,0,3:0:0:0:
223,182,194026,1,8,0:0:0:0:
166,264,194217,5,0,3:0:0:0:
166,264,194313,1,0,3:0:0:0:
166,264,194408,2,0,L|33:238,1,134.999995880127,0|0,1:0|0:0,0:0:0:0:
0,201,194790,2,0,P|-13:159|12:125,1,89.9999972534181,10|0,0:0|0:0,0:0:0:0:
94,68,195173,1,8,0:0:0:0:
141,154,195364,1,8,0:0:0:0:
216,89,195555,37,8,0:0:0:0:
252,72,195650,1,8,0:0:0:0:
292,74,195746,1,8,0:0:0:0:
325,96,195841,1,8,0:0:0:0:
342,132,195937,5,4,1:2:0:0:
427,82,196128,1,0,1:0:0:0:
475,168,196319,2,0,L|452:273,1,89.9999972534181,8|0,0:0|0:0,0:0:0:0:
444,307,196606,1,0,3:0:0:0:
444,307,196701,1,0,1:0:0:0:
380,378,196892,1,0,1:0:0:0:
326,295,197083,1,8,0:0:0:0:
326,295,197275,1,0,1:0:0:0:
249,358,197466,38,0,B|177:392|108:332|132:309|67:248|0:285,1,281.250010728836,2|2,1:2|0:0,0:0:0:0:
0,284,198867,6,0,P|18:189|35:94,1,192.500005874634,2|0,0:0|0:0,0:0:0:0:
