osu file format v14

[General]
AudioFilename: audio.mp3
AudioLeadIn: 0
PreviewTime: 149289
Countdown: 0
SampleSet: Soft
StackLeniency: 0.6
Mode: 0
LetterboxInBreaks: 0
WidescreenStoryboard: 0

[Editor]
Bookmarks: 15555,27784,40013,52243,64472,76701,88931,101160,113389,125618,137848,150077,162306,174536,186765
DistanceSpacing: 0.4
BeatDivisor: 4
GridSize: 32
TimelineZoom: 2.399999

[Metadata]
Title:Everything Goes On
TitleUnicode:Everything Goes On
Artist:Porter Robinson
ArtistUnicode:Porter Robinson
Creator:KeyWee
Version:Guardian Angel
Source:League of Legends
Tags:Riot Music team English Electronic Pop Star Guardian 2022 Red Dog Culture House Riot games video Game Iceluin FairyAccel
BeatmapID:3924819
BeatmapSetID:1903598

[Difficulty]
HPDrainRate:6.5
CircleSize:4.2
OverallDifficulty:8
ApproachRate:9
SliderMultiplier:1.8
SliderTickRate:1

[Events]
//Background and Video events
0,0,"Iceluin_Keywee_Collab.jpg",0,0
//Break Periods
//Storyboard Layer 0 (Background)
//Storyboard Layer 1 (Fail)
//Storyboard Layer 2 (Pass)
//Storyboard Layer 3 (Foreground)
//Storyboard Layer 4 (Overlay)
//Storyboard Sound Samples

[TimingPoints]
3326,382.165605095541,4,2,1,30,1,0
15555,-133.333333333333,4,2,1,50,0,0
18421,-250,4,2,1,50,0,0
18708,-133.333333333333,4,2,1,5,0,0
18803,-133.333333333333,4,2,1,50,0,0
36956,-117.647058823529,4,2,1,50,0,0
38867,-200,4,2,1,50,0,0
39631,-111.111111111111,4,2,1,50,0,0
40013,-100,4,2,1,60,0,0
64472,-166.666666666667,4,2,1,40,0,0
76701,-142.857142857143,4,2,1,45,0,0
88166,-117.647058823529,4,2,1,45,0,0
88548,-250,4,2,1,45,0,0
88931,-76.9230769230769,4,2,1,70,0,0
91606,-133.333333333333,4,2,1,70,0,0
91988,-83.3333333333333,4,2,1,70,0,0
94281,-71.4285714285714,4,2,1,70,0,0
95045,-83.3333333333333,4,2,1,70,0,0
97529,-71.4285714285714,4,2,1,70,0,0
98103,-83.3333333333333,4,2,1,70,0,0
101160,-76.9230769230769,4,2,1,70,0,0
111669,-90.9090909090909,4,2,1,70,0,0
111861,-90.9090909090909,4,2,1,50,0,0
111956,-90.9090909090909,4,2,1,5,0,0
112052,-111.111111111111,4,2,1,50,0,0
112338,-111.111111111111,4,2,1,5,0,0
112434,-111.111111111111,4,2,1,50,0,0
113007,-142.857142857143,4,2,1,50,0,0
113389,-100,4,2,1,60,0,0
118644,-100,4,2,1,5,0,0
118740,-100,4,2,1,60,0,0
120077,-500,4,2,1,60,0,0
120841,-100,4,2,1,60,0,0
121606,-250,4,2,1,60,0,0
122370,-100,4,2,1,60,0,0
123134,-166.666666666667,4,2,1,60,0,0
123898,-100,4,2,1,60,0,0
125618,-125,4,2,1,50,0,0
136319,-333.333333333333,4,2,1,50,0,0
137466,-125,4,2,1,50,0,0
137848,-117.647058823529,4,2,1,60,0,0
143962,-200,4,2,1,60,0,0
144345,-100,4,2,1,60,0,0
144918,-117.647058823529,4,2,1,60,0,0
148548,-86.9565217391304,4,2,1,60,0,0
148930,-153.846153846154,4,2,1,60,0,0
149313,-500,4,2,1,60,0,0
150077,-250,4,2,1,30,0,0
151510,-250,4,2,1,5,0,0
151606,-250,4,2,1,30,0,0
153039,-250,4,2,1,5,0,0
153134,-250,4,2,1,30,0,0
157625,-250,4,2,1,5,0,0
157720,-250,4,2,1,30,0,0
159154,-250,4,2,1,5,0,0
159249,-250,4,2,1,30,0,0
161733,-333.333333333333,4,2,1,30,0,0
162306,-181.818181818182,4,2,1,35,0,0
174154,-100,4,2,1,50,0,0
174536,-71.4285714285714,4,2,1,75,0,1
180268,-200,4,2,1,75,0,1
180650,-71.4285714285714,4,2,1,75,0,1
183708,-66.6666666666667,4,2,1,75,0,1
185045,-71.4285714285714,4,2,1,75,0,1
186383,-71.4285714285714,4,2,1,75,0,0
186765,-71.4285714285714,4,2,1,75,0,1
197466,-100,4,2,1,55,0,0
198867,-200,4,2,1,40,0,0
199759,-200,4,2,1,15,0,0

[Colours]
Combo1 : 165,237,188
Combo2 : 242,57,108
Combo3 : 237,154,179
Combo4 : 45,176,87

[HitObjects]
50,319,15555,6,0,P|102:280|164:299,1,135.000005149842,0|2,0:0|0:0,0:0:0:0:
267,200,16319,6,0,P|261:233|256:266,1,67.5000025749208,2|0,0:0|0:0,0:0:0:0:
350,248,16701,1,0,0:0:0:0:
199,144,16892,38,0,P|261:162|314:124,1,135.000005149842,2|0,0:0|0:0,0:0:0:0:
314,123,17466,1,0,0:0:0:0:
475,31,17657,2,0,P|412:12|360:51,1,135.000005149842,2|0,0:0|0:0,0:0:0:0:
512,176,18230,5,2,0:0:0:0:
427,194,18421,2,0,P|431:169|436:141,1,54,2|0,0:0|0:0,0:0:0:0:
428,100,18803,38,0,P|410:199|392:299,1,202.500007724762,2|0,0:0|0:0,0:0:0:0:
312,220,19568,2,0,P|307:253|302:286,1,67.5000025749208
463,350,19950,2,0,P|400:331|348:370,1,135.000005149842,2|0,0:0|0:0,0:0:0:0:
220,240,20523,1,0,0:0:0:0:
220,240,20905,6,0,P|186:245|153:251,1,67.5000025749208,2|0,0:0|0:0,0:0:0:0:
138,168,21287,2,0,P|171:162|204:156,1,67.5000025749208,2|0,0:0|0:0,0:0:0:0:
47,58,21669,38,0,B|65:80|108:81|108:81|67:94|56:121,1,135.000005149842,0|2,0:0|0:0,0:0:0:0:
9,250,22434,6,0,P|-8:222|0:190,1,67.5000025749208,2|0,0:0|0:0,0:0:0:0:
57,121,22816,1,0,0:0:0:0:
9,250,23007,38,0,P|75:238|142:228,1,135.000005149842,2|0,0:0|0:0,0:0:0:0:
142,228,23581,1,0,0:0:0:0:
21,336,23771,2,0,P|87:326|154:314,1,135.000005149842,2|2,0:0|0:0,0:0:0:0:
225,260,24345,1,0,0:0:0:0:
422,366,24727,6,0,P|428:330|433:299,1,67.5000025749208,2|0,0:0|0:0,0:0:0:0:
348,318,25109,1,0,0:0:0:0:
495,230,25300,2,0,P|445:220|395:212,1,101.250003862381,2|0,0:0|0:0,0:0:0:0:
398,192,25682,2,0,P|447:201|497:209,1,101.250003862381,2|0,0:0|0:0,0:0:0:0:
430,116,26065,38,0,P|364:110|321:159,1,135.000005149842,2|0,0:0|0:0,0:0:0:0:
349,75,26638,1,0,0:0:0:0:
161,0,27020,5,0,0:0:0:0:
89,56,27211,1,0,0:0:0:0:
18,111,27402,2,0,P|27:160|35:210,1,101.250003862381,2|0,0:0|0:0,0:0:0:0:
60,232,27784,6,0,P|84:281|71:346,1,101.250003862381,2|0,0:0|0:0,0:0:0:0:
76,337,28166,2,0,B|136:328|136:328|158:333|158:333|229:325,1,135.000005149842
280,257,28740,1,0,0:0:0:0:
350,384,28931,2,0,P|367:292|469:237,1,202.500007724762,2|0,0:0|0:0,0:0:0:0:
412,80,29695,5,2,0:0:0:0:
412,80,29886,2,0,L|422:160,1,67.5000025749208,2|0,0:0|0:0,0:0:0:0:
512,168,30268,2,0,L|493:23,1,135.000005149842,2|0,0:0|0:0,0:0:0:0:
420,146,30841,38,0,P|365:164|308:126,1,101.250003862381
316,136,31224,2,0,L|307:69,1,67.5000025749208
216,82,31606,2,0,L|225:149,2,67.5000025749208
68,231,32179,6,0,B|11:188|11:188|30:154|87:139|126:173,1,202.500007724762,2|0,0:0|0:0,0:0:0:0:
126,173,32943,1,0,0:0:0:0:
144,292,33134,2,0,L|159:235,1,33.7500012874604,2|0,0:0|0:0,0:0:0:0:
164,253,33325,2,0,L|132:388,1,135.000005149842,2|0,0:0|0:0,0:0:0:0:
295,284,33899,38,0,L|160:252,1,135.000005149842
163,252,34663,2,0,L|254:274,1,67.5000025749208
185,171,35045,2,0,L|251:187,1,67.5000025749208
359,91,35427,6,0,P|429:57|486:77,1,135.000005149842,2|0,0:0|0:0,0:0:0:0:
483,160,36001,2,0,P|431:185|386:169,1,101.250003862381,2|0,0:0|0:0,0:0:0:0:
383,166,36383,2,0,L|394:253,1,67.5000025749208,2|0,0:0|0:0,0:0:0:0:
217,361,36956,38,0,P|174:378|99:335,1,114.750002188683
108,342,37338,2,0,L|119:258,1,76.5000014591217,2|0,0:0|0:0,0:0:0:0:
63,91,37720,5,0,0:0:0:0:
3,209,37911,1,0,0:0:0:0:
118,267,38103,1,0,0:0:0:0:
178,149,38294,37,2,0:0:0:0:
178,149,38867,5,2,0:0:0:0:
272,30,39154,37,2,0:0:0:0:
280,40,39249,2,0,L|275:85,1,45,2|0,0:0|0:0,0:0:0:0:
367,87,39631,6,0,L|370:66,6,20.2499993820191,8|0|0|0|0|0|0,0:0|0:0|0:0|0:0|0:0|0:0|0:0,0:0:0:0:
395,41,40013,6,0,P|387:84|379:129,1,90,2|2,1:2|0:0,0:0:0:0:
476,97,40396,1,8,0:0:0:0:
286,178,40587,2,0,P|371:162|437:219,1,180,2|0,0:0|1:0,0:0:0:0:
254,306,41160,1,8,0:0:0:0:
328,384,41351,5,0,3:0:0:0:
328,384,41447,1,0,3:0:0:0:
328,384,41542,2,0,P|339:313|349:250,1,135,0|0,1:0|0:0,0:0:0:0:
367,272,41924,2,0,P|358:316|352:360,1,90,8|0,0:0|0:0,0:0:0:0:
176,281,42306,38,0,P|109:290|42:301,1,135,0|0,1:0|0:0,0:0:0:0:
30,220,42689,2,0,P|96:210|163:199,1,135,0|0,1:0|0:0,0:0:0:0:
201,130,43071,6,0,P|165:155|162:198,1,90,2|2,1:2|0:0,0:0:0:0:
329,310,43453,1,8,0:0:0:0:
225,383,43644,2,0,P|238:293|253:205,1,180,2|0,0:0|1:0,0:0:0:0:
399,58,44217,1,8,0:0:0:0:
201,130,44408,1,0,3:0:0:0:
201,130,44504,1,0,3:0:0:0:
201,130,44599,1,0,1:0:0:0:
357,241,44790,37,2,3:2:0:0:
361,227,44886,1,0,1:0:0:0:
365,212,44982,1,10,0:0:0:0:
433,293,45173,1,2,0:0:0:0:
294,157,45364,6,0,P|357:172|413:137,1,135,0|0,1:0|0:0,0:0:0:0:
399,58,45746,2,0,P|335:42|279:77,1,135,0|0,1:0|0:0,0:0:0:0:
224,131,46128,1,0,1:0:0:0:
69,9,46319,37,2,0:0:0:0:
224,131,46511,1,10,0:0:0:0:
131,160,46701,2,0,B|103:117|140:69|157:83|195:34|167:-1,1,180,2|0,0:0|1:0,0:0:0:0:
131,160,47275,1,8,0:0:0:0:
19,318,47466,5,0,3:0:0:0:
19,318,47562,1,0,3:0:0:0:
19,318,47657,2,0,P|84:309|136:349,1,135,0|0,1:0|0:0,0:0:0:0:
152,371,48039,2,0,P|196:362|240:356,1,90,8|0,0:0|0:0,0:0:0:0:
415,250,48421,38,0,B|403:307|403:307|407:319|407:319|397:382,1,135,0|0,1:0|0:0,0:0:0:0:
319,369,48803,2,0,B|328:305|328:305|325:294|325:294|336:236,1,135,0|0,1:0|0:0,0:0:0:0:
465,190,49186,6,0,P|428:165|386:176,1,90,2|2,1:2|0:0,0:0:0:0:
246,58,49568,1,8,0:0:0:0:
306,0,49759,2,0,B|336:25|336:25|309:164,1,180,2|0,0:0|1:0,0:0:0:0:
147,302,50332,1,8,0:0:0:0:
237,225,50523,37,2,1:2:0:0:
223,223,50619,1,0,3:0:0:0:
209,220,50714,2,0,P|164:211|120:204,1,90,2|2,1:2|0:0,0:0:0:0:
309,163,51096,1,8,0:0:0:0:
154,39,51287,1,2,3:2:0:0:
154,39,51383,1,0,1:0:0:0:
154,39,51478,2,0,P|216:23|266:68,1,135,0|0,1:0|0:0,0:0:0:0:
290,144,51861,6,0,L|283:179,6,22.5,10|0|0|0|0|0|0,0:0|0:0|0:0|0:0|0:0|0:0|0:0,0:0:0:0:
309,163,52243,6,0,L|294:251,1,90,2|2,1:2|0:0,0:0:0:0:
349,337,52625,1,8,0:0:0:0:
409,200,52816,1,2,3:2:0:0:
413,207,52911,1,0,3:0:0:0:
417,214,53007,2,0,L|408:271,1,45,0|0,3:0|0:0,0:0:0:0:
293,251,53198,2,0,L|308:163,1,90,0|8,1:0|0:0,0:0:0:0:
235,98,53580,6,0,P|158:90|107:147,1,135,2|0,0:0|0:0,0:0:0:0:
112,132,53962,2,0,P|137:180|129:238,1,90,2|8,0:0|0:0,0:0:0:0:
20,379,54345,2,0,B|4:308|4:308|45:244,1,135,2|0,0:0|0:0,0:0:0:0:
43,249,54727,1,2,0:0:0:0:
197,338,54918,38,0,L|102:325,1,90,0|0,1:0|0:0,0:0:0:0:
357,361,55300,6,0,L|210:341,1,135,2|0,1:2|0:0,0:0:0:0:
197,338,55682,2,0,L|102:325,1,90,8|0,0:0|0:0,0:0:0:0:
267,231,56064,1,2,0:0:0:0:
197,338,56255,1,0,1:0:0:0:
273,221,56447,1,8,0:0:0:0:
440,384,56638,1,2,3:2:0:0:
445,377,56733,1,0,3:0:0:0:
451,370,56829,38,0,B|444:317|444:317|430:295|430:295|423:214,1,135,0|0,1:0|1:0,0:0:0:0:
421,231,57211,2,0,P|406:173|431:123,1,90,8|2,0:0|0:0,0:0:0:0:
462,62,57497,1,0,1:0:0:0:
462,62,57593,1,2,1:2:0:0:
314,0,57784,1,2,0:0:0:0:
256,140,57975,5,2,1:2:0:0:
256,140,58357,38,0,P|166:127|102:202,1,180,2|10,1:2|0:0,0:0:0:0:
198,322,58931,1,0,3:0:0:0:
203,314,59026,1,0,3:0:0:0:
208,306,59122,2,0,L|196:189,1,90,0|0,3:0|1:0,0:0:0:0:
256,140,59504,1,8,0:0:0:0:
371,251,59695,1,2,0:0:0:0:
249,133,59886,5,2,1:2:0:0:
389,57,60077,2,0,L|379:146,1,90,2|8,0:0|0:0,0:0:0:0:
467,239,60459,1,0,3:0:0:0:
472,245,60555,1,0,3:0:0:0:
477,252,60650,2,0,P|461:293|472:344,1,90,0|0,1:0|0:0,0:0:0:0:
289,384,61033,2,0,P|305:343|294:292,1,90,0|0,1:0|0:0,0:0:0:0:
36,224,61415,38,0,P|93:245|166:212,1,135,0|0,1:0|0:0,0:0:0:0:
150,129,61797,2,0,L|160:236,1,90,10|0,0:0|0:0,0:0:0:0:
227,334,62179,1,0,0:0:0:0:
158,218,62370,1,0,1:0:0:0:
77,349,62561,6,0,L|139:342,1,45,8|0,0:0|0:0,0:0:0:0:
133,332,62752,2,0,L|88:337,1,45,0|0,1:0|0:0,0:0:0:0:
36,224,62943,38,0,P|93:245|166:212,1,135,0|0,1:0|0:0,0:0:0:0:
216,162,63325,5,8,0:0:0:0:
262,1,63517,1,0,0:0:0:0:
326,58,63708,37,0,1:0:0:0:
301,152,63900,1,0,0:0:0:0:
385,144,64090,5,8,0:0:0:0:
396,101,64282,1,0,0:0:0:0:
463,141,64472,6,0,P|453:194|445:247,1,107.999996704102,2|0,0:0|0:0,0:0:0:0:
512,305,65045,2,0,P|435:286|373:334,1,161.999995056153,2|0,0:0|0:0,0:0:0:0:
300,374,65810,2,0,P|247:366|193:356,1,107.999996704102,2|0,0:0|0:0,0:0:0:0:
41,168,66765,5,2,0:0:0:0:
41,168,67147,1,2,0:0:0:0:
41,168,67529,38,0,B|33:132|0:99|0:99|43:75|61:47,1,161.999995056153,2|0,0:0|0:0,0:0:0:0:
142,59,68294,2,0,B|149:94|182:127|182:127|139:151|121:179,1,161.999995056153,2|0,0:0|0:0,0:0:0:0:
22,268,69058,2,0,B|45:263|67:241|67:241|82:269|101:281,1,107.999996704102,2|0,0:0|0:0,0:0:0:0:
259,380,69822,1,2,0:0:0:0:
259,380,70013,2,0,P|298:373|339:368,1,80.9999975280763,2|0,0:0|0:0,0:0:0:0:
358,368,70396,6,0,L|366:314,1,53.9999983520508,2|0,0:0|0:0,0:0:0:0:
439,271,70778,2,0,L|447:217,1,53.9999983520508,2|0,0:0|0:0,0:0:0:0:
387,152,71160,2,0,L|395:98,1,53.9999983520508,2|0,0:0|0:0,0:0:0:0:
474,57,71542,2,0,L|482:3,1,53.9999983520508,2|0,0:0|0:0,0:0:0:0:
395,98,71924,2,0,P|343:90|302:122,1,107.999996704102,2|0,0:0|0:0,0:0:0:0:
71,11,72880,37,2,0:0:0:0:
71,11,73071,2,0,L|55:115,1,80.9999975280763,2|0,0:0|0:0,0:0:0:0:
57,114,73453,6,0,P|136:101|217:89,1,161.999995056153,2|0,0:0|0:0,0:0:0:0:
96,193,74217,2,0,P|149:183|202:176,1,107.999996704102,2|0,0:0|0:0,0:0:0:0:
371,289,74982,2,0,P|383:209|398:129,1,161.999995056153,2|0,0:0|0:0,0:0:0:0:
371,289,75937,1,2,0:0:0:0:
371,289,76128,2,0,P|320:275|275:303,1,107.999996704102,2|0,0:0|0:0,0:0:0:0:
200,350,76701,6,0,P|140:366|75:318,1,125.999996154785,2|0,0:0|0:0,0:0:0:0:
41,262,77275,2,0,L|60:145,1,94.499997116089,2|0,0:0|0:0,0:0:0:0:
66,161,77657,2,0,L|76:98,1,62.9999980773926,2|0,0:0|0:0,0:0:0:0:
24,32,78039,6,0,P|83:13|162:99,1,188.999994232178,2|0,0:0|0:0,0:0:0:0:
161,95,78803,1,0,0:0:0:0:
301,23,78994,1,2,0:0:0:0:
301,23,79185,2,0,L|321:158,1,125.999996154785,2|0,0:0|0:0,0:0:0:0:
236,204,79759,38,0,P|276:187|390:276,1,188.999994232178,2|0,0:0|0:0,0:0:0:0:
481,310,80523,2,0,P|441:293|327:382,1,188.999994232178,2|0,0:0|0:0,0:0:0:0:
258,329,81287,6,0,B|177:320|177:320|154:333|154:333|56:323,1,188.999994232178,2|0,0:0|0:0,0:0:0:0:
28,244,82052,2,0,P|21:215|30:245,1,125.999996154785
38,227,82816,37,0,0:0:0:0:
113,130,83007,1,0,0:0:0:0:
113,130,83198,2,0,L|105:49,1,62.9999980773926,2|0,0:0|0:0,0:0:0:0:
214,147,83580,2,0,L|201:18,1,125.999996154785,2|0,0:0|0:0,0:0:0:0:
307,120,84154,6,0,P|371:157|470:78,1,188.999994232178,2|0,0:0|0:0,0:0:0:0:
461,90,84918,2,0,P|392:148|310:111,1,188.999994232178
311,112,85873,37,0,0:0:0:0:
385,172,86064,1,0,0:0:0:0:
262,328,86255,2,0,L|285:223,1,94.499997116089,2|0,0:0|0:0,0:0:0:0:
277,220,86638,2,0,P|231:190|183:201,2,94.499997116089,2|2|2,0:0|0:0|0:0,0:0:0:0:
126,356,87402,6,0,B|65:375|65:375|8:327,1,125.999996154785,0|8,1:0|0:0,0:0:0:0:
99,209,87975,1,0,3:0:0:0:
99,209,88071,1,0,3:0:0:0:
99,209,88166,2,0,L|80:307,1,76.5000014591217,2|0,3:2|1:0,0:0:0:0:
279,361,88548,38,0,L|289:307,1,54,10|0,0:0|0:0,0:0:0:0:
201,289,88931,22,0,B|242:315|289:278|275:262|322:225|357:252,1,175.499991966248,4|0,1:2|0:0,0:0:0:0:
377,268,89313,1,10,0:0:0:0:
203,133,89504,1,0,3:0:0:0:
203,133,89599,1,0,3:0:0:0:
203,133,89695,1,2,0:2:0:0:
398,54,89886,1,0,1:0:0:0:
323,153,90077,1,8,0:0:0:0:
178,34,90268,5,2,3:2:0:0:
178,34,90364,1,0,3:0:0:0:
178,34,90459,2,0,B|159:17|196:-39|274:-24|278:57|233:121|193:137,1,233.999989288331,0|8,1:0|0:0,0:0:0:0:
31,300,91033,2,0,P|142:280|229:352,1,233.999989288331,2|0,1:2|1:0,0:0:0:0:
437,274,91606,38,0,P|388:282|350:251,1,101.250003862381,8|0,0:0|0:0,0:0:0:0:
317,340,91988,6,0,P|305:259|291:180,1,161.999995056153,0|0,1:0|0:0,0:0:0:0:
288,154,92370,2,0,P|344:162|394:171,1,107.999996704102,8|0,0:0|0:0,0:0:0:0:
352,66,92752,1,0,0:0:0:0:
200,225,92943,1,0,1:0:0:0:
352,66,93134,1,8,0:0:0:0:
137,158,93325,37,0,3:0:0:0:
137,158,93421,1,0,3:0:0:0:
137,158,93517,2,0,P|104:198|110:251,1,107.999996704102,0|0,1:0|0:0,0:0:0:0:
15,300,93803,1,0,1:0:0:0:
25,289,93899,2,0,P|102:275|162:326,1,161.999995056153,8|0,0:0|0:0,0:0:0:0:
315,229,94281,6,0,B|365:213|404:264|385:276|423:328|466:310,1,188.999994232178,2|0,1:2|0:0,0:0:0:0:
467,230,94663,2,0,B|423:211|385:263|404:275|365:326|315:311,1,188.999994232178,2|0,1:2|0:0,0:0:0:0:
228,367,95045,38,0,B|206:331|161:326|161:326|206:323|227:287,1,161.999995056153,0|0,1:0|0:0,0:0:0:0:
236,275,95427,1,10,0:0:0:0:
409,153,95618,1,0,3:0:0:0:
409,153,95713,1,0,3:0:0:0:
409,153,95809,1,2,0:0:0:0:
217,58,96000,1,0,1:0:0:0:
315,229,96191,1,8,0:0:0:0:
512,127,96382,5,0,3:0:0:0:
512,127,96478,1,0,3:0:0:0:
512,127,96574,2,0,B|461:159|402:114|419:95|362:48|319:81,1,215.999993408203,0|8,1:0|0:0,0:0:0:0:
161,243,97147,2,0,P|81:229|0:217,1,161.999995056153,2|0,1:2|0:0,0:0:0:0:
23,199,97529,2,0,P|85:207|147:218,1,125.999996154785,2|8,1:2|0:0,0:0:0:0:
319,80,97911,1,2,0:0:0:0:
512,291,98103,37,0,1:0:0:0:
432,319,98294,1,0,0:0:0:0:
351,347,98485,1,8,0:0:0:0:
162,301,98676,6,0,L|170:354,1,53.9999983520508,2|0,1:2|0:0,0:0:0:0:
147,218,98867,37,0,0:0:0:0:
227,246,99058,1,0,1:0:0:0:
308,274,99249,1,8,0:0:0:0:
434,151,99440,6,0,L|425:98,1,53.9999983520508,2|0,1:2|0:0,0:0:0:0:
372,214,99631,37,0,0:0:0:0:
493,42,99822,1,0,1:0:0:0:
346,135,100013,6,0,P|292:126|239:118,1,107.999996704102,8|0,0:0|1:0,0:0:0:0:
63,338,100396,2,0,P|116:346|169:354,1,107.999996704102,8|0,0:0|1:0,0:0:0:0:
339,244,100778,1,8,0:0:0:0:
298,238,100873,1,8,0:0:0:0:
262,259,100969,1,8,0:0:0:0:
249,298,101064,1,8,0:0:0:0:
263,337,101160,6,0,B|338:332|338:332|359:342|359:342|475:336,1,175.499991966248,6|0,1:2|0:0,0:0:0:0:
429,221,101542,2,0,L|435:337,1,116.999994644165,10|0,0:0|0:0,0:0:0:0:
251,158,101924,1,0,0:0:0:0:
339,244,102115,1,0,1:0:0:0:
182,333,102306,2,0,P|129:298|66:304,1,116.999994644165,10|0,0:0|0:0,0:0:0:0:
1,347,102593,1,0,0:0:0:0:
14,338,102689,6,0,P|47:290|47:233,1,116.999994644165,0|0,1:0|0:0,0:0:0:0:
0,153,103071,1,10,0:0:0:0:
225,26,103262,2,0,L|197:205,1,175.499991966248,2|0,1:2|0:0,0:0:0:0:
189,208,103644,2,0,L|207:92,1,116.999994644165,2|8,1:2|0:0,0:0:0:0:
100,123,104026,1,2,0:0:0:0:
342,42,104217,38,0,L|314:221,1,175.499991966248,0|0,1:0|0:0,0:0:0:0:
422,230,104599,2,0,P|336:206|302:223,1,116.999994644165,8|0,0:0|0:0,0:0:0:0:
425,384,104982,1,0,0:0:0:0:
360,285,105173,1,0,1:0:0:0:
234,378,105364,1,8,0:0:0:0:
107,230,105555,1,2,3:2:0:0:
100,239,105650,1,0,3:0:0:0:
92,248,105746,6,0,B|103:171|103:171|117:155|117:155|125:77,1,175.499991966248,0|0,1:0|1:0,0:0:0:0:
8,65,106128,2,0,L|124:78,1,116.999994644165,8|2,0:0|0:0,0:0:0:0:
201,212,106510,37,0,1:2:0:0:
124,78,106701,1,2,0:0:0:0:
289,0,106892,5,0,1:2:0:0:
210,44,107083,1,0,0:0:0:0:
371,265,107275,38,0,P|383:190|436:157,1,116.999994644165,0|0,1:0|0:0,0:0:0:0:
489,190,107561,1,0,3:0:0:0:
496,204,107657,2,0,P|484:279|431:312,1,116.999994644165,8|0,0:0|1:0,0:0:0:0:
384,363,108039,5,0,3:0:0:0:
366,359,108134,1,0,3:0:0:0:
348,355,108230,1,0,3:0:0:0:
330,351,108325,1,0,3:0:0:0:
312,347,108421,37,8,0:0:0:0:
371,265,108612,1,0,0:0:0:0:
224,110,108803,6,0,B|213:157|249:190|249:190|269:238|238:288,1,175.499991966248,2|0,1:2|0:0,0:0:0:0:
176,346,109185,2,0,L|59:337,1,116.999994644165,10|2,0:2|0:0,0:0:0:0:
14,198,109568,38,0,L|9:272,1,58.4999973220826,8|0,0:0|0:0,0:0:0:0:
21,263,109759,2,0,L|24:204,1,58.4999973220826,8|0,0:0|0:0,0:0:0:0:
31,68,109950,5,8,0:0:0:0:
50,24,110045,1,8,0:0:0:0:
91,0,110141,1,8,0:0:0:0:
139,3,110236,1,8,0:0:0:0:
176,33,110332,37,4,1:2:0:0:
224,110,110523,1,0,1:0:0:0:
442,6,110714,2,0,B|362:11|362:11|343:24|343:24|241:29,1,175.499991966248,10|0,0:0|0:0,0:0:0:0:
176,33,111096,5,2,1:2:0:0:
321,109,111287,1,2,1:2:0:0:
168,28,111478,1,10,0:0:0:0:
21,263,111669,38,0,P|91:230|168:264,1,148.50000453186,2|0,1:2|0:0,0:0:0:0:
224,303,112052,2,0,P|281:319|335:293,1,121.499996292114,2|0,0:0|0:0,0:0:0:0:
444,147,112434,6,0,P|460:100|442:147,1,161.999995056153,2|2,0:0|0:0,0:0:0:0:
448,172,112911,1,2,0:0:0:0:
448,172,113007,2,0,L|451:234,1,62.9999980773926,10|0,0:0|0:0,0:0:0:0:
306,128,113389,5,6,1:2:0:0:
276,222,113580,2,0,P|322:214|364:207,1,90,2|8,0:0|0:0,0:0:0:0:
204,56,113962,2,0,P|293:42|382:30,1,180,2|2,0:0|1:2,0:0:0:0:
455,89,114440,1,2,0:0:0:0:
450,109,114536,1,10,0:0:0:0:
493,259,114727,6,0,P|500:214|508:170,1,90,2|0,0:0|1:0,0:0:0:0:
382,29,115109,2,0,P|374:73|366:117,1,90,2|8,0:0|0:0,0:0:0:0:
493,259,115491,2,0,P|428:244|375:283,1,135,2|0,0:0|0:0,0:0:0:0:
359,314,115873,1,0,1:0:0:0:
175,213,116064,1,8,0:0:0:0:
359,314,116255,1,0,0:0:0:0:
166,337,116447,37,2,1:2:0:0:
270,369,116638,2,0,P|262:323|255:281,1,90,2|8,0:0|0:0,0:0:0:0:
117,129,117020,2,0,P|185:183|271:167,1,180,2|2,0:0|1:2,0:0:0:0:
341,212,117498,1,2,0:0:0:0:
350,198,117594,1,10,0:0:0:0:
226,1,117785,6,0,P|219:45|211:89,1,90,2|0,0:0|1:0,0:0:0:0:
35,164,118166,1,2,0:0:0:0:
35,164,118262,1,0,1:0:0:0:
35,164,118357,1,8,0:0:0:0:
124,84,118548,2,0,L|116:128,1,45,2|0,0:0|0:0,0:0:0:0:
148,276,118740,2,0,P|92:240|29:258,1,135,0|0,1:0|0:0,0:0:0:0:
14,339,119122,2,0,P|69:374|133:357,1,135,0|0,1:0|0:0,0:0:0:0:
325,247,119504,37,2,1:2:0:0:
242,304,119695,2,0,P|235:259|228:214,1,90,2|8,0:0|0:0,0:0:0:0:
199,3,120077,6,0,L|205:40,1,36,2|2,0:0|1:2,0:0:0:0:
259,102,120555,37,2,0:0:0:0:
270,92,120651,1,10,0:0:0:0:
415,172,120841,2,0,P|370:163|326:156,1,90,2|0,0:0|1:0,0:0:0:0:
151,272,121224,2,0,P|106:263|62:256,1,90,2|8,0:0|0:0,0:0:0:0:
25,48,121606,6,0,L|37:118,1,72,2|2,0:0|1:2,0:0:0:0:
94,179,122083,37,2,0:0:0:0:
106,165,122179,1,10,0:0:0:0:
264,92,122370,2,0,P|225:70|182:81,1,90,2|0,0:0|1:0,0:0:0:0:
151,272,122752,2,0,P|189:293|232:282,1,90,2|8,0:0|0:0,0:0:0:0:
357,55,123134,6,0,P|348:108|340:161,1,107.999996704102,2|0,1:2|1:0,0:0:0:0:
264,92,123707,37,10,0:0:0:0:
414,215,123899,1,2,1:2:0:0:
315,281,124090,5,0,1:0:0:0:
414,215,124472,1,0,1:0:0:0:
512,149,124759,37,0,3:0:0:0:
512,149,124854,1,0,1:0:0:0:
399,58,125045,1,0,0:0:0:0:
241,188,125236,5,0,1:0:0:0:
219,176,125427,1,0,0:0:0:0:
151,77,125618,6,0,P|73:59|13:103,1,144,2|0,0:0|0:0,0:0:0:0:
16,98,126192,1,0,0:0:0:0:
104,213,126383,2,0,L|91:122,2,72,2|0|0,0:0|0:0|0:0,0:0:0:0:
47,282,126956,6,0,P|108:248|176:268,1,144,2|0,0:0|0:0,0:0:0:0:
183,275,127529,1,0,0:0:0:0:
252,381,127720,2,0,L|264:300,1,72,2|0,0:0|0:0,0:0:0:0:
348,311,128103,2,0,L|337:382,2,72,2|0|0,0:0|0:0|0:0,0:0:0:0:
488,179,128676,37,2,0:0:0:0:
488,179,129058,2,0,P|427:203|376:179,1,108
377,181,129440,2,0,L|371:98,2,72,0|0|2,0:0|0:0|0:0,0:0:0:0:
298,229,130013,2,0,L|284:62,1,144,2|0,0:0|0:0,0:0:0:0:
285,78,130587,1,0,0:0:0:0:
285,78,130969,5,2,0:0:0:0:
225,15,131160,1,0,0:0:0:0:
138,22,131351,1,0,0:0:0:0:
102,100,131542,1,0,0:0:0:0:
150,218,131733,38,0,P|156:162|91:96,1,144,2|0,0:0|0:0,0:0:0:0:
2,186,132306,2,0,L|92:178,1,72,2|0,0:0|0:0,0:0:0:0:
83,265,132689,2,0,L|11:271,1,72,2|0,0:0|0:0,0:0:0:0:
207,377,133071,6,0,P|201:321|266:255,1,144,2|0,0:0|0:0,0:0:0:0:
262,255,133644,1,0,0:0:0:0:
391,368,133835,2,0,P|447:379|497:344,1,108,2|0,0:0|0:0,0:0:0:0:
496,346,134217,2,0,L|485:272,1,72,2|0,0:0|0:0,0:0:0:0:
413,221,134599,1,2,0:0:0:0:
398,100,134790,38,0,L|413:224,1,108,2|0,0:0|0:0,0:0:0:0:
413,221,135173,1,0,0:0:0:0:
262,255,135364,2,0,L|244:112,1,144,2|0,0:0|0:0,0:0:0:0:
249,106,135937,2,0,L|260:192,1,72
160,274,136319,6,0,L|116:280,1,40.4999987640381,2|0,0:0|0:0,0:0:0:0:
164,266,136701,2,0,L|123:271,1,40.4999987640381,2|0,0:0|0:0,0:0:0:0:
35,290,137083,1,2,0:0:0:0:
35,290,137275,1,2,0:0:0:0:
44,127,137466,6,0,L|72:131,6,18,10|0|0|0|0|0|0,0:0|0:0|0:0|0:0|0:0|0:0|0:0,0:0:0:0:
40,51,137848,6,0,P|52:126|63:202,1,153.000002918243,2|8,1:2|0:0,0:0:0:0:
228,105,138421,1,0,0:0:0:0:
136,80,138612,1,2,0:0:0:0:
136,80,138803,2,0,P|141:117|147:155,1,76.5000014591217,2|8,1:2|0:0,0:0:0:0:
0,253,139185,37,2,3:2:0:0:
0,253,139281,1,0,3:0:0:0:
0,253,139376,2,0,P|55:244|99:279,1,114.750002188683,0|0,1:0|0:0,0:0:0:0:
118,300,139759,1,10,0:0:0:0:
284,380,139950,1,2,0:0:0:0:
220,251,140141,2,0,P|211:307|201:364,1,114.750002188683,0|0,1:0|0:0,0:0:0:0:
284,380,140523,2,0,P|293:323|304:267,1,114.750002188683,0|0,1:0|0:0,0:0:0:0:
145,213,140905,6,0,P|217:227|272:178,1,153.000002918243,2|8,1:2|0:0,0:0:0:0:
272,178,141478,1,0,0:0:0:0:
437,284,141669,2,0,P|449:208|459:132,1,153.000002918243,2|8,0:0|0:0,0:0:0:0:
322,29,142243,37,0,3:0:0:0:
322,29,142338,1,0,3:0:0:0:
322,29,142434,1,0,1:0:0:0:
437,284,142720,1,0,1:0:0:0:
437,284,142816,2,0,P|399:289|361:296,1,76.5000014591217,8|0,0:0|0:0,0:0:0:0:
202,247,143198,6,0,B|193:300|193:300|197:310|197:310|187:359,1,114.750002188683,0|0,1:0|0:0,0:0:0:0:
268,370,143580,2,0,B|278:320|278:320|276:311|276:311|284:257,1,114.750002188683,0|0,1:0|0:0,0:0:0:0:
110,330,143962,38,0,L|43:319,1,67.5,0|0,1:0|0:0,0:0:0:0:
43,319,144345,6,0,B|10:264|53:205|73:223|117:167|83:116,1,225,10|0,0:0|0:0,0:0:0:0:
2,68,144918,2,0,P|73:84|127:34,1,153.000002918243,2|0,1:2|0:0,0:0:0:0:
288,157,145491,38,0,P|325:151|363:145,1,76.5000014591217,2|0,1:2|0:0,0:0:0:0:
230,11,145873,2,0,P|223:48|216:89,1,76.5000014591217,10|0,0:0|0:0,0:0:0:0:
344,258,146255,2,0,P|354:200|363:144,1,114.750002188683,0|0,1:0|0:0,0:0:0:0:
444,156,146638,2,0,P|433:213|424:269,1,114.750002188683,0|0,1:0|0:0,0:0:0:0:
509,310,147020,6,0,P|435:298|378:345,1,153.000002918243,2|8,1:2|0:0,0:0:0:0:
205,229,147593,2,0,P|148:236|91:246,1,114.750002188683,2|0,0:0|0:0,0:0:0:0:
58,255,147975,1,0,1:0:0:0:
208,128,148166,1,8,0:0:0:0:
31,44,148357,1,0,1:0:0:0:
133,152,148548,38,0,P|118:78|154:5,1,155.250002961159,0|0,1:0|0:0,0:0:0:0:
208,128,148931,6,0,P|199:85|221:45,1,87.749995983124,8|0,0:0|0:0,0:0:0:0:
286,108,149313,38,0,P|280:100|290:86,1,27,0|0,1:0|0:0,0:0:0:0:
366,109,149695,5,8,0:0:0:0:
456,281,149886,1,0,3:0:0:0:
456,281,149982,1,0,3:0:0:0:
456,281,150077,6,0,P|350:237|231:335,1,270,2|0,0:0|0:0,0:0:0:0:
232,316,151606,2,0,P|330:232|456:271,1,270,2|0,0:0|0:0,0:0:0:0:
460,277,153134,1,2,0:0:0:0:
358,366,153899,1,2,0:0:0:0:
232,316,154663,1,2,0:0:0:0:
91,20,156192,6,0,B|77:98|0:104|0:104|70:131|54:214,1,270,2|0,0:0|0:0,0:0:0:0:
55,213,157720,2,0,B|68:134|145:128|145:128|75:101|91:18,1,270,2|0,0:0|0:0,0:0:0:0:
90,19,159249,1,2,0:0:0:0:
463,50,160778,38,0,B|409:40|409:40|378:51|378:51|322:42,1,144,2|2,0:0|0:0,0:0:0:0:
284,116,161733,2,0,L|337:127,1,53.9999983520508,2|0,0:0|0:0,0:0:0:0:
463,50,162306,22,0,P|429:84|436:131,1,99.0000030212403,2|0,0:0|0:0,0:0:0:0:
502,214,162880,2,0,P|452:220|404:229,2,99.0000030212403,2|2|2,0:0|0:0|0:0,0:0:0:0:
344,380,164026,6,0,P|337:330|328:282,1,99.0000030212403,2|0,0:0|0:0,0:0:0:0:
421,313,164599,1,2,0:0:0:0:
266,216,164982,1,2,0:0:0:0:
266,216,165364,38,0,B|217:186|165:224|181:242|132:281|88:251,2,198.000006042481,2|2|2,0:0|0:0|0:0,0:0:0:0:
265,216,168039,2,0,L|273:167,1,49.5000015106202,2|0,0:0|0:0,0:0:0:0:
287,80,168421,6,0,P|251:73|222:95,1,74.2500022659302,2|0,0:0|0:0,0:0:0:0:
211,112,168803,2,0,P|162:103|113:96,1,99.0000030212403,2|0,0:0|0:0,0:0:0:0:
113,96,169568,1,2,0:0:0:0:
75,21,169759,2,0,P|27:74|45:147,1,148.50000453186,2|0,0:0|0:0,0:0:0:0:
32,352,171287,37,2,0:0:0:0:
32,352,171478,2,0,P|68:346|105:341,1,74.2500022659302,2|0,0:0|0:0,0:0:0:0:
126,358,171861,2,0,P|174:349|223:342,1,99.0000030212403,2|0,0:0|0:0,0:0:0:0:
163,264,172434,1,2,0:0:0:0:
163,264,172816,6,0,P|169:214|178:166,1,99.0000030212403,2|0,0:0|0:0,0:0:0:0:
117,111,173389,2,0,P|154:80|201:88,1,99.0000030212403,8|0,0:0|0:0,0:0:0:0:
358,0,173962,1,0,0:0:0:0:
311,113,174154,2,0,L|308:90,6,22.5,8|8|8|8|8|8|8,0:0|0:0|0:0|0:0|0:0|0:0|0:0,0:0:0:0:
328,237,174536,6,0,L|310:112,1,125.999996154785,4|0,1:2|0:0,0:0:0:0:
467,281,174918,2,0,P|373:259|305:328,1,188.999994232178,10|0,0:0|0:0,0:0:0:0:
404,370,175300,2,0,P|356:314|287:328,1,125.999996154785,2|0,0:0|1:0,0:0:0:0:
224,376,175682,1,8,0:0:0:0:
49,204,175873,6,0,B|18:296|18:296|76:366,1,188.999994232178,2|0,0:0|0:0,0:0:0:0:
131,216,176255,2,0,B|171:264|171:264|150:324,1,125.999996154785,2|8,0:0|0:0,0:0:0:0:
11,79,176638,2,0,P|79:114|225:22,1,251.999992309571,2|0,1:2|1:0,0:0:0:0:
225,27,177211,1,10,0:0:0:0:
445,183,177402,37,2,3:2:0:0:
450,186,177497,1,0,3:0:0:0:
455,189,177593,2,0,B|501:201|529:157|533:114|431:52|366:147,1,251.999992309571,0|8,1:0|0:0,0:0:0:0:
280,306,178166,5,0,0:0:0:0:
369,142,178357,1,0,0:0:0:0:
494,376,178548,37,0,1:0:0:0:
448,290,178739,1,8,0:0:0:0:
187,354,178931,5,0,3:0:0:0:
181,357,179026,1,0,3:0:0:0:
176,360,179122,38,0,P|100:290|147:186,1,188.999994232178,0|0,1:0|1:0,0:0:0:0:
22,289,179504,2,0,P|58:236|143:216,1,125.999996154785,8|0,0:0|0:0,0:0:0:0:
302,43,179886,6,0,B|215:29|215:29|191:40|191:40|108:25,1,188.999994232178,2|0,1:2|0:0,0:0:0:0:
51,13,180268,38,0,L|116:26,1,67.5,2|0,1:2|0:0,0:0:0:0:
0,107,180650,6,0,L|123:130,1,125.999996154785,0|0,1:0|0:0,0:0:0:0:
209,263,181033,2,0,P|295:290|368:235,1,188.999994232178,10|0,0:0|0:0,0:0:0:0:
400,155,181415,1,2,0:0:0:0:
283,207,181606,1,0,1:0:0:0:
487,357,181797,2,0,L|482:287,1,62.9999980773926,10|0,0:0|0:0,0:0:0:0:
496,216,181988,38,0,L|505:367,1,125.999996154785,2|0,0:0|1:0,0:0:0:0:
283,207,182370,2,0,L|275:81,1,125.999996154785,2|8,0:0|0:0,0:0:0:0:
402,35,182752,2,0,P|330:65|242:-11,1,188.999994232178,2|0,1:2|0:0,0:0:0:0:
243,0,183134,1,2,1:2:0:0:
180,86,183325,1,8,0:0:0:0:
10,0,183517,2,0,L|19:73,1,62.9999980773926,2|0,0:0|0:0,0:0:0:0:
39,179,183708,6,0,P|2:128|46:39,1,135.000005149842,0|0,1:0|0:0,0:0:0:0:
180,86,184090,1,8,0:0:0:0:
29,379,184281,38,0,B|-4:318|-4:318|33:232,1,135.000005149842,2|0,1:2|0:0,0:0:0:0:
247,245,184663,2,0,B|280:306|280:306|243:392,1,135.000005149842,2|8,1:2|0:0,0:0:0:0:
22,258,185045,5,2,1:2:0:0:
135,311,185236,1,2,0:0:0:0:
255,367,185427,1,2,1:2:0:0:
462,95,185618,37,8,0:0:0:0:
247,245,185810,1,0,1:0:0:0:
501,379,186001,5,8,0:0:0:0:
373,309,186193,1,0,1:0:0:0:
462,95,186383,37,8,0:0:0:0:
430,73,186478,1,8,0:0:0:0:
391,69,186574,1,8,0:0:0:0:
359,88,186669,1,8,0:0:0:0:
343,122,186765,22,0,P|358:215|372:308,1,188.999994232178,6|0,1:2|0:0,0:0:0:0:
471,191,187147,2,0,B|411:153|342:206|362:228|304:282|246:244,1,251.999992309571,10|0,0:0|0:0,0:0:0:0:
52,156,187720,1,0,1:0:0:0:
255,11,187911,1,10,0:0:0:0:
0,60,188103,5,0,3:0:0:0:
0,60,188198,1,0,3:0:0:0:
0,60,188294,2,0,P|65:122|153:101,1,188.999994232178,0|0,1:0|0:0,0:0:0:0:
178,86,188676,1,10,0:0:0:0:
71,280,188867,2,0,P|61:218|51:155,1,125.999996154785,2|0,1:2|0:0,0:0:0:0:
255,11,189249,2,0,P|266:74|274:135,1,125.999996154785,2|8,1:2|0:0,0:0:0:0:
469,274,189631,37,2,3:2:0:0:
469,274,189727,1,0,3:0:0:0:
469,274,189822,2,0,P|398:215|307:231,1,188.999994232178,0|0,1:0|0:0,0:0:0:0:
469,274,190204,2,0,P|408:275|370:323,1,125.999996154785,8|0,0:0|0:0,0:0:0:0:
437,135,190587,1,0,0:0:0:0:
284,317,190778,1,0,1:0:0:0:
437,135,190969,1,8,0:0:0:0:
224,250,191160,5,2,3:2:0:0:
224,250,191255,1,0,3:0:0:0:
224,250,191351,2,0,P|161:239|99:231,1,125.999996154785,0|0,1:0|0:0,0:0:0:0:
35,288,191638,1,0,1:0:0:0:
24,275,191733,2,0,P|4:217|40:169,1,125.999996154785,8|0,0:0|0:0,0:0:0:0:
254,63,192115,38,0,P|239:156|223:249,1,188.999994232178,2|0,1:2|0:0,0:0:0:0:
303,264,192497,2,0,P|317:170|333:77,1,188.999994232178,2|0,1:2|0:0,0:0:0:0:
476,44,192880,6,0,B|431:72|379:32|394:16|351:-24|307:4,1,188.999994232178,0|0,1:0|0:0,0:0:0:0:
254,63,193262,2,0,P|221:58|191:53,1,62.9999980773926,10|0,0:0|0:0,0:0:0:0:
0,2,193453,2,0,P|9:64|19:126,1,125.999996154785,0|0,1:0|3:0,0:0:0:0:
8,206,193740,1,0,3:0:0:0:
30,216,193835,1,0,3:0:0:0:
53,209,193931,1,0,3:0:0:0:
70,191,194026,1,8,0:0:0:0:
262,302,194217,37,0,3:0:0:0:
262,302,194313,1,0,3:0:0:0:
262,302,194408,2,0,P|329:240|419:254,1,188.999994232178,0|0,1:0|0:0,0:0:0:0:
399,378,194790,2,0,P|408:315|419:253,1,125.999996154785,10|0,0:0|0:0,0:0:0:0:
271,31,195173,6,0,L|261:93,1,62.9999980773926,8|0,0:0|0:0,0:0:0:0:
341,105,195364,2,0,L|350:42,1,62.9999980773926,8|0,0:0|0:0,0:0:0:0:
467,184,195555,1,8,0:0:0:0:
433,166,195650,1,8,0:0:0:0:
395,167,195746,1,8,0:0:0:0:
363,187,195841,1,8,0:0:0:0:
347,222,195937,37,4,1:2:0:0:
186,49,196128,1,0,1:0:0:0:
116,274,196319,1,8,0:0:0:0:
222,185,196510,5,0,3:0:0:0:
222,185,196606,1,0,3:0:0:0:
222,185,196701,1,0,1:0:0:0:
324,80,196892,37,0,1:0:0:0:
87,132,197083,1,8,0:0:0:0:
247,306,197274,1,0,1:0:0:0:
464,168,197466,6,0,B|510:133|571:232|520:311|405:309|352:244|408:192|338:130|278:132|219:186,1,450,2|2,1:2|0:0,0:0:0:0:
464,168,198867,38,0,P|361:179|287:252,1,210,2|0,0:0|0:0,0:0:0:0:
