osu file format v14

[General]
AudioFilename: Porter Robinson-Divinity (feat. Amy Millan).mp3
AudioLeadIn: 0
PreviewTime: 213415
Countdown: 0
SampleSet: Normal
StackLeniency: 0.7
Mode: 1
LetterboxInBreaks: 0
WidescreenStoryboard: 0

[Editor]
DistanceSpacing: 0.7
BeatDivisor: 3
GridSize: 4
TimelineZoom: 2.2

[Metadata]
Title:Divinity (feat. Amy Millan)
TitleUnicode:Divinity (feat. Amy Millan)
Artist:Porter Robinson
ArtistUnicode:Porter Robinson
Creator:Edo
Version:Dreamless Oni
Source:
Tags:Worlds Synthpop Dream Pop Dance Marathon Synthwave
BeatmapID:823483
BeatmapSetID:376097

[Difficulty]
HPDrainRate:5
CircleSize:5
OverallDifficulty:5
ApproachRate:5
SliderMultiplier:1.6
SliderTickRate:1

[Events]
//Background and Video events
0,0,"ehl.full.1544380.png",0,0
//Break Periods
//Storyboard Layer 0 (Background)
//Storyboard Layer 1 (Fail)
//Storyboard Layer 2 (Pass)
//Storyboard Layer 3 (Foreground)
//Storyboard Sound Samples

[TimingPoints]
82,666.666666666667,4,1,0,100,1,0
82,-66.6666666666667,4,1,0,100,0,0
21415,-66.6666666666667,4,1,0,100,0,1
42248,-66.6666666666667,4,1,0,50,0,0
42748,-66.6666666666667,4,1,0,100,0,1
51415,-66.6666666666667,4,1,0,100,0,0
53415,-66.6666666666667,4,1,0,100,0,1
63248,-66.6666666666667,4,1,0,100,0,0
63582,-66.6666666666667,4,1,0,80,0,0
63748,-66.6666666666667,4,1,0,60,0,0
63915,-66.6666666666667,4,1,0,50,0,0
64082,-66.6666666666667,4,1,0,40,0,0
64415,-66.6666666666667,4,1,0,30,0,0
106748,-66.6666666666667,4,1,0,35,0,0
112082,-66.6666666666667,4,1,0,40,0,0
117415,-66.6666666666667,4,1,0,45,0,0
122748,-66.6666666666667,4,1,0,50,0,0
133415,-66.6666666666667,4,1,0,60,0,0
138748,-66.6666666666667,4,1,0,70,0,0
149415,-66.6666666666667,4,1,0,80,0,0
170748,-66.6666666666667,4,1,0,100,0,1
189415,-66.6666666666667,4,1,0,100,0,0
191415,-66.6666666666667,4,1,0,70,0,0
192082,-66.6666666666667,4,1,0,100,0,1
210748,-66.6666666666667,4,1,0,100,0,0
213415,-66.6666666666667,4,1,0,100,0,1
232082,-66.6666666666667,4,1,0,100,0,0
277415,-66.6666666666667,4,1,0,100,0,1
296082,-66.6666666666667,4,1,0,100,0,0
298748,-66.6666666666667,4,1,0,100,0,1
317415,-66.6666666666667,4,1,0,100,0,0
320082,-66.6666666666667,4,1,0,50,0,0

[Colours]
Combo1 : 0,128,192
Combo2 : 255,0,0

[HitObjects]
256,192,82,5,0,0:0:0:0:
256,192,415,1,8,0:0:0:0:
256,192,748,1,0,0:0:0:0:
256,192,915,1,8,0:0:0:0:
256,192,1082,1,8,0:0:0:0:
256,192,1415,1,0,0:0:0:0:
256,192,1582,1,0,0:0:0:0:
256,192,1748,1,8,0:0:0:0:
256,192,1915,1,8,0:0:0:0:
256,192,2248,1,0,0:0:0:0:
256,192,2415,1,8,0:0:0:0:
256,192,2582,1,8,0:0:0:0:
256,192,2748,1,0,0:0:0:0:
256,192,3082,1,8,0:0:0:0:
256,192,3415,1,0,0:0:0:0:
256,192,3582,1,8,0:0:0:0:
256,192,3748,1,8,0:0:0:0:
256,192,4082,1,0,0:0:0:0:
256,192,4248,1,8,0:0:0:0:
256,192,4415,1,8,0:0:0:0:
256,192,4582,1,8,0:0:0:0:
256,192,5082,1,0,0:0:0:0:
256,192,5165,1,0,0:0:0:0:
256,192,5248,1,0,0:0:0:0:
256,192,5332,1,0,0:0:0:0:
256,192,5415,1,8,0:0:0:0:
256,192,5748,1,8,0:0:0:0:
256,192,6082,1,0,0:0:0:0:
256,192,6248,1,8,0:0:0:0:
256,192,6415,1,8,0:0:0:0:
256,192,6748,1,0,0:0:0:0:
256,192,6915,1,0,0:0:0:0:
256,192,7082,1,8,0:0:0:0:
256,192,7248,1,8,0:0:0:0:
256,192,7582,1,0,0:0:0:0:
256,192,7748,1,8,0:0:0:0:
256,192,7915,1,8,0:0:0:0:
256,192,8082,1,0,0:0:0:0:
256,192,8415,1,8,0:0:0:0:
256,192,8748,1,0,0:0:0:0:
256,192,8915,1,8,0:0:0:0:
256,192,9082,1,8,0:0:0:0:
256,192,9582,1,0,0:0:0:0:
256,192,9748,1,0,0:0:0:0:
256,192,9915,1,8,0:0:0:0:
256,192,10415,1,0,0:0:0:0:
256,192,10498,1,0,0:0:0:0:
256,192,10582,1,0,0:0:0:0:
256,192,10665,1,0,0:0:0:0:
256,192,10748,1,8,0:0:0:0:
256,192,11082,1,8,0:0:0:0:
256,192,11415,1,0,0:0:0:0:
256,192,11582,1,8,0:0:0:0:
256,192,11748,1,8,0:0:0:0:
256,192,12082,1,0,0:0:0:0:
256,192,12248,1,8,0:0:0:0:
256,192,12415,1,8,0:0:0:0:
256,192,12582,1,8,0:0:0:0:
256,192,12915,1,8,0:0:0:0:
256,192,13082,1,8,0:0:0:0:
256,192,13248,1,8,0:0:0:0:
256,192,13415,1,0,0:0:0:0:
256,192,13748,1,8,0:0:0:0:
256,192,14082,1,0,0:0:0:0:
256,192,14248,1,8,0:0:0:0:
256,192,14415,1,8,0:0:0:0:
256,192,14915,1,0,0:0:0:0:
256,192,15082,1,0,0:0:0:0:
256,192,15248,1,8,0:0:0:0:
256,192,15748,1,0,0:0:0:0:
256,192,15832,1,0,0:0:0:0:
256,192,15915,1,0,0:0:0:0:
256,192,15998,1,0,0:0:0:0:
256,192,16082,1,8,0:0:0:0:
256,192,16415,1,8,0:0:0:0:
256,192,16748,1,0,0:0:0:0:
256,192,16914,1,8,0:0:0:0:
256,192,17081,1,8,0:0:0:0:
256,192,17415,1,0,0:0:0:0:
256,192,17582,1,8,0:0:0:0:
256,192,17748,1,8,0:0:0:0:
256,192,17915,1,8,0:0:0:0:
256,192,18248,1,8,0:0:0:0:
256,192,18415,1,0,0:0:0:0:
256,192,18582,1,8,0:0:0:0:
256,192,18748,1,0,0:0:0:0:
256,192,18915,1,0,0:0:0:0:
256,192,19082,1,8,0:0:0:0:
256,192,19248,1,8,0:0:0:0:
256,192,19415,1,0,0:0:0:0:
256,192,19582,1,0,0:0:0:0:
256,192,19748,1,8,0:0:0:0:
256,192,19915,1,8,0:0:0:0:
256,192,20082,1,0,0:0:0:0:
256,192,20248,1,0,0:0:0:0:
256,192,20415,1,8,0:0:0:0:
256,192,20582,1,8,0:0:0:0:
256,192,20748,1,12,0:0:0:0:
256,192,21415,1,4,0:0:0:0:
256,192,21748,1,8,0:0:0:0:
256,192,21915,1,0,0:0:0:0:
256,192,22082,1,8,0:0:0:0:
256,192,22249,1,8,0:0:0:0:
256,192,22416,1,8,0:0:0:0:
256,192,22582,1,0,0:0:0:0:
256,192,22915,1,0,0:0:0:0:
256,192,23082,1,8,0:0:0:0:
256,192,23248,1,8,0:0:0:0:
256,192,23415,1,8,0:0:0:0:
256,192,23582,1,0,0:0:0:0:
256,192,23748,1,8,0:0:0:0:
256,192,23915,1,8,0:0:0:0:
256,192,24082,1,0,0:0:0:0:
256,192,24415,1,0,0:0:0:0:
256,192,24748,1,8,0:0:0:0:
256,192,24915,1,8,0:0:0:0:
256,192,25082,1,8,0:0:0:0:
256,192,25248,1,0,0:0:0:0:
256,192,25582,1,0,0:0:0:0:
256,192,25748,1,0,0:0:0:0:
256,192,25915,1,8,0:0:0:0:
256,192,26082,1,8,0:0:0:0:
256,192,26248,1,0,0:0:0:0:
256,192,26415,1,0,0:0:0:0:
256,192,26498,1,0,0:0:0:0:
256,192,26581,1,0,0:0:0:0:
256,192,26665,1,0,0:0:0:0:
256,192,26748,1,8,0:0:0:0:
256,192,27082,1,0,0:0:0:0:
256,192,27415,1,8,0:0:0:0:
256,192,27582,1,8,0:0:0:0:
256,192,27748,1,8,0:0:0:0:
256,192,27915,1,0,0:0:0:0:
256,192,28248,1,0,0:0:0:0:
256,192,28415,1,8,0:0:0:0:
256,192,28582,1,0,0:0:0:0:
256,192,28748,1,8,0:0:0:0:
256,192,28915,1,0,0:0:0:0:
256,192,29082,1,8,0:0:0:0:
256,192,29248,1,8,0:0:0:0:
256,192,29415,1,0,0:0:0:0:
256,192,29748,1,0,0:0:0:0:
256,192,30082,1,8,0:0:0:0:
256,192,30415,1,0,0:0:0:0:
256,192,30582,1,0,0:0:0:0:
256,192,30915,1,0,0:0:0:0:
256,192,31082,1,0,0:0:0:0:
256,192,31415,1,8,0:0:0:0:
256,192,32082,1,0,0:0:0:0:
256,192,32415,1,0,0:0:0:0:
256,192,32748,1,8,0:0:0:0:
256,192,32915,1,8,0:0:0:0:
256,192,33082,1,8,0:0:0:0:
256,192,33248,1,0,0:0:0:0:
256,192,33582,1,0,0:0:0:0:
256,192,33748,1,8,0:0:0:0:
256,192,33915,1,8,0:0:0:0:
256,192,34082,1,8,0:0:0:0:
256,192,34248,1,0,0:0:0:0:
256,192,34415,1,8,0:0:0:0:
256,192,34582,1,0,0:0:0:0:
256,192,34748,1,0,0:0:0:0:
256,192,35082,1,0,0:0:0:0:
256,192,35415,1,8,0:0:0:0:
256,192,35582,1,0,0:0:0:0:
256,192,35748,1,8,0:0:0:0:
256,192,35915,1,0,0:0:0:0:
256,192,36248,1,0,0:0:0:0:
256,192,36415,1,0,0:0:0:0:
256,192,36582,1,8,0:0:0:0:
256,192,36748,1,8,0:0:0:0:
256,192,36915,1,0,0:0:0:0:
256,192,37082,1,0,0:0:0:0:
256,192,37165,1,0,0:0:0:0:
256,192,37248,1,0,0:0:0:0:
256,192,37332,1,0,0:0:0:0:
256,192,37415,1,8,0:0:0:0:
256,192,37748,1,0,0:0:0:0:
256,192,38082,1,8,0:0:0:0:
256,192,38248,1,8,0:0:0:0:
256,192,38415,1,8,0:0:0:0:
256,192,38582,1,0,0:0:0:0:
256,192,38915,1,8,0:0:0:0:
256,192,39082,1,8,0:0:0:0:
256,192,39248,1,0,0:0:0:0:
256,192,39415,1,8,0:0:0:0:
256,192,39582,1,8,0:0:0:0:
256,192,39748,1,8,0:0:0:0:
256,192,39915,1,0,0:0:0:0:
256,192,40082,1,8,0:0:0:0:
256,192,40415,1,8,0:0:0:0:
256,192,40748,1,8,0:0:0:0:
256,192,40915,1,0,0:0:0:0:
256,192,41082,1,8,0:0:0:0:
256,192,41248,1,0,0:0:0:0:
256,192,41582,1,0,0:0:0:0:
256,192,41748,1,0,0:0:0:0:
256,192,41915,1,8,0:0:0:0:
256,192,42082,1,8,0:0:0:0:
256,192,42248,1,0,0:0:0:0:
256,192,42332,1,0,0:0:0:0:
256,192,42415,1,8,0:0:0:0:
256,192,42748,1,0,0:0:0:0:
256,192,43082,1,0,0:0:0:0:
256,192,43415,1,8,0:0:0:0:
256,192,43582,1,8,0:0:0:0:
256,192,43748,1,8,0:0:0:0:
256,192,43915,1,0,0:0:0:0:
256,192,44248,1,0,0:0:0:0:
256,192,44415,1,8,0:0:0:0:
256,192,44582,1,8,0:0:0:0:
256,192,44748,1,8,0:0:0:0:
256,192,44915,1,0,0:0:0:0:
256,192,45082,1,8,0:0:0:0:
256,192,45248,1,8,0:0:0:0:
256,192,45415,1,8,0:0:0:0:
256,192,45748,1,0,0:0:0:0:
256,192,46082,1,8,0:0:0:0:
256,192,46248,1,8,0:0:0:0:
256,192,46415,1,8,0:0:0:0:
256,192,46582,1,0,0:0:0:0:
256,192,46915,1,8,0:0:0:0:
256,192,47082,1,0,0:0:0:0:
256,192,47248,1,0,0:0:0:0:
256,192,47415,1,8,0:0:0:0:
256,192,47748,1,0,0:0:0:0:
256,192,47832,1,0,0:0:0:0:
256,192,47915,1,0,0:0:0:0:
256,192,47998,1,0,0:0:0:0:
256,192,48082,1,8,0:0:0:0:
256,192,48415,1,8,0:0:0:0:
256,192,48748,1,0,0:0:0:0:
256,192,48915,1,8,0:0:0:0:
256,192,49082,1,8,0:0:0:0:
256,192,49248,1,0,0:0:0:0:
256,192,49582,1,0,0:0:0:0:
256,192,49748,1,8,0:0:0:0:
256,192,49915,1,8,0:0:0:0:
256,192,50082,1,0,0:0:0:0:
256,192,50248,1,0,0:0:0:0:
256,192,50415,1,8,0:0:0:0:
256,192,50582,1,8,0:0:0:0:
256,192,50748,1,0,0:0:0:0:
256,192,51082,1,0,0:0:0:0:
256,192,51415,1,0,0:0:0:0:
256,192,51498,1,0,0:0:0:0:
256,192,51582,1,0,0:0:0:0:
256,192,51665,1,0,0:0:0:0:
256,192,51748,1,0,0:0:0:0:
256,192,51832,1,0,0:0:0:0:
256,192,51915,1,0,0:0:0:0:
256,192,51998,1,0,0:0:0:0:
256,192,52082,1,0,0:0:0:0:
256,192,52193,1,0,0:0:0:0:
256,192,52304,1,0,0:0:0:0:
256,192,52415,1,0,0:0:0:0:
256,192,52582,1,0,0:0:0:0:
256,192,52748,1,8,0:0:0:0:
256,192,53082,1,8,0:0:0:0:
256,192,53248,1,8,0:0:0:0:
256,192,53415,1,0,0:0:0:0:
256,192,53748,1,0,0:0:0:0:
256,192,54082,1,8,0:0:0:0:
256,192,54248,1,8,0:0:0:0:
256,192,54415,1,8,0:0:0:0:
256,192,54582,1,0,0:0:0:0:
256,192,54915,1,0,0:0:0:0:
256,192,55082,1,0,0:0:0:0:
256,192,55248,1,0,0:0:0:0:
256,192,55415,1,8,0:0:0:0:
256,192,55582,1,8,0:0:0:0:
256,192,55748,1,8,0:0:0:0:
256,192,55915,1,8,0:0:0:0:
256,192,56082,1,0,0:0:0:0:
256,192,56415,1,0,0:0:0:0:
256,192,56748,1,8,0:0:0:0:
256,192,56915,1,8,0:0:0:0:
256,192,57082,1,8,0:0:0:0:
256,192,57248,1,0,0:0:0:0:
256,192,57582,1,0,0:0:0:0:
256,192,57748,1,0,0:0:0:0:
256,192,57915,1,8,0:0:0:0:
256,192,58082,1,8,0:0:0:0:
256,192,58248,1,0,0:0:0:0:
256,192,58415,1,0,0:0:0:0:
256,192,58498,1,0,0:0:0:0:
256,192,58582,1,0,0:0:0:0:
256,192,58665,1,0,0:0:0:0:
256,192,58748,1,8,0:0:0:0:
256,192,59082,1,0,0:0:0:0:
256,192,59415,1,8,0:0:0:0:
256,192,59582,1,8,0:0:0:0:
256,192,59748,1,8,0:0:0:0:
256,192,59915,1,0,0:0:0:0:
256,192,60248,1,0,0:0:0:0:
256,192,60415,1,8,0:0:0:0:
256,192,60582,1,8,0:0:0:0:
256,192,60915,1,8,0:0:0:0:
256,192,61082,1,8,0:0:0:0:
256,192,61248,1,8,0:0:0:0:
256,192,61415,1,0,0:0:0:0:
256,192,61748,1,8,0:0:0:0:
256,192,62082,1,0,0:0:0:0:
256,192,62248,1,0,0:0:0:0:
256,192,62415,1,0,0:0:0:0:
256,192,62582,1,8,0:0:0:0:
256,192,62915,1,0,0:0:0:0:
256,192,63082,1,0,0:0:0:0:
256,192,63248,1,8,0:0:0:0:
256,192,63582,1,0,0:0:0:0:
256,192,63748,1,0,0:0:0:0:
256,192,63915,1,0,0:0:0:0:
256,192,64082,1,0,0:0:0:0:
256,192,64415,1,0,0:0:0:0:
256,192,64748,1,8,0:0:0:0:
256,192,65082,1,0,0:0:0:0:
256,192,65415,1,0,0:0:0:0:
256,192,65748,1,8,0:0:0:0:
256,192,66082,1,0,0:0:0:0:
256,192,66415,1,0,0:0:0:0:
256,192,66748,1,0,0:0:0:0:
256,192,67082,1,8,0:0:0:0:
256,192,67415,1,0,0:0:0:0:
256,192,67748,1,0,0:0:0:0:
256,192,68082,1,0,0:0:0:0:
256,192,68415,1,8,0:0:0:0:
256,192,68748,1,0,0:0:0:0:
256,192,69082,1,0,0:0:0:0:
256,192,69415,1,8,0:0:0:0:
256,192,69748,1,8,0:0:0:0:
256,192,70082,1,0,0:0:0:0:
256,192,70415,1,0,0:0:0:0:
256,192,70748,1,8,0:0:0:0:
256,192,71082,1,8,0:0:0:0:
256,192,71415,1,0,0:0:0:0:
256,192,71748,1,0,0:0:0:0:
256,192,72082,1,8,0:0:0:0:
256,192,72415,1,8,0:0:0:0:
256,192,72748,1,0,0:0:0:0:
256,192,73082,1,0,0:0:0:0:
256,192,73415,1,0,0:0:0:0:
256,192,73748,1,8,0:0:0:0:
256,192,74082,1,0,0:0:0:0:
256,192,74248,1,0,0:0:0:0:
256,192,74415,1,8,0:0:0:0:
256,192,74748,1,0,0:0:0:0:
256,192,75082,1,8,0:0:0:0:
256,192,75415,1,8,0:0:0:0:
256,192,75748,1,0,0:0:0:0:
256,192,76082,1,0,0:0:0:0:
256,192,76415,1,8,0:0:0:0:
256,192,76748,1,0,0:0:0:0:
256,192,77082,1,0,0:0:0:0:
256,192,77415,1,8,0:0:0:0:
256,192,77748,1,8,0:0:0:0:
256,192,78082,1,0,0:0:0:0:
256,192,78415,1,0,0:0:0:0:
256,192,78748,1,0,0:0:0:0:
256,192,79082,1,8,0:0:0:0:
256,192,79415,1,0,0:0:0:0:
256,192,79748,1,0,0:0:0:0:
256,192,80082,1,8,0:0:0:0:
256,192,80415,1,8,0:0:0:0:
256,192,80748,1,0,0:0:0:0:
256,192,81082,1,0,0:0:0:0:
256,192,81415,1,8,0:0:0:0:
256,192,81748,1,8,0:0:0:0:
256,192,82082,1,0,0:0:0:0:
256,192,82415,1,0,0:0:0:0:
256,192,82748,1,8,0:0:0:0:
256,192,83082,1,8,0:0:0:0:
256,192,83415,1,0,0:0:0:0:
256,192,83748,1,0,0:0:0:0:
256,192,84082,1,8,0:0:0:0:
256,192,84415,1,8,0:0:0:0:
256,192,84748,1,0,0:0:0:0:
256,192,85082,1,0,0:0:0:0:
256,192,85415,1,0,0:0:0:0:
256,192,85748,1,8,0:0:0:0:
256,192,86082,1,8,0:0:0:0:
256,192,86415,1,8,0:0:0:0:
256,192,86748,1,0,0:0:0:0:
256,192,87082,1,8,0:0:0:0:
256,192,87415,1,8,0:0:0:0:
256,192,87748,1,8,0:0:0:0:
256,192,88082,1,0,0:0:0:0:
256,192,88415,1,8,0:0:0:0:
256,192,88748,1,8,0:0:0:0:
256,192,89082,1,8,0:0:0:0:
256,192,89415,1,0,0:0:0:0:
256,192,89748,1,8,0:0:0:0:
256,192,90082,1,8,0:0:0:0:
256,192,90415,1,0,0:0:0:0:
256,192,90748,1,8,0:0:0:0:
256,192,91082,1,0,0:0:0:0:
256,192,91415,1,8,0:0:0:0:
256,192,91748,1,0,0:0:0:0:
256,192,92082,1,0,0:0:0:0:
256,192,92415,1,8,0:0:0:0:
256,192,92748,1,8,0:0:0:0:
256,192,93082,1,0,0:0:0:0:
256,192,93415,1,8,0:0:0:0:
256,192,93748,1,0,0:0:0:0:
256,192,94082,1,8,0:0:0:0:
256,192,94415,1,0,0:0:0:0:
256,192,94748,1,0,0:0:0:0:
256,192,95082,1,8,0:0:0:0:
256,192,95415,1,0,0:0:0:0:
256,192,95582,1,0,0:0:0:0:
256,192,95748,1,8,0:0:0:0:
256,192,96082,1,0,0:0:0:0:
256,192,96415,1,8,0:0:0:0:
256,192,96748,1,8,0:0:0:0:
256,192,97082,1,0,0:0:0:0:
256,192,97415,1,8,0:0:0:0:
256,192,97748,1,8,0:0:0:0:
256,192,98082,1,0,0:0:0:0:
256,192,98415,1,0,0:0:0:0:
256,192,98748,1,8,0:0:0:0:
256,192,99082,1,8,0:0:0:0:
256,192,99415,1,8,0:0:0:0:
256,192,99748,1,0,0:0:0:0:
256,192,100082,1,8,0:0:0:0:
256,192,100415,1,8,0:0:0:0:
256,192,100748,1,0,0:0:0:0:
256,192,101082,1,0,0:0:0:0:
256,192,101415,1,8,0:0:0:0:
256,192,101748,1,8,0:0:0:0:
256,192,102082,1,8,0:0:0:0:
256,192,102415,1,8,0:0:0:0:
256,192,102748,1,0,0:0:0:0:
256,192,103082,1,8,0:0:0:0:
256,192,103415,1,8,0:0:0:0:
256,192,103748,1,8,0:0:0:0:
256,192,104082,1,0,0:0:0:0:
256,192,104415,1,8,0:0:0:0:
256,192,104748,1,8,0:0:0:0:
256,192,105082,1,8,0:0:0:0:
256,192,105415,1,0,0:0:0:0:
256,192,105748,1,8,0:0:0:0:
256,192,106082,1,8,0:0:0:0:
256,192,106415,1,8,0:0:0:0:
256,192,106748,1,0,0:0:0:0:
256,192,106915,1,0,0:0:0:0:
256,192,107082,1,0,0:0:0:0:
256,192,107415,1,0,0:0:0:0:
256,192,107748,1,0,0:0:0:0:
256,192,108082,1,0,0:0:0:0:
256,192,108415,1,0,0:0:0:0:
256,192,108582,1,0,0:0:0:0:
256,192,108748,1,8,0:0:0:0:
256,192,109082,1,8,0:0:0:0:
256,192,109415,1,0,0:0:0:0:
256,192,110082,1,0,0:0:0:0:
256,192,110415,12,0,111415,0:0:0:0:
256,192,112082,5,0,0:0:0:0:
256,192,112415,1,0,0:0:0:0:
256,192,112748,1,8,0:0:0:0:
256,192,113082,1,8,0:0:0:0:
256,192,113415,1,0,0:0:0:0:
256,192,113748,1,0,0:0:0:0:
256,192,114082,1,8,0:0:0:0:
256,192,114415,1,8,0:0:0:0:
256,192,114748,1,0,0:0:0:0:
256,192,115415,1,0,0:0:0:0:
256,192,115748,12,0,116748,0:0:0:0:
256,192,117415,5,0,0:0:0:0:
256,192,117748,1,8,0:0:0:0:
256,192,118082,1,8,0:0:0:0:
256,192,118415,1,8,0:0:0:0:
256,192,118748,1,0,0:0:0:0:
256,192,119082,1,8,0:0:0:0:
256,192,119415,1,8,0:0:0:0:
256,192,119748,1,8,0:0:0:0:
256,192,120082,1,0,0:0:0:0:
256,192,120748,1,0,0:0:0:0:
256,192,121082,12,0,122082,0:0:0:0:
256,192,122748,5,0,0:0:0:0:
256,192,123082,1,8,0:0:0:0:
256,192,123748,1,8,0:0:0:0:
256,192,124415,1,8,0:0:0:0:
256,192,124748,1,0,0:0:0:0:
256,192,125082,1,0,0:0:0:0:
256,192,125248,1,0,0:0:0:0:
256,192,125415,1,0,0:0:0:0:
256,192,125748,1,8,0:0:0:0:
256,192,126415,1,8,0:0:0:0:
256,192,127082,1,8,0:0:0:0:
256,192,127415,1,0,0:0:0:0:
256,192,127748,1,0,0:0:0:0:
256,192,127915,1,0,0:0:0:0:
256,192,128082,1,0,0:0:0:0:
256,192,128415,1,0,0:0:0:0:
256,192,128748,1,0,0:0:0:0:
256,192,129082,1,0,0:0:0:0:
256,192,129415,1,8,0:0:0:0:
256,192,129748,1,0,0:0:0:0:
256,192,130082,1,0,0:0:0:0:
256,192,130415,1,0,0:0:0:0:
256,192,130748,1,8,0:0:0:0:
256,192,131082,1,0,0:0:0:0:
256,192,131415,1,0,0:0:0:0:
256,192,131748,12,0,132748,0:0:0:0:
256,192,133415,5,8,0:0:0:0:
256,192,133748,1,0,0:0:0:0:
256,192,134082,1,0,0:0:0:0:
256,192,134415,1,0,0:0:0:0:
256,192,134748,1,8,0:0:0:0:
256,192,135082,1,0,0:0:0:0:
256,192,135415,1,0,0:0:0:0:
256,192,135748,1,0,0:0:0:0:
256,192,136082,1,8,0:0:0:0:
256,192,136415,1,0,0:0:0:0:
256,192,136748,1,0,0:0:0:0:
256,192,137082,12,0,138082,0:0:0:0:
256,192,138748,5,8,0:0:0:0:
256,192,139082,1,8,0:0:0:0:
256,192,139415,1,0,0:0:0:0:
256,192,139748,1,8,0:0:0:0:
256,192,140082,1,8,0:0:0:0:
256,192,140415,1,8,0:0:0:0:
256,192,140748,1,0,0:0:0:0:
256,192,141082,1,8,0:0:0:0:
256,192,141415,1,8,0:0:0:0:
256,192,141748,1,0,0:0:0:0:
256,192,142082,1,8,0:0:0:0:
256,192,142415,12,0,143415,0:0:0:0:
256,192,144082,5,8,0:0:0:0:
256,192,144415,1,8,0:0:0:0:
256,192,144748,1,0,0:0:0:0:
256,192,145082,1,8,0:0:0:0:
256,192,145748,1,8,0:0:0:0:
256,192,146082,1,0,0:0:0:0:
256,192,146748,1,0,0:0:0:0:
256,192,147082,1,8,0:0:0:0:
256,192,147748,1,8,0:0:0:0:
256,192,148415,1,8,0:0:0:0:
256,192,148748,1,0,0:0:0:0:
256,192,149415,1,8,0:0:0:0:
256,192,149582,1,0,0:0:0:0:
256,192,149748,1,0,0:0:0:0:
256,192,150082,1,0,0:0:0:0:
256,192,150415,1,0,0:0:0:0:
256,192,150748,1,8,0:0:0:0:
256,192,151082,1,0,0:0:0:0:
256,192,151415,1,0,0:0:0:0:
256,192,151748,1,0,0:0:0:0:
256,192,152082,1,8,0:0:0:0:
256,192,152415,1,0,0:0:0:0:
256,192,152748,1,0,0:0:0:0:
256,192,153082,1,0,0:0:0:0:
256,192,153415,1,8,0:0:0:0:
256,192,153748,1,0,0:0:0:0:
256,192,154082,1,0,0:0:0:0:
256,192,154415,1,0,0:0:0:0:
256,192,154748,1,8,0:0:0:0:
256,192,154915,1,8,0:0:0:0:
256,192,155082,1,0,0:0:0:0:
256,192,155415,1,0,0:0:0:0:
256,192,155748,1,0,0:0:0:0:
256,192,156082,1,8,0:0:0:0:
256,192,156415,1,0,0:0:0:0:
256,192,156748,1,0,0:0:0:0:
256,192,157082,1,0,0:0:0:0:
256,192,157415,1,8,0:0:0:0:
256,192,157748,1,0,0:0:0:0:
256,192,158082,1,0,0:0:0:0:
256,192,158415,1,0,0:0:0:0:
256,192,158748,1,8,0:0:0:0:
256,192,159082,1,0,0:0:0:0:
256,192,159415,1,0,0:0:0:0:
256,192,159748,1,0,0:0:0:0:
256,192,160082,1,8,0:0:0:0:
256,192,160248,1,0,0:0:0:0:
256,192,160415,1,0,0:0:0:0:
256,192,160748,1,0,0:0:0:0:
256,192,161082,1,8,0:0:0:0:
256,192,161415,1,0,0:0:0:0:
256,192,161748,1,0,0:0:0:0:
256,192,162082,1,8,0:0:0:0:
256,192,162415,1,0,0:0:0:0:
256,192,162748,1,8,0:0:0:0:
256,192,163082,1,0,0:0:0:0:
256,192,163415,1,0,0:0:0:0:
256,192,163748,1,8,0:0:0:0:
256,192,164082,1,0,0:0:0:0:
256,192,164415,1,0,0:0:0:0:
256,192,164748,1,8,0:0:0:0:
256,192,165082,1,0,0:0:0:0:
256,192,165415,1,8,0:0:0:0:
256,192,165582,1,0,0:0:0:0:
256,192,165748,1,0,0:0:0:0:
256,192,165915,1,0,0:0:0:0:
256,192,166082,1,0,0:0:0:0:
256,192,166248,1,0,0:0:0:0:
256,192,166415,1,8,0:0:0:0:
256,192,166582,1,0,0:0:0:0:
256,192,166748,1,0,0:0:0:0:
256,192,166915,1,0,0:0:0:0:
256,192,167082,1,0,0:0:0:0:
256,192,167248,1,0,0:0:0:0:
256,192,167415,1,8,0:0:0:0:
256,192,167582,1,0,0:0:0:0:
256,192,167748,1,0,0:0:0:0:
256,192,167915,1,8,0:0:0:0:
256,192,168082,12,0,169415,0:0:0:0:
256,192,170082,5,8,0:0:0:0:
256,192,170748,5,0,0:0:0:0:
256,192,171082,1,0,0:0:0:0:
256,192,171248,1,0,0:0:0:0:
256,192,171415,1,8,0:0:0:0:
256,192,171748,1,0,0:0:0:0:
256,192,171915,1,0,0:0:0:0:
256,192,172082,1,8,0:0:0:0:
256,192,172248,1,0,0:0:0:0:
256,192,172415,1,0,0:0:0:0:
256,192,172582,1,0,0:0:0:0:
256,192,172748,1,0,0:0:0:0:
256,192,172831,1,0,0:0:0:0:
256,192,172915,1,0,0:0:0:0:
256,192,173081,1,0,0:0:0:0:
256,192,173164,1,0,0:0:0:0:
256,192,173248,1,0,0:0:0:0:
256,192,173415,1,8,0:0:0:0:
256,192,173748,1,0,0:0:0:0:
256,192,173915,1,0,0:0:0:0:
256,192,174082,1,8,0:0:0:0:
256,192,174248,1,0,0:0:0:0:
256,192,174415,1,0,0:0:0:0:
256,192,174582,1,0,0:0:0:0:
256,192,174748,1,8,0:0:0:0:
256,192,174915,1,0,0:0:0:0:
256,192,175082,1,0,0:0:0:0:
256,192,175248,1,0,0:0:0:0:
256,192,175415,1,0,0:0:0:0:
256,192,175499,1,0,0:0:0:0:
256,192,175582,1,0,0:0:0:0:
256,192,175749,1,0,0:0:0:0:
256,192,175832,1,0,0:0:0:0:
256,192,175915,1,0,0:0:0:0:
256,192,176082,1,8,0:0:0:0:
256,192,176415,1,0,0:0:0:0:
256,192,176582,1,0,0:0:0:0:
256,192,176748,1,8,0:0:0:0:
256,192,176915,1,8,0:0:0:0:
256,192,177082,1,0,0:0:0:0:
256,192,177248,1,0,0:0:0:0:
256,192,177415,1,8,0:0:0:0:
256,192,177582,1,8,0:0:0:0:
256,192,177748,5,0,0:0:0:0:
256,192,177915,1,0,0:0:0:0:
256,192,178082,1,0,0:0:0:0:
256,192,178165,1,0,0:0:0:0:
256,192,178248,1,0,0:0:0:0:
256,192,178415,1,8,0:0:0:0:
256,192,178498,1,8,0:0:0:0:
256,192,178582,1,8,0:0:0:0:
256,192,178748,1,8,0:0:0:0:
256,192,179082,1,0,0:0:0:0:
256,192,179248,1,8,0:0:0:0:
256,192,179415,1,8,0:0:0:0:
256,192,179582,1,8,0:0:0:0:
256,192,179748,1,0,0:0:0:0:
256,192,179915,1,8,0:0:0:0:
256,192,180082,1,8,0:0:0:0:
256,192,180248,1,8,0:0:0:0:
256,192,180415,1,0,0:0:0:0:
256,192,180498,1,0,0:0:0:0:
256,192,180582,1,0,0:0:0:0:
256,192,180748,1,8,0:0:0:0:
256,192,180915,1,0,0:0:0:0:
256,192,180998,1,0,0:0:0:0:
256,192,181082,1,0,0:0:0:0:
256,192,181248,1,8,0:0:0:0:
256,192,181415,1,0,0:0:0:0:
256,192,181748,1,0,0:0:0:0:
256,192,181915,1,0,0:0:0:0:
256,192,182082,1,8,0:0:0:0:
256,192,182248,1,8,0:0:0:0:
256,192,182415,1,0,0:0:0:0:
256,192,182582,1,8,0:0:0:0:
256,192,182748,1,8,0:0:0:0:
256,192,182915,1,8,0:0:0:0:
256,192,183082,1,0,0:0:0:0:
256,192,183248,1,0,0:0:0:0:
256,192,183415,1,0,0:0:0:0:
256,192,183498,1,0,0:0:0:0:
256,192,183582,1,8,0:0:0:0:
256,192,183748,1,0,0:0:0:0:
256,192,183832,1,0,0:0:0:0:
256,192,183915,1,8,0:0:0:0:
256,192,184082,1,8,0:0:0:0:
256,192,184415,1,0,0:0:0:0:
256,192,184582,1,0,0:0:0:0:
256,192,184748,1,8,0:0:0:0:
256,192,184915,1,0,0:0:0:0:
256,192,185082,1,0,0:0:0:0:
256,192,185248,1,0,0:0:0:0:
256,192,185415,1,8,0:0:0:0:
256,192,185582,1,8,0:0:0:0:
256,192,185748,1,0,0:0:0:0:
256,192,185915,1,0,0:0:0:0:
256,192,186082,1,0,0:0:0:0:
256,192,186165,1,0,0:0:0:0:
256,192,186248,1,8,0:0:0:0:
256,192,186415,1,0,0:0:0:0:
256,192,186498,1,0,0:0:0:0:
256,192,186582,1,8,0:0:0:0:
256,192,186748,1,8,0:0:0:0:
256,192,187082,1,0,0:0:0:0:
256,192,187248,1,8,0:0:0:0:
256,192,187415,1,8,0:0:0:0:
256,192,187582,1,0,0:0:0:0:
256,192,187748,1,8,0:0:0:0:
256,192,187915,1,0,0:0:0:0:
256,192,188082,1,8,0:0:0:0:
256,192,188248,1,8,0:0:0:0:
256,192,188415,1,0,0:0:0:0:
256,192,188582,1,8,0:0:0:0:
256,192,188748,1,8,0:0:0:0:
256,192,188915,1,0,0:0:0:0:
256,192,189082,1,8,0:0:0:0:
256,192,189248,1,8,0:0:0:0:
256,192,189415,1,8,0:0:0:0:
256,192,189498,1,8,0:0:0:0:
256,192,189582,1,8,0:0:0:0:
256,192,189665,1,8,0:0:0:0:
256,192,189748,1,0,0:0:0:0:
256,192,189832,1,0,0:0:0:0:
256,192,189915,1,0,0:0:0:0:
256,192,189998,1,0,0:0:0:0:
256,192,190082,1,0,0:0:0:0:
256,192,190415,1,8,0:0:0:0:
256,192,190498,1,8,0:0:0:0:
256,192,190582,1,8,0:0:0:0:
256,192,190665,1,8,0:0:0:0:
256,192,190748,1,0,0:0:0:0:
256,192,190832,1,0,0:0:0:0:
256,192,190915,1,0,0:0:0:0:
256,192,190998,1,0,0:0:0:0:
256,192,191082,1,0,0:0:0:0:
256,192,191415,1,0,0:0:0:0:
256,192,191748,1,8,0:0:0:0:
256,192,192082,1,0,0:0:0:0:
256,192,192415,1,0,0:0:0:0:
256,192,192582,1,0,0:0:0:0:
256,192,192748,1,8,0:0:0:0:
256,192,192915,1,0,0:0:0:0:
256,192,193082,1,0,0:0:0:0:
256,192,193415,1,0,0:0:0:0:
256,192,193582,1,0,0:0:0:0:
256,192,193748,1,8,0:0:0:0:
256,192,193915,1,0,0:0:0:0:
256,192,194082,1,8,0:0:0:0:
256,192,194248,1,0,0:0:0:0:
256,192,194415,1,8,0:0:0:0:
256,192,194582,1,8,0:0:0:0:
256,192,194748,1,0,0:0:0:0:
256,192,195082,1,8,0:0:0:0:
256,192,195248,1,0,0:0:0:0:
256,192,195415,1,8,0:0:0:0:
256,192,195748,1,0,0:0:0:0:
256,192,196082,1,8,0:0:0:0:
256,192,196415,1,0,0:0:0:0:
256,192,196582,1,0,0:0:0:0:
256,192,196748,1,8,0:0:0:0:
256,192,196915,1,0,0:0:0:0:
256,192,197082,1,8,0:0:0:0:
256,192,197248,1,8,0:0:0:0:
256,192,197415,1,0,0:0:0:0:
256,192,197748,1,0,0:0:0:0:
256,192,197915,1,0,0:0:0:0:
256,192,198082,1,8,0:0:0:0:
256,192,198248,1,0,0:0:0:0:
256,192,198415,1,0,0:0:0:0:
256,192,198748,1,0,0:0:0:0:
256,192,198915,1,0,0:0:0:0:
256,192,199082,1,8,0:0:0:0:
256,192,199248,1,0,0:0:0:0:
256,192,199415,1,8,0:0:0:0:
256,192,199748,1,8,0:0:0:0:
256,192,199915,1,8,0:0:0:0:
256,192,200082,1,0,0:0:0:0:
256,192,200415,1,0,0:0:0:0:
256,192,200582,1,0,0:0:0:0:
256,192,200748,1,0,0:0:0:0:
256,192,201082,1,8,0:0:0:0:
256,192,201415,1,0,0:0:0:0:
256,192,201582,1,0,0:0:0:0:
256,192,201748,1,0,0:0:0:0:
256,192,202082,1,8,0:0:0:0:
256,192,202248,1,0,0:0:0:0:
256,192,202415,1,8,0:0:0:0:
256,192,202582,1,8,0:0:0:0:
256,192,202748,1,0,0:0:0:0:
256,192,203082,1,0,0:0:0:0:
256,192,203248,1,0,0:0:0:0:
256,192,203415,1,8,0:0:0:0:
256,192,203582,1,8,0:0:0:0:
256,192,203748,1,0,0:0:0:0:
256,192,204082,1,0,0:3:0:0:
256,192,204248,1,8,0:3:0:0:
256,192,204415,1,0,0:3:0:0:
256,192,204582,1,0,0:3:0:0:
256,192,204748,1,8,0:3:0:0:
256,192,205082,1,8,0:0:0:0:
256,192,205248,1,8,0:0:0:0:
256,192,205415,1,0,0:0:0:0:
256,192,205748,1,0,0:0:0:0:
256,192,206082,1,8,0:0:0:0:
256,192,206248,1,8,0:0:0:0:
256,192,206415,1,0,0:0:0:0:
256,192,206748,1,0,0:0:0:0:
256,192,207082,1,0,0:0:0:0:
256,192,207248,1,0,0:0:0:0:
256,192,207415,1,8,0:0:0:0:
256,192,207582,1,0,0:0:0:0:
256,192,207748,1,8,0:0:0:0:
256,192,207915,1,8,0:0:0:0:
256,192,208082,1,0,0:0:0:0:
256,192,208415,1,0,0:0:0:0:
256,192,208582,1,0,0:0:0:0:
256,192,208748,1,8,0:0:0:0:
256,192,209082,1,8,0:0:0:0:
256,192,209415,1,0,0:0:0:0:
256,192,209582,1,0,0:0:0:0:
256,192,209748,1,8,0:0:0:0:
256,192,209915,1,0,0:0:0:0:
256,192,210082,1,0,0:0:0:0:
256,192,210415,1,0,0:0:0:0:
256,192,210582,1,0,0:0:0:0:
256,192,210748,1,0,0:0:0:0:
256,192,210832,1,0,0:0:0:0:
256,192,210915,1,0,0:0:0:0:
256,192,211082,1,0,0:0:0:0:
256,192,211165,1,0,0:0:0:0:
256,192,211248,1,8,0:0:0:0:
256,192,211415,1,0,0:0:0:0:
256,192,211498,1,0,0:0:0:0:
256,192,211582,1,0,0:0:0:0:
256,192,211748,1,0,0:0:0:0:
256,192,211832,1,0,0:0:0:0:
256,192,211915,1,8,0:0:0:0:
256,192,212082,1,8,0:0:0:0:
256,192,212415,1,0,0:0:0:0:
256,192,212582,1,8,0:0:0:0:
256,192,212915,1,0,0:0:0:0:
256,192,213082,1,8,0:0:0:0:
256,192,213248,1,8,0:0:0:0:
256,192,213415,1,0,0:0:0:0:
256,192,213582,1,0,0:0:0:0:
256,192,213748,1,0,0:0:0:0:
256,192,213915,1,0,0:0:0:0:
256,192,214082,1,8,0:0:0:0:
256,192,214248,1,8,0:0:0:0:
256,192,214415,1,8,0:0:0:0:
256,192,214582,1,8,0:0:0:0:
256,192,214748,1,0,0:0:0:0:
256,192,214915,1,0,0:0:0:0:
256,192,215082,1,0,0:0:0:0:
256,192,215248,1,0,0:0:0:0:
256,192,215415,1,0,0:0:0:0:
256,192,215498,1,0,0:0:0:0:
256,192,215582,1,8,0:0:0:0:
256,192,215748,1,0,0:0:0:0:
256,192,215832,1,0,0:0:0:0:
256,192,215915,1,8,0:0:0:0:
256,192,216082,1,0,0:0:0:0:
256,192,216415,1,0,0:0:0:0:
256,192,216582,1,0,0:0:0:0:
256,192,216748,1,8,0:0:0:0:
256,192,217082,1,8,0:0:0:0:
256,192,217248,1,8,0:0:0:0:
256,192,217415,1,0,0:0:0:0:
256,192,217582,1,0,0:0:0:0:
256,192,217666,1,0,0:0:0:0:
256,192,217749,1,0,0:0:0:0:
256,192,217915,1,0,0:0:0:0:
256,192,217998,1,0,0:0:0:0:
256,192,218082,1,0,0:0:0:0:
256,192,218248,1,0,0:0:0:0:
256,192,218332,1,0,0:0:0:0:
256,192,218415,1,8,0:0:0:0:
256,192,218582,1,0,0:0:0:0:
256,192,218665,1,0,0:0:0:0:
256,192,218748,1,8,0:0:0:0:
256,192,218915,1,8,0:0:0:0:
256,192,219082,1,0,0:0:0:0:
256,192,219248,1,8,0:0:0:0:
256,192,219415,1,8,0:0:0:0:
256,192,219582,1,8,0:0:0:0:
256,192,219748,1,8,0:0:0:0:
256,192,219915,1,8,0:0:0:0:
256,192,220082,1,0,0:0:0:0:
256,192,220248,1,8,0:0:0:0:
256,192,220415,1,8,0:0:0:0:
256,192,220582,1,8,0:0:0:0:
256,192,220748,1,0,0:0:0:0:
256,192,220832,1,0,0:0:0:0:
256,192,220915,1,8,0:0:0:0:
256,192,221082,1,0,0:0:0:0:
256,192,221165,1,0,0:0:0:0:
256,192,221248,1,8,0:0:0:0:
256,192,221415,1,0,0:0:0:0:
256,192,221748,1,0,0:0:0:0:
256,192,221915,1,0,0:0:0:0:
256,192,222082,1,8,0:0:0:0:
256,192,222415,1,0,0:0:0:0:
256,192,222582,1,8,0:0:0:0:
256,192,222748,1,8,0:0:0:0:
256,192,222915,1,8,0:0:0:0:
256,192,223082,1,0,0:0:0:0:
256,192,223248,1,0,0:0:0:0:
256,192,223415,1,8,0:0:0:0:
256,192,223748,1,8,0:0:0:0:
256,192,223915,1,8,0:0:0:0:
256,192,224082,1,0,0:0:0:0:
256,192,224248,1,0,0:0:0:0:
256,192,224415,1,0,0:0:0:0:
256,192,224582,1,0,0:0:0:0:
256,192,224748,1,8,0:0:0:0:
256,192,224915,1,8,0:0:0:0:
256,192,225082,1,8,0:0:0:0:
256,192,225248,1,8,0:0:0:0:
256,192,225415,1,0,0:0:0:0:
256,192,225582,1,8,0:0:0:0:
256,192,225748,1,8,0:0:0:0:
256,192,225915,1,8,0:0:0:0:
256,192,226082,1,0,0:0:0:0:
256,192,226165,1,0,0:0:0:0:
256,192,226248,1,8,0:0:0:0:
256,192,226415,1,0,0:0:0:0:
256,192,226498,1,8,0:0:0:0:
256,192,226582,1,8,0:0:0:0:
256,192,226748,1,0,0:0:0:0:
256,192,227082,1,0,0:0:0:0:
256,192,227248,1,0,0:0:0:0:
256,192,227415,1,8,0:0:0:0:
256,192,227748,1,0,0:0:0:0:
256,192,227915,1,0,0:0:0:0:
256,192,228082,1,0,0:0:0:0:
256,192,228248,1,0,0:0:0:0:
256,192,228332,1,0,0:0:0:0:
256,192,228415,1,0,0:0:0:0:
256,192,228582,1,0,0:0:0:0:
256,192,228665,1,0,0:0:0:0:
256,192,228748,1,0,0:0:0:0:
256,192,228915,1,0,0:0:0:0:
256,192,228998,1,0,0:0:0:0:
256,192,229082,1,8,0:0:0:0:
256,192,229248,1,0,0:0:0:0:
256,192,229332,1,8,0:0:0:0:
256,192,229415,1,8,0:0:0:0:
256,192,229582,1,8,0:0:0:0:
256,192,229748,1,0,0:0:0:0:
256,192,229915,1,8,0:0:0:0:
256,192,230082,1,8,0:0:0:0:
256,192,230248,1,0,0:0:0:0:
256,192,230415,1,8,0:0:0:0:
256,192,230582,1,0,0:0:0:0:
256,192,230748,1,8,0:0:0:0:
256,192,230915,1,8,0:0:0:0:
256,192,231082,1,8,0:0:0:0:
256,192,231248,1,8,0:0:0:0:
256,192,231415,1,0,0:0:0:0:
256,192,231582,1,0,0:0:0:0:
256,192,231748,1,0,0:0:0:0:
256,192,231915,1,0,0:0:0:0:
256,192,232082,1,0,0:0:0:0:
256,192,232165,1,0,0:0:0:0:
256,192,232248,1,8,0:0:0:0:
256,192,232415,1,0,0:0:0:0:
256,192,232498,1,8,0:0:0:0:
256,192,232582,1,8,0:0:0:0:
256,192,232748,1,0,0:0:0:0:
256,192,232832,1,0,0:0:0:0:
256,192,232915,1,8,0:0:0:0:
256,192,233082,1,0,0:0:0:0:
256,192,233165,1,8,0:0:0:0:
256,192,233248,1,8,0:0:0:0:
256,192,233415,1,0,0:0:0:0:
256,192,233498,1,0,0:0:0:0:
256,192,233582,1,0,0:0:0:0:
256,192,233665,1,0,0:0:0:0:
256,192,233748,1,8,0:0:0:0:
256,192,233915,1,0,0:0:0:0:
256,192,233998,1,0,0:0:0:0:
256,192,234082,1,0,0:0:0:0:
256,192,234165,1,0,0:0:0:0:
256,192,234248,1,8,0:0:0:0:
256,192,234415,1,0,0:0:0:0:
256,192,234748,1,0,0:0:0:0:
256,192,234915,1,0,0:0:0:0:
256,192,235415,1,8,0:0:0:0:
256,192,236082,1,0,0:0:0:0:
256,192,236582,1,0,0:0:0:0:
256,192,236748,1,8,0:0:0:0:
256,192,237415,1,0,0:0:0:0:
256,192,237582,1,0,0:0:0:0:
256,192,238082,1,8,0:0:0:0:
256,192,238415,1,0,0:0:0:0:
256,192,239248,1,0,0:0:0:0:
256,192,239415,1,8,0:0:0:0:
256,192,240082,1,0,0:0:0:0:
256,192,240248,1,0,0:0:0:0:
256,192,240748,1,8,0:0:0:0:
256,192,241248,1,0,0:0:0:0:
256,192,241415,1,0,0:0:0:0:
256,192,242082,1,8,0:0:0:0:
256,192,242748,1,0,0:0:0:0:
256,192,242915,1,0,0:0:0:0:
256,192,243415,1,8,0:0:0:0:
256,192,243748,1,0,0:0:0:0:
256,192,243915,1,0,0:0:0:0:
256,192,244748,1,8,0:0:0:0:
256,192,245248,1,8,0:0:0:0:
256,192,245332,1,8,0:0:0:0:
256,192,245415,1,0,0:0:0:0:
256,192,245582,1,0,0:0:0:0:
256,192,246082,1,8,0:0:0:0:
256,192,246748,1,0,0:0:0:0:
256,192,247248,1,0,0:0:0:0:
256,192,247415,1,8,0:0:0:0:
256,192,248082,1,0,0:0:0:0:
256,192,248248,1,0,0:0:0:0:
256,192,248748,1,8,0:0:0:0:
256,192,249082,1,0,0:0:0:0:
256,192,249915,1,0,0:0:0:0:
256,192,250082,1,8,0:0:0:0:
256,192,250748,1,0,0:0:0:0:
256,192,250915,1,0,0:0:0:0:
256,192,251082,1,8,0:0:0:0:
256,192,251415,1,0,0:0:0:0:
256,192,251748,1,8,0:0:0:0:
256,192,251915,1,0,0:0:0:0:
256,192,252415,1,8,0:0:0:0:
256,192,252748,1,0,0:0:0:0:
256,192,253415,1,0,0:0:0:0:
256,192,253582,1,0,0:0:0:0:
256,192,253748,1,8,0:0:0:0:
256,192,254082,1,0,0:0:0:0:
256,192,254415,1,8,0:0:0:0:
256,192,254582,1,0,0:0:0:0:
256,192,255082,1,0,0:0:0:0:
256,192,255415,1,8,0:0:0:0:
256,192,256082,1,8,0:0:0:0:
256,192,256248,1,0,0:0:0:0:
256,192,256415,1,0,0:0:0:0:
256,192,256748,1,0,0:0:0:0:
256,192,257082,1,0,0:0:0:0:
256,192,257415,1,8,0:0:0:0:
256,192,257748,1,0,0:0:0:0:
256,192,257915,1,0,0:0:0:0:
256,192,258082,1,0,0:0:0:0:
256,192,258415,1,0,0:0:0:0:
256,192,258748,1,8,0:0:0:0:
256,192,258915,1,0,0:0:0:0:
256,192,259082,1,0,0:0:0:0:
256,192,259415,1,0,0:0:0:0:
256,192,259748,1,0,0:0:0:0:
256,192,260082,1,8,0:0:0:0:
256,192,260415,1,0,0:0:0:0:
256,192,260582,1,0,0:0:0:0:
256,192,260748,1,0,0:0:0:0:
256,192,261082,1,0,0:0:0:0:
256,192,261248,1,0,0:0:0:0:
256,192,261415,1,8,0:0:0:0:
256,192,261582,1,0,0:0:0:0:
256,192,261748,1,0,0:0:0:0:
256,192,262082,1,0,0:0:0:0:
256,192,262415,1,0,0:0:0:0:
256,192,262582,1,0,0:0:0:0:
256,192,262748,1,8,0:0:0:0:
256,192,263082,1,0,0:0:0:0:
256,192,263415,1,8,0:0:0:0:
256,192,263748,1,0,0:0:0:0:
256,192,264082,1,8,0:0:0:0:
256,192,264248,1,0,0:0:0:0:
256,192,264415,1,0,0:0:0:0:
256,192,264748,1,0,0:0:0:0:
256,192,265082,1,0,0:0:0:0:
256,192,265248,1,0,0:0:0:0:
256,192,265415,1,8,0:0:0:0:
256,192,265748,1,0,0:0:0:0:
256,192,266082,1,0,0:0:0:0:
256,192,266415,1,0,0:0:0:0:
256,192,266582,1,0,0:0:0:0:
256,192,266748,1,8,0:0:0:0:
256,192,266915,1,0,0:0:0:0:
256,192,267082,1,0,0:0:0:0:
256,192,267415,1,0,0:0:0:0:
256,192,267748,1,0,0:0:0:0:
256,192,268082,1,8,0:0:0:0:
256,192,268415,1,0,0:0:0:0:
256,192,268582,1,0,0:0:0:0:
256,192,268748,1,0,0:0:0:0:
256,192,269082,1,0,0:0:0:0:
256,192,269415,1,8,0:0:0:0:
256,192,269582,1,0,0:0:0:0:
256,192,269748,1,0,0:0:0:0:
256,192,270082,1,0,0:0:0:0:
256,192,270415,1,8,0:0:0:0:
256,192,270748,1,0,0:0:0:0:
256,192,271082,1,0,0:0:0:0:
256,192,271248,1,0,0:0:0:0:
256,192,271415,1,8,0:0:0:0:
256,192,271748,1,0,0:0:0:0:
256,192,272082,1,8,0:0:0:0:
256,192,272248,1,0,0:0:0:0:
256,192,272415,1,0,0:0:0:0:
256,192,272582,1,0,0:0:0:0:
256,192,272748,1,8,0:0:0:0:
256,192,272915,1,0,0:0:0:0:
256,192,273082,1,0,0:0:0:0:
256,192,273248,1,0,0:0:0:0:
256,192,273415,1,8,0:0:0:0:
256,192,273582,1,0,0:0:0:0:
256,192,273748,1,0,0:0:0:0:
256,192,273915,1,0,0:0:0:0:
256,192,274082,1,8,0:0:0:0:
256,192,274248,1,0,0:0:0:0:
256,192,274415,1,0,0:0:0:0:
256,192,274582,1,0,0:0:0:0:
256,192,274748,12,0,276082,0:0:0:0:
256,192,276748,5,4,0:0:0:0:
256,192,277415,1,8,0:0:0:0:
256,192,277748,1,0,0:0:0:0:
256,192,278082,1,8,0:0:0:0:
256,192,278248,1,0,0:0:0:0:
256,192,278415,1,0,0:0:0:0:
256,192,278748,1,8,0:0:0:0:
256,192,278915,1,0,0:0:0:0:
256,192,279082,1,0,0:0:0:0:
256,192,279248,1,8,0:0:0:0:
256,192,279415,1,0,0:0:0:0:
256,192,279499,1,0,0:0:0:0:
256,192,279582,1,8,0:0:0:0:
256,192,279749,1,0,0:0:0:0:
256,192,279832,1,0,0:0:0:0:
256,192,279915,1,8,0:0:0:0:
256,192,280082,1,8,0:0:0:0:
256,192,280415,1,0,0:0:0:0:
256,192,280748,1,8,0:0:0:0:
256,192,280915,1,0,0:0:0:0:
256,192,281082,1,0,0:0:0:0:
256,192,281415,1,8,0:0:0:0:
256,192,281582,1,0,0:0:0:0:
256,192,281748,1,0,0:0:0:0:
256,192,281915,1,8,0:0:0:0:
256,192,282082,1,0,0:0:0:0:
256,192,282166,1,0,0:0:0:0:
256,192,282249,1,8,0:0:0:0:
256,192,282416,1,0,0:0:0:0:
256,192,282499,1,8,0:0:0:0:
256,192,282582,1,0,0:0:0:0:
256,192,282665,1,8,0:0:0:0:
256,192,282748,1,0,0:0:0:0:
256,192,283082,1,0,0:0:0:0:
256,192,283415,1,8,0:0:0:0:
256,192,283582,1,0,0:0:0:0:
256,192,283748,1,0,0:0:0:0:
256,192,284082,1,0,0:0:0:0:
256,192,284248,1,0,0:0:0:0:
256,192,284415,1,0,0:0:0:0:
256,192,284582,1,8,0:0:0:0:
256,192,284748,1,8,0:0:0:0:
256,192,284832,1,0,0:0:0:0:
256,192,284915,1,8,0:0:0:0:
256,192,285082,1,0,0:0:0:0:
256,192,285165,1,0,0:0:0:0:
256,192,285248,1,8,0:0:0:0:
256,192,285415,1,0,0:0:0:0:
256,192,285748,1,8,0:0:0:0:
256,192,286082,1,0,0:0:0:0:
256,192,286248,1,8,0:0:0:0:
256,192,286415,1,8,0:0:0:0:
256,192,286748,1,0,0:0:0:0:
256,192,286915,1,8,0:0:0:0:
256,192,287082,1,8,0:0:0:0:
256,192,287248,1,0,0:0:0:0:
256,192,287415,1,8,0:0:0:0:
256,192,287748,1,0,0:0:0:0:
256,192,287832,1,0,0:0:0:0:
256,192,287915,1,0,0:0:0:0:
256,192,287998,1,0,0:0:0:0:
256,192,288082,1,8,0:0:0:0:
256,192,288415,1,8,0:0:0:0:
256,192,288748,1,0,0:0:0:0:
256,192,288915,1,8,0:0:0:0:
256,192,289082,1,8,0:0:0:0:
256,192,289415,1,8,0:0:0:0:
256,192,289582,1,0,0:0:0:0:
256,192,289748,1,8,0:0:0:0:
256,192,289915,1,8,0:0:0:0:
256,192,290082,1,0,0:0:0:0:
256,192,290165,1,8,0:0:0:0:
256,192,290248,1,8,0:0:0:0:
256,192,290415,1,0,0:0:0:0:
256,192,290498,1,0,0:0:0:0:
256,192,290582,1,8,0:0:0:0:
256,192,290748,1,8,0:0:0:0:
256,192,291082,1,0,0:0:0:0:
256,192,291415,1,8,0:0:0:0:
256,192,291582,1,0,0:0:0:0:
256,192,291748,1,0,0:0:0:0:
256,192,292082,1,8,0:0:0:0:
256,192,292248,1,8,0:0:0:0:
256,192,292415,1,0,0:0:0:0:
256,192,292582,1,0,0:0:0:0:
256,192,292748,1,0,0:0:0:0:
256,192,292832,1,0,0:0:0:0:
256,192,292915,1,8,0:0:0:0:
256,192,293082,1,8,0:0:0:0:
256,192,293165,1,0,0:0:0:0:
256,192,293248,1,8,0:0:0:0:
256,192,293332,1,0,0:0:0:0:
256,192,293415,1,8,0:0:0:0:
256,192,293748,1,8,0:0:0:0:
256,192,294082,1,0,0:0:0:0:
256,192,294248,1,0,0:0:0:0:
256,192,294415,1,8,0:0:0:0:
256,192,294748,1,0,0:0:0:0:
256,192,294915,1,8,0:0:0:0:
256,192,295082,1,8,0:0:0:0:
256,192,295248,1,8,0:0:0:0:
256,192,295582,1,8,0:0:0:0:
256,192,295748,1,8,0:0:0:0:
256,192,295915,1,0,0:0:0:0:
256,192,296082,1,8,0:0:0:0:
256,192,296165,1,8,0:0:0:0:
256,192,296248,1,0,0:0:0:0:
256,192,296332,1,0,0:0:0:0:
256,192,296415,1,0,0:0:0:0:
256,192,296498,1,0,0:0:0:0:
256,192,296582,1,0,0:0:0:0:
256,192,296665,1,0,0:0:0:0:
256,192,296748,1,0,0:0:0:0:
256,192,296832,1,0,0:0:0:0:
256,192,296915,1,0,0:0:0:0:
256,192,296998,1,0,0:0:0:0:
256,192,297082,1,8,0:0:0:0:
256,192,297165,1,8,0:0:0:0:
256,192,297248,1,0,0:0:0:0:
256,192,297332,1,0,0:0:0:0:
256,192,297415,1,0,0:0:0:0:
256,192,297498,1,0,0:0:0:0:
256,192,297582,1,0,0:0:0:0:
256,192,297665,1,0,0:0:0:0:
256,192,297748,1,0,0:0:0:0:
256,192,297832,1,0,0:0:0:0:
256,192,297915,1,0,0:0:0:0:
256,192,297998,1,0,0:0:0:0:
256,192,298082,1,8,0:0:0:0:
256,192,298248,1,8,0:0:0:0:
256,192,298415,1,0,0:0:0:0:
256,192,298748,1,0,0:0:0:0:
256,192,299082,1,8,0:0:0:0:
256,192,299415,1,0,0:0:0:0:
256,192,299582,1,8,0:0:0:0:
256,192,299748,1,8,0:0:0:0:
256,192,300082,1,0,0:0:0:0:
256,192,300248,1,8,0:0:0:0:
256,192,300415,1,8,0:0:0:0:
256,192,300582,1,0,0:0:0:0:
256,192,300748,1,0,0:0:0:0:
256,192,300832,1,0,0:0:0:0:
256,192,300915,1,8,0:0:0:0:
256,192,301082,1,0,0:0:0:0:
256,192,301165,1,8,0:0:0:0:
256,192,301248,1,0,0:0:0:0:
256,192,301415,1,0,0:0:0:0:
256,192,301748,1,8,0:0:0:0:
256,192,302082,1,0,0:0:0:0:
256,192,302248,1,8,0:0:0:0:
256,192,302415,1,8,0:0:0:0:
256,192,302748,1,0,0:0:0:0:
256,192,302915,1,8,0:0:0:0:
256,192,303082,1,8,0:0:0:0:
256,192,303248,1,0,0:0:0:0:
256,192,303415,1,0,0:0:0:0:
256,192,303498,1,8,0:0:0:0:
256,192,303582,1,8,0:0:0:0:
256,192,303748,1,0,0:0:0:0:
256,192,303832,1,0,0:0:0:0:
256,192,303915,1,8,0:0:0:0:
256,192,303998,1,8,0:0:0:0:
256,192,304082,1,0,0:0:0:0:
256,192,304415,1,8,0:0:0:0:
256,192,304748,1,0,0:0:0:0:
256,192,304915,1,8,0:0:0:0:
256,192,305082,1,0,0:0:0:0:
256,192,305415,1,0,0:0:0:0:
256,192,305582,1,8,0:0:0:0:
256,192,305748,1,8,0:0:0:0:
256,192,305915,1,0,0:0:0:0:
256,192,306082,1,8,0:0:0:0:
256,192,306165,1,0,0:0:0:0:
256,192,306248,1,8,0:0:0:0:
256,192,306415,1,0,0:0:0:0:
256,192,306498,1,0,0:0:0:0:
256,192,306582,1,8,0:0:0:0:
256,192,306748,1,0,0:0:0:0:
256,192,307082,1,8,0:0:0:0:
256,192,307415,1,0,0:0:0:0:
256,192,307582,1,8,0:0:0:0:
256,192,307748,1,8,0:0:0:0:
256,192,308082,1,0,0:0:0:0:
256,192,308248,1,8,0:0:0:0:
256,192,308415,1,8,0:0:0:0:
256,192,308582,1,0,0:0:0:0:
256,192,308748,1,8,0:0:0:0:
256,192,309082,1,0,0:0:0:0:
256,192,309165,1,0,0:0:0:0:
256,192,309248,1,0,0:0:0:0:
256,192,309332,1,0,0:0:0:0:
256,192,309415,1,8,0:0:0:0:
256,192,309748,1,8,0:0:0:0:
256,192,310082,1,0,0:0:0:0:
256,192,310248,1,8,0:0:0:0:
256,192,310415,1,8,0:0:0:0:
256,192,310748,1,8,0:0:0:0:
256,192,310915,1,0,0:0:0:0:
256,192,311082,1,8,0:0:0:0:
256,192,311248,1,8,0:0:0:0:
256,192,311415,1,8,0:0:0:0:
256,192,311498,1,8,0:0:0:0:
256,192,311582,1,0,0:0:0:0:
256,192,311748,1,8,0:0:0:0:
256,192,311832,1,0,0:0:0:0:
256,192,311915,1,0,0:0:0:0:
256,192,312082,1,8,0:0:0:0:
256,192,312415,1,0,0:0:0:0:
256,192,312748,1,8,0:0:0:0:
256,192,312915,1,0,0:0:0:0:
256,192,313082,1,0,0:0:0:0:
256,192,313415,1,8,0:0:0:0:
256,192,313582,1,0,0:0:0:0:
256,192,313748,1,0,0:0:0:0:
256,192,313915,1,8,0:0:0:0:
256,192,314082,1,0,0:0:0:0:
256,192,314165,1,0,0:0:0:0:
256,192,314248,1,8,0:0:0:0:
256,192,314415,1,0,0:0:0:0:
256,192,314498,1,8,0:0:0:0:
256,192,314582,1,0,0:0:0:0:
256,192,314665,1,8,0:0:0:0:
256,192,314748,1,0,0:0:0:0:
256,192,315082,1,8,0:0:0:0:
256,192,315415,1,0,0:0:0:0:
256,192,315582,1,0,0:0:0:0:
256,192,315748,1,8,0:0:0:0:
256,192,316082,1,0,0:0:0:0:
256,192,316248,1,8,0:0:0:0:
256,192,316415,1,8,0:0:0:0:
256,192,316582,1,0,0:0:0:0:
256,192,316748,1,8,0:0:0:0:
256,192,316915,1,8,0:0:0:0:
256,192,317082,1,0,0:0:0:0:
256,192,317249,1,8,0:0:0:0:
256,192,317415,1,8,0:0:0:0:
256,192,317498,1,0,0:0:0:0:
256,192,317582,1,8,0:0:0:0:
256,192,317748,1,0,0:0:0:0:
256,192,317832,1,0,0:0:0:0:
256,192,317915,1,8,0:0:0:0:
256,192,318082,1,0,0:0:0:0:
256,192,318165,1,8,0:0:0:0:
256,192,318248,1,8,0:0:0:0:
256,192,318415,1,8,0:0:0:0:
256,192,318498,1,8,0:0:0:0:
256,192,318582,1,8,0:0:0:0:
256,192,318748,1,0,0:0:0:0:
256,192,318832,1,0,0:0:0:0:
256,192,318915,1,8,0:0:0:0:
256,192,318998,1,8,0:0:0:0:
256,192,319082,1,8,0:0:0:0:
256,192,319248,1,0,0:0:0:0:
256,192,319332,1,8,0:0:0:0:
256,192,319415,1,8,0:0:0:0:
256,192,319498,1,8,0:0:0:0:
256,192,319582,1,8,0:0:0:0:
256,192,319665,1,8,0:0:0:0:
256,192,319748,1,8,0:0:0:0:
256,192,320082,1,0,0:0:0:0:
256,192,320415,1,0,0:0:0:0:
256,192,320748,1,8,0:0:0:0:
256,192,321082,1,0,0:0:0:0:
256,192,321415,1,0,0:0:0:0:
256,192,321748,1,0,0:0:0:0:
256,192,322082,1,8,0:0:0:0:
256,192,322415,1,0,0:0:0:0:
256,192,322748,1,0,0:0:0:0:
256,192,323082,1,0,0:0:0:0:
256,192,323415,1,8,0:0:0:0:
256,192,323748,1,0,0:0:0:0:
256,192,324082,1,0,0:0:0:0:
256,192,324415,1,0,0:0:0:0:
256,192,324748,1,8,0:0:0:0:
256,192,325082,1,0,0:0:0:0:
256,192,325415,1,0,0:0:0:0:
256,192,325748,1,0,0:0:0:0:
256,192,326082,1,8,0:0:0:0:
256,192,326415,1,0,0:0:0:0:
256,192,326748,1,0,0:0:0:0:
256,192,327082,1,0,0:0:0:0:
256,192,327415,1,8,0:0:0:0:
256,192,327748,1,0,0:0:0:0:
256,192,328082,1,0,0:0:0:0:
256,192,328415,1,0,0:0:0:0:
256,192,328748,1,8,0:0:0:0:
256,192,329082,1,0,0:0:0:0:
256,192,329415,1,0,0:0:0:0:
256,192,329748,1,0,0:0:0:0:
256,192,330082,1,8,0:0:0:0:
256,192,330415,1,0,0:0:0:0:
256,192,330748,1,0,0:0:0:0:
256,192,331081,1,0,0:0:0:0:
256,192,331415,1,8,0:0:0:0:
256,192,331748,1,0,0:0:0:0:
256,192,332081,1,0,0:0:0:0:
256,192,332414,1,0,0:0:0:0:
256,192,332748,1,8,0:0:0:0:
256,192,333082,1,0,0:0:0:0:
256,192,333415,1,0,0:0:0:0:
256,192,333748,1,0,0:0:0:0:
256,192,334082,1,8,0:0:0:0:
256,192,334415,1,0,0:0:0:0:
256,192,334748,1,0,0:0:0:0:
256,192,335081,1,0,0:0:0:0:
256,192,335415,1,8,0:0:0:0:
256,192,335748,1,0,0:0:0:0:
256,192,336081,1,0,0:0:0:0:
256,192,336414,1,0,0:0:0:0:
256,192,336748,1,8,0:0:0:0:
256,192,337082,1,0,0:0:0:0:
256,192,337415,1,0,0:0:0:0:
256,192,337748,1,0,0:0:0:0:
256,192,338082,1,8,0:0:0:0:
256,192,338415,1,0,0:0:0:0:
256,192,338748,1,0,0:0:0:0:
256,192,339081,1,0,0:0:0:0:
256,192,339415,1,8,0:0:0:0:
256,192,339748,1,0,0:0:0:0:
256,192,340081,1,0,0:0:0:0:
256,192,340414,1,0,0:0:0:0:
256,192,340748,1,8,0:0:0:0:
256,192,341082,1,0,0:0:0:0:
256,192,341415,1,0,0:0:0:0:
256,192,341748,1,0,0:0:0:0:
256,192,342082,1,8,0:0:0:0:
256,192,342415,1,0,0:0:0:0:
256,192,342748,1,0,0:0:0:0:
256,192,343081,1,0,0:0:0:0:
256,192,343415,1,8,0:0:0:0:
256,192,343748,1,8,0:0:0:0:
256,192,344081,1,0,0:0:0:0:
256,192,344414,1,0,0:0:0:0:
256,192,344748,1,8,0:0:0:0:
256,192,345082,1,0,0:0:0:0:
256,192,345415,1,0,0:0:0:0:
256,192,345748,1,0,0:0:0:0:
256,192,346082,1,8,0:0:0:0:
256,192,346415,1,0,0:0:0:0:
256,192,346748,1,8,0:0:0:0:
256,192,347081,1,8,0:0:0:0:
256,192,347415,1,0,0:0:0:0:
256,192,347748,1,0,0:0:0:0:
256,192,348082,1,8,0:0:0:0:
256,192,348415,1,8,0:0:0:0:
256,192,348748,1,0,0:0:0:0:
256,192,349082,1,0,0:0:0:0:
256,192,349415,1,8,0:0:0:0:
256,192,349748,1,0,0:0:0:0:
256,192,350082,1,8,0:0:0:0:
256,192,350415,1,8,0:0:0:0:
256,192,350748,1,0,0:0:0:0:
256,192,351082,1,0,0:0:0:0:
256,192,351415,1,8,0:0:0:0:
256,192,351748,1,8,0:0:0:0:
256,192,352082,1,0,0:0:0:0:
256,192,352415,1,0,0:0:0:0:
256,192,352748,1,8,0:0:0:0:
256,192,353082,1,0,0:0:0:0:
256,192,353415,1,0,0:0:0:0:
256,192,353748,1,0,0:0:0:0:
256,192,354082,1,8,0:0:0:0:
256,192,354415,1,0,0:0:0:0:
256,192,354748,1,0,0:0:0:0:
256,192,355082,1,0,0:0:0:0:
256,192,355415,1,8,0:0:0:0:
256,192,355748,1,0,0:0:0:0:
256,192,356081,1,0,0:0:0:0:
256,192,356414,1,0,0:0:0:0:
256,192,356748,1,8,0:0:0:0:
256,192,357082,1,8,0:0:0:0:
256,192,357415,1,0,0:0:0:0:
256,192,357748,1,0,0:0:0:0:
256,192,358082,1,8,0:0:0:0:
256,192,358415,1,8,0:0:0:0:
256,192,358748,1,0,0:0:0:0:
256,192,359082,1,0,0:0:0:0:
256,192,359415,1,8,0:0:0:0:
256,192,359748,1,8,0:0:0:0:
256,192,360082,1,0,0:0:0:0:
256,192,360415,1,0,0:0:0:0:
256,192,360748,1,8,0:0:0:0:
256,192,361082,1,8,0:0:0:0:
256,192,361415,1,0,0:0:0:0:
256,192,361748,1,0,0:0:0:0:
256,192,362082,1,8,0:0:0:0:
256,192,362415,1,8,0:0:0:0:
256,192,362748,1,0,0:0:0:0:
256,192,362915,1,0,0:0:0:0:
256,192,363082,1,8,0:0:0:0:
256,192,363415,1,0,0:0:0:0:
256,192,363748,12,0,365748,0:0:0:0:
