osu file format v14

[General]
AudioFilename: audio.mp3
AudioLeadIn: 0
PreviewTime: 196807
Countdown: 0
SampleSet: None
StackLeniency: 0.7
Mode: 0
LetterboxInBreaks: 0
WidescreenStoryboard: 0

[Editor]
Bookmarks: 16199,29577,42145,55118,81064,107010,119172,191334
DistanceSpacing: 0.6
BeatDivisor: 4
GridSize: 4
TimelineZoom: 1.7

[Metadata]
Title:Cheerleader
TitleUnicode:Cheerleader
Artist:Porter Robinson
ArtistUnicode:Porter Robinson
Creator:bubtrub
Version:!!!
Source:
Tags:
BeatmapID:4537629
BeatmapSetID:2153547

[Difficulty]
HPDrainRate:5.4
CircleSize:3.9
OverallDifficulty:7.2
ApproachRate:9.3
SliderMultiplier:2
SliderTickRate:1

[Events]
//Background and Video events
0,0,"bg.png",0,0
//Break Periods
//Storyboard Layer 0 (Background)
//Storyboard Layer 1 (Fail)
//Storyboard Layer 2 (Pass)
//Storyboard Layer 3 (Foreground)
//Storyboard Layer 4 (Overlay)
//Storyboard Sound Samples

[TimingPoints]
1605,405.405405405405,4,2,1,90,1,0
3226,-83.3333333333333,4,2,1,90,0,0
16199,-83.3333333333333,4,2,1,85,0,0
42145,-83.3333333333333,4,2,1,80,0,0
53496,-83.3333333333333,4,2,1,100,0,0
55118,-45.4545454545455,4,2,1,100,0,1
68091,-38.4615384615385,4,2,1,100,0,1
68902,-45.4545454545455,4,2,1,100,0,1
74577,-35.7142857142857,4,2,1,100,0,1
75388,-45.4545454545455,4,2,1,100,0,1
81064,-100,4,2,1,85,0,0
107010,-100,4,2,1,80,0,0
113496,-100,4,2,1,90,0,0
118361,-100,4,2,1,100,0,0
119172,-200,4,2,1,100,0,0
119983,-41.6666666666667,4,2,1,100,0,1
145929,-166.666666666667,4,2,1,40,0,0
155659,-333.333333333333,4,2,1,40,0,0
157077,-250,4,2,1,40,0,0
158294,-333.333333333333,4,2,1,40,0,0
158902,-200,4,2,1,40,0,0
171875,-333.333333333333,4,2,1,40,0,0
174915,-285.714285714286,4,2,1,40,0,0
178361,-222.222222222222,4,2,1,40,0,0
184240,-100,4,2,1,85,0,0
184442,-166.666666666667,4,2,1,85,0,0
184848,-250,4,2,1,85,0,0
187888,-200,4,2,1,85,0,0
190929,-111.111111111111,4,2,1,85,0,0
191334,-38.4615384615385,4,2,1,100,0,1
210794,-1000,4,2,1,100,0,1
211199,-76.9230769230769,4,2,1,100,0,1
223767,-58.8235294117647,4,2,1,100,0,1
236334,-100,4,2,1,100,0,0

[HitObjects]
374,157,3226,6,0,P|318:99|259:78,1,119.999996337891,6|0,0:0|0:0,0:0:0:0:
300,252,3632,2,0,P|338:297|391:325,1,119.999996337891,10|0,0:0|0:0,0:0:0:0:
388,41,4037,1,2,0:0:0:0:
512,105,4240,1,2,0:0:0:0:
400,267,4442,1,10,0:0:0:0:
400,267,4645,2,0,P|333:250|274:263,1,119.999996337891,2|0,0:0|0:0,0:0:0:0:
56,337,5050,5,0,0:0:0:0:
192,150,5253,2,0,P|244:196|297:204,1,119.999996337891,8|0,0:0|0:0,0:0:0:0:
315,54,5659,1,0,0:0:0:0:
486,107,5861,1,0,0:0:0:0:
355,294,6064,1,8,0:0:0:0:
355,294,6267,1,0,0:0:0:0:
197,64,6469,5,2,0:0:0:0:
3,173,6672,1,2,0:0:0:0:
215,300,6875,1,10,0:0:0:0:
94,18,7077,1,2,0:0:0:0:
39,274,7280,2,0,B|114:249|81:297|156:270,1,119.999996337891,6|0,0:0|0:0,0:0:0:0:
308,73,7686,1,10,0:0:0:0:
308,73,7888,2,0,P|346:141|337:184,1,119.999996337891,6|0,0:0|0:0,0:0:0:0:
247,313,8294,5,0,0:0:0:0:
111,88,8496,2,0,P|52:143|50:187,1,119.999996337891,8|0,0:0|0:0,0:0:0:0:
264,62,8902,1,0,0:0:0:0:
302,222,9104,1,0,0:0:0:0:
347,25,9307,1,8,0:0:0:0:
413,258,9510,1,0,0:0:0:0:
89,307,9713,6,0,B|98:295|105:273|105:273|78:258|78:258|94:228|82:194,1,119.999996337891,2|0,0:0|0:0,0:0:0:0:
199,67,10118,2,0,B|207:86|191:116|191:116|218:131|218:131|211:153|202:165,1,119.999996337891,10|0,0:0|0:0,0:0:0:0:
262,350,10523,1,2,0:0:0:0:
468,308,10726,1,2,0:0:0:0:
340,278,10929,1,10,0:0:0:0:
484,192,11132,2,0,P|469:129|396:78,1,119.999996337891,2|0,0:0|0:0,0:0:0:0:
220,205,11537,5,0,0:0:0:0:
220,205,11740,2,0,P|277:172|335:180,1,119.999996337891,8|0,0:0|0:0,0:0:0:0:
486,258,12145,1,0,0:0:0:0:
371,345,12348,1,0,0:0:0:0:
197,250,12550,1,8,0:0:0:0:
82,337,12753,1,0,0:0:0:0:
185,78,12956,5,2,0:0:0:0:
309,239,13159,1,2,0:0:0:0:
358,62,13361,1,10,0:0:0:0:
88,200,13564,1,2,0:0:0:0:
470,168,13767,2,0,B|461:179|461:179|482:197|482:197|455:214|455:214|487:237|464:272,1,119.999996337891,6|0,0:0|0:0,0:0:0:0:
303,30,14172,1,10,0:0:0:0:
303,30,14375,2,0,P|243:58|229:117,1,119.999996337891,6|0,0:0|0:0,0:0:0:0:
147,238,14780,5,0,0:0:0:0:
147,238,14983,2,0,B|217:202|178:268|260:231,1,119.999996337891,8|0,0:0|0:0,0:0:0:0:
302,83,15388,1,8,0:0:0:0:
347,273,15591,1,8,0:0:0:0:
194,84,15794,1,8,0:0:0:0:
151,323,15996,1,8,0:0:0:0:
416,187,16199,5,14,0:0:0:0:
262,78,16604,1,10,0:0:0:0:
32,248,17213,5,0,0:0:0:0:
144,208,17415,1,8,0:0:0:0:
256,248,17618,1,2,0:0:0:0:
308,59,18023,5,2,0:0:0:0:
405,104,18226,1,10,0:0:0:0:
281,166,18429,1,2,0:0:0:0:
411,310,18632,2,0,B|360:276|360:276|304:300|304:300|300:312|300:312|288:308|288:308|242:331,2,179.999994506836,2|2|2,0:0|0:0|0:0,0:0:0:0:
269,189,19442,2,0,P|219:142|147:133,1,119.999996337891,2|0,0:0|0:0,0:0:0:0:
351,37,19848,2,0,P|382:76|452:84,1,119.999996337891,10|0,0:0|0:0,0:0:0:0:
468,285,20456,5,0,0:0:0:0:
356,245,20659,1,8,0:0:0:0:
244,285,20861,1,0,0:0:0:0:
137,105,21267,5,0,0:0:0:0:
42,267,21469,1,8,0:0:0:0:
252,76,21672,1,8,0:0:0:0:
212,64,21773,1,8,0:0:0:0:
172,52,21875,1,8,0:0:0:0:
132,40,21976,1,8,0:0:0:0:
92,28,22077,1,8,0:0:0:0:
100,196,22280,6,0,L|128:248,1,59.9999981689454,10|0,0:0|0:0,0:0:0:0:
136,264,22483,1,10,0:0:0:0:
317,84,22686,1,2,0:0:0:0:
317,84,23091,1,10,0:0:0:0:
325,334,23699,5,2,0:0:0:0:
461,215,23902,1,8,0:0:0:0:
233,194,24104,1,2,0:0:0:0:
233,194,24510,5,2,0:0:0:0:
359,74,24713,1,8,0:0:0:0:
106,43,24915,1,2,0:0:0:0:
157,170,25118,5,2,0:0:0:0:
59,127,25422,1,2,0:0:0:0:
51,235,25726,1,2,0:0:0:0:
148,351,25929,6,0,B|166:333|166:333|190:340|190:340|205:319|205:319|228:324|228:324|242:305|242:305|266:308|266:308|326:238|295:88,1,359.999989013672,2|0,0:0|0:0,0:0:0:0:
148,150,26740,1,2,0:0:0:0:
381,42,26942,1,2,0:0:0:0:
175,88,27145,1,8,0:0:0:0:
310,25,27348,2,0,P|292:95|334:134,1,119.999996337891,2|0,0:0|0:0,0:0:0:0:
410,78,27753,5,0,0:0:0:0:
467,238,27956,1,8,0:0:0:0:
293,280,28159,1,8,0:0:0:0:
293,280,28260,1,0,0:0:0:0:
293,280,28361,1,8,0:0:0:0:
120,126,28564,1,10,0:0:0:0:
343,89,28767,5,10,0:0:0:0:
332,124,28868,1,8,0:0:0:0:
311,153,28969,1,10,0:0:0:0:
278,169,29071,1,8,0:0:0:0:
242,176,29172,1,14,0:0:0:0:
138,36,29375,2,0,L|200:49,1,59.9999981689454,8|8,0:0|0:0,0:0:0:0:
116,32,29577,1,10,0:0:0:0:
361,186,29983,5,8,0:0:0:0:
206,147,30186,1,2,0:0:0:0:
143,231,30388,1,10,0:0:0:0:
434,297,30591,2,0,P|394:252|336:243,1,119.999996337891,2|8,0:0|0:0,0:0:0:0:
311,294,30996,2,0,P|350:338|408:347,1,119.999996337891,2|8,0:0|0:0,0:0:0:0:
450,46,31402,5,0,0:0:0:0:
257,71,31604,1,8,0:0:0:0:
257,71,31807,1,2,0:0:0:0:
438,141,32010,5,10,0:0:0:0:
177,167,32213,1,2,0:0:0:0:
45,49,32618,5,2,0:0:0:0:
187,83,32821,1,10,0:0:0:0:
52,248,33023,1,2,0:0:0:0:
52,248,33125,1,0,0:0:0:0:
52,248,33226,1,10,0:0:0:0:
362,123,33429,5,0,0:0:0:0:
199,263,33632,1,10,0:0:0:0:
236,82,33834,2,0,P|305:41|372:33,1,119.999996337891,2|8,0:0|0:0,0:0:0:0:
457,221,34240,1,2,0:0:0:0:
299,157,34442,1,8,0:0:0:0:
276,359,34645,1,0,0:0:0:0:
60,132,34848,5,8,0:0:0:0:
209,79,35050,1,2,0:0:0:0:
39,302,35253,1,8,0:0:0:0:
231,361,35456,1,2,0:0:0:0:
231,361,35557,1,0,0:0:0:0:
231,361,35659,1,8,0:0:0:0:
288,145,35861,1,0,0:0:0:0:
288,145,36064,2,0,P|347:168|415:142,1,119.999996337891,8|0,0:0|0:0,0:0:0:0:
258,39,36672,6,0,L|156:102,1,119.999996337891,2|8,0:0|0:0,0:0:0:0:
41,38,37077,1,2,0:0:0:0:
41,38,37483,1,2,0:0:0:0:
50,236,38091,5,8,0:0:0:0:
50,236,38294,2,0,B|104:200|104:200|164:232,1,119.999996337891,2|10,0:0|0:0,0:0:0:0:
287,113,38699,1,2,0:0:0:0:
459,315,39104,5,2,0:0:0:0:
329,196,39307,1,10,0:0:0:0:
267,338,39510,1,2,0:0:0:0:
452,207,39713,2,0,P|478:139|451:72,1,119.999996337891,10|0,0:0|0:0,0:0:0:0:
288,73,40118,1,10,0:0:0:0:
288,73,40321,2,0,P|295:168|244:206,1,119.999996337891,2|8,0:0|0:0,0:0:0:0:
165,79,40726,1,0,0:0:0:0:
51,221,40929,1,8,0:0:0:0:
214,298,41132,2,0,B|231:281|231:281|257:293|257:293|272:273|272:273|302:278|333:257,1,119.999996337891,2|8,0:0|0:0,0:0:0:0:
300,125,41537,5,2,0:0:0:0:
474,180,41740,1,10,0:0:0:0:
438,49,41942,1,0,0:0:0:0:
438,49,42044,1,0,0:0:0:0:
438,49,42145,1,12,0:0:0:0:
338,142,42550,1,8,0:0:0:0:
222,102,42956,1,8,0:0:0:0:
154,161,43361,1,8,0:0:0:0:
79,240,43767,5,8,0:0:0:0:
235,317,44172,1,8,0:0:0:0:
320,271,44577,1,8,0:0:0:0:
272,222,44983,1,8,0:0:0:0:
211,92,45388,5,8,0:0:0:0:
152,135,45794,1,8,0:0:0:0:
275,227,46199,1,8,0:0:0:0:
440,36,46604,1,8,0:0:0:0:
451,238,47010,5,8,0:0:0:0:
351,136,47213,1,2,0:0:0:0:
293,309,47415,1,10,0:0:0:0:
130,240,47618,1,2,0:0:0:0:
130,240,48023,5,0,0:0:0:0:
290,113,48226,1,10,0:0:0:0:
407,344,48429,1,2,0:0:0:0:
254,304,48632,5,10,0:0:0:0:
43,171,49037,1,8,0:0:0:0:
147,128,49442,1,8,0:0:0:0:
328,40,49848,5,8,0:0:0:0:
414,214,50050,1,2,0:0:0:0:
219,133,50253,1,8,0:0:0:0:
183,204,50659,1,8,0:0:0:0:
278,285,51064,1,8,0:0:0:0:
33,317,51469,5,8,0:0:0:0:
274,339,51672,1,2,0:0:0:0:
379,124,51875,1,8,0:0:0:0:
186,205,52077,1,0,0:0:0:0:
91,17,52280,1,8,0:0:0:0:
392,71,52686,5,8,0:0:0:0:
481,150,52888,1,0,0:0:0:0:
339,292,53091,2,0,P|405:232|439:236,1,119.999996337891,8|0,0:0|0:0,0:0:0:0:
302,123,53496,5,8,0:0:0:0:
302,123,53598,1,8,0:0:0:0:
302,123,53699,1,8,0:0:0:0:
120,133,53902,1,8,0:0:0:0:
62,298,54104,5,8,0:0:0:0:
62,298,54206,1,8,0:0:0:0:
62,298,54307,1,8,0:0:0:0:
185,79,54510,5,2,0:0:0:0:
262,342,54713,1,2,0:0:0:0:
366,38,54915,1,0,0:0:0:0:
414,325,55118,6,0,P|445:245|443:102,1,220.000006713867,14|0,0:0|0:0,0:0:0:0:
282,230,55523,2,0,P|313:150|311:7,1,220.000006713867,8|0,0:0|0:0,0:0:0:0:
233,364,55929,1,8,0:0:0:0:
100,76,56132,1,0,0:0:0:0:
57,313,56334,1,8,0:0:0:0:
233,41,56537,2,0,P|298:191|267:210,1,220.000006713867,0|8,0:0|0:0,0:0:0:0:
123,252,56942,1,0,0:0:0:0:
415,229,57145,2,0,P|366:323|261:336,1,220.000006713867,8|0,0:0|0:0,0:0:0:0:
200,63,57550,5,8,0:0:0:0:
57,145,57753,1,2,0:0:0:0:
186,337,57956,1,8,0:0:0:0:
363,121,58159,1,2,0:0:0:0:
342,340,58361,5,8,0:0:0:0:
164,184,58564,1,0,0:0:0:0:
49,317,58767,1,8,0:0:0:0:
456,202,58969,1,0,0:0:0:0:
199,29,59172,2,0,B|208:49|208:49|184:68|184:68|205:90|205:90|182:104|182:104|216:139|223:180|195:226,1,220.000006713867,8|2,0:0|0:0,0:0:0:0:
349,339,59577,1,10,0:0:0:0:
446,128,59780,6,0,P|327:100|296:181,1,220.000006713867,2|8,0:0|0:0,0:0:0:0:
92,318,60186,1,2,0:0:0:0:
66,58,60388,1,10,0:0:0:0:
245,325,60591,1,2,0:0:0:0:
5,166,60794,1,10,0:0:0:0:
238,31,60996,1,2,0:0:0:0:
331,305,61199,1,10,0:0:0:0:
331,305,61604,6,0,P|359:174|321:57,1,220.000006713867,8|0,0:0|0:0,0:0:0:0:
119,230,62010,2,0,P|147:99|109:-18,1,220.000006713867,10|0,0:0|0:0,0:0:0:0:
452,60,62415,1,8,0:0:0:0:
217,152,62618,1,0,0:0:0:0:
445,234,62821,1,8,0:0:0:0:
33,185,63023,2,0,P|67:297|156:333,1,220.000006713867,0|8,0:0|0:0,0:0:0:0:
150,65,63429,1,0,0:0:0:0:
335,113,63632,2,0,B|348:129|348:129|325:134|325:134|346:149|346:149|323:154|323:154|334:218|293:266|243:280,1,220.000006713867,8|0,0:0|0:0,0:0:0:0:
56,67,64037,5,8,0:0:0:0:
180,277,64240,1,0,0:0:0:0:
267,34,64442,1,8,0:0:0:0:
267,34,64645,1,0,0:0:0:0:
287,318,64848,5,8,0:0:0:0:
445,206,65050,1,0,0:0:0:0:
241,145,65253,1,8,0:0:0:0:
406,361,65456,1,0,0:0:0:0:
293,37,65659,2,0,P|140:58|78:117,1,220.000006713867,8|0,0:0|0:0,0:0:0:0:
30,221,66064,1,8,0:0:0:0:
288,160,66267,2,0,P|167:256|144:339,1,220.000006713867,0|8,0:0|0:0,0:0:0:0:
159,111,66672,5,0,0:0:0:0:
159,111,66875,2,0,P|240:52|388:63,1,220.000006713867,8|2,0:0|0:0,0:0:0:0:
453,136,67280,1,8,0:0:0:0:
268,161,67483,1,2,0:0:0:0:
417,363,67686,1,8,0:0:0:0:
353,105,67888,1,8,0:0:0:0:
244,318,68091,6,0,P|181:163|214:58,1,259.999988098145,10|0,0:0|0:0,0:0:0:0:
98,270,68496,2,0,P|35:115|68:10,1,259.999988098145,8|0,0:0|0:0,0:0:0:0:
399,38,68902,1,8,0:0:0:0:
160,159,69104,1,0,0:0:0:0:
475,149,69307,1,8,0:0:0:0:
211,337,69510,6,0,B|336:349|336:349|436:259,1,220.000006713867,0|10,0:0|0:0,0:0:0:0:
391,92,69915,1,0,0:0:0:0:
246,270,70118,2,0,P|142:139|155:106,1,220.000006713867,8|2,0:0|0:0,0:0:0:0:
475,106,70523,5,8,0:0:0:0:
164,33,70726,1,2,0:0:0:0:
47,128,70929,1,8,0:0:0:0:
47,128,71132,1,2,0:0:0:0:
215,320,71334,5,10,0:0:0:0:
467,159,71537,1,2,0:0:0:0:
234,60,71740,1,8,0:0:0:0:
415,348,71942,1,0,0:0:0:0:
381,63,72145,2,0,B|321:43|321:43|217:186,1,220.000006713867,8|2,0:0|0:0,0:0:0:0:
84,20,72550,5,10,0:0:0:0:
216,297,72753,2,0,P|108:292|23:226,1,220.000006713867,2|8,0:0|0:0,0:0:0:0:
225,120,73159,1,0,0:0:0:0:
358,332,73361,1,10,0:0:0:0:
358,332,73564,1,2,0:0:0:0:
111,88,73767,5,10,0:0:0:0:
227,215,73969,1,2,0:0:0:0:
232,35,74172,1,10,0:0:0:0:
370,246,74375,1,0,0:0:0:0:
114,356,74577,6,0,P|51:236|81:73,1,279.999991455078,8|0,0:0|0:0,0:0:0:0:
248,294,74983,2,0,P|185:174|215:11,1,279.999991455078,10|2,0:0|0:0,0:0:0:0:
303,76,75388,5,8,0:0:0:0:
382,345,75591,1,0,0:0:0:0:
478,27,75794,1,8,0:0:0:0:
478,27,75996,2,0,P|336:73|325:39,1,220.000006713867,0|8,0:0|0:0,0:0:0:0:
157,231,76402,1,0,0:0:0:0:
157,231,76604,2,0,P|299:185|310:219,1,220.000006713867,8|0,0:0|0:0,0:0:0:0:
464,162,77010,5,8,0:0:0:0:
329,309,77213,1,0,0:0:0:0:
436,93,77415,1,8,0:0:0:0:
436,93,77618,1,0,0:0:0:0:
245,56,77821,5,8,0:0:0:0:
206,308,78023,1,0,0:0:0:0:
36,90,78226,1,8,0:0:0:0:
354,171,78429,1,0,0:0:0:0:
50,268,78632,2,0,P|115:165|225:128,1,220.000006713867,8|0,0:0|0:0,0:0:0:0:
132,30,79037,1,8,0:0:0:0:
350,186,79240,2,0,P|251:230|197:324,1,220.000006713867,0|8,0:0|0:0,0:0:0:0:
210,62,79645,5,0,0:0:0:0:
409,262,79848,2,0,P|461:126|401:82,1,220.000006713867,8|0,0:0|0:0,0:0:0:0:
152,108,80253,1,8,0:0:0:0:
67,271,80456,1,10,0:0:0:0:
285,200,80659,1,10,0:0:0:0:
380,363,80861,1,10,0:0:0:0:
183,278,81064,5,6,0:0:0:0:
388,251,81469,1,10,0:0:0:0:
407,142,81875,5,0,0:0:0:0:
246,220,82077,1,0,0:0:0:0:
246,220,82280,1,10,0:0:0:0:
318,113,82483,2,0,B|252:74|277:125|202:89,1,100,2|0,0:0|0:0,0:0:0:0:
97,86,82888,1,2,0:0:0:0:
36,185,83091,1,10,0:0:0:0:
188,185,83294,1,2,0:0:0:0:
127,284,83496,1,2,0:0:0:0:
127,284,83699,6,0,P|189:263|239:282,1,100,2|10,0:0|0:0,0:0:0:0:
287,198,84104,1,2,0:0:0:0:
340,338,84307,2,0,P|395:328|429:302,1,100,2|0,0:0|0:0,0:0:0:0:
474,234,84713,2,0,P|477:175|452:132,1,100,10|0,0:0|0:0,0:0:0:0:
280,154,85118,1,0,0:0:0:0:
385,247,85321,2,0,B|375:242|375:242|366:248|366:248|358:242|358:242|349:246|349:246|339:242|339:242|310:260|259:238,1,100,0|8,0:0|0:0,0:0:0:0:
179,165,85726,6,0,P|146:214|149:260,1,100
336,183,86132,1,0,0:0:0:0:
243,55,86334,1,8,0:0:0:0:
61,98,86537,2,0,B|68:87|68:87|82:87|82:87|91:71|91:71|108:68|108:68|116:52|116:52|134:49|134:49|138:41,1,100
130,212,86942,1,2,0:0:0:0:
236,109,87145,1,10,0:0:0:0:
236,109,87348,1,0,0:0:0:0:
322,246,87550,6,0,P|374:238|401:183,1,100,6|0,0:0|0:0,0:0:0:0:
477,194,87956,2,0,P|478:141|428:105,1,100,14|0,0:0|0:0,0:0:0:0:
319,150,88361,1,0,0:0:0:0:
210,76,88564,1,2,0:0:0:0:
185,243,88767,1,10,0:0:0:0:
185,243,88969,2,0,B|249:229|222:283|306:259,1,100,2|0,0:0|0:0,0:0:0:0:
464,187,89375,5,0,0:0:0:0:
396,330,89577,1,10,0:0:0:0:
301,155,89780,1,2,0:0:0:0:
187,327,89983,2,0,B|93:275|93:275|49:289,2,150,2|2|2,0:0|0:0|0:0,0:0:0:0:
260,176,90794,6,0,B|244:170|244:170|229:176|229:176|207:167|207:167|184:172|184:172|158:103|194:56,1,200,2|8,0:0|0:0,0:0:0:0:
366,101,91402,2,0,B|390:107|390:107|408:133|408:133|378:157|361:233|403:284,1,200,2|0,0:0|0:0,0:0:0:0:
315,344,92010,5,8,0:0:0:0:
176,266,92213,1,8,0:0:0:0:
176,266,92314,1,8,0:0:0:0:
176,266,92415,1,12,0:0:0:0:
64,329,92618,6,0,L|40:346,4,25,8|8|8|8|12,0:0|0:0|0:0|0:0|0:0,0:0:0:0:
59,178,93023,1,8,0:0:0:0:
80,156,93125,1,8,0:0:0:0:
107,145,93226,1,12,0:0:0:0:
200,262,93429,5,10,0:0:0:0:
287,127,93632,1,14,0:0:0:0:
316,132,93733,1,8,0:0:0:0:
341,147,93834,1,10,0:0:0:0:
361,169,93936,1,8,0:0:0:0:
372,196,94037,1,14,0:0:0:0:
468,112,94240,1,2,0:0:0:0:
478,306,94442,2,0,P|429:344|362:338,1,100,10|0,0:0|0:0,0:0:0:0:
201,185,94848,5,8,0:0:0:0:
117,324,95050,1,2,0:0:0:0:
91,111,95253,1,10,0:0:0:0:
91,111,95456,2,0,P|142:76|209:69,1,100,2|8,0:0|0:0,0:0:0:0:
162,240,95861,1,2,0:0:0:0:
162,240,96064,2,0,P|231:251|271:289,1,100,8|0,0:0|0:0,0:0:0:0:
315,101,96469,5,8,0:0:0:0:
394,283,96672,1,2,0:0:0:0:
294,104,96875,1,10,0:0:0:0:
475,137,97077,2,0,P|457:69|411:51,1,100,2|8,0:0|0:0,0:0:0:0:
276,48,97483,5,2,0:0:0:0:
381,165,97686,1,10,0:0:0:0:
232,271,97888,1,2,0:0:0:0:
358,220,98091,2,0,P|317:188|262:175,1,100,10|0,0:0|0:0,0:0:0:0:
156,338,98496,1,10,0:0:0:0:
89,156,98699,2,0,B|123:115|166:102|169:105|170:101|183:102,1,100,2|8,0:0|0:0,0:0:0:0:
240,265,99104,5,2,0:0:0:0:
326,95,99307,1,8,0:0:0:0:
240,265,99510,2,0,P|190:195|188:164,1,100,0|8,0:0|0:0,0:0:0:0:
318,195,99915,2,0,P|353:236|356:290,2,100,2|10|2,0:0|0:0|0:0,0:0:0:0:
212,113,100523,5,8,0:0:0:0:
63,134,100726,1,0,0:0:0:0:
115,285,100929,1,8,0:0:0:0:
311,138,101537,6,0,P|336:190|331:248,1,100,2|8,0:0|0:0,0:0:0:0:
181,178,101942,2,0,B|123:149|137:207|58:157,1,100,2|8,0:0|0:0,0:0:0:0:
244,63,102348,1,2,0:0:0:0:
392,128,102550,1,8,0:0:0:0:
278,258,102956,6,0,B|271:310|271:310|228:280,1,100,8|0,0:0|0:0,0:0:0:0:
75,232,103361,1,10,0:0:0:0:
75,232,103564,2,0,P|30:178|36:138,1,100,2|8,0:0|0:0,0:0:0:0:
200,102,103969,1,2,0:0:0:0:
280,184,104172,1,10,0:0:0:0:
146,264,104375,1,2,0:0:0:0:
306,353,104577,6,0,B|354:325|354:325|408:356,1,100,10|0,0:0|0:0,0:0:0:0:
487,265,104983,1,10,0:0:0:0:
374,187,105186,2,0,B|408:146|408:146|374:105,1,100,2|8,0:0|0:0,0:0:0:0:
221,205,105591,1,0,0:0:0:0:
136,92,105794,1,8,0:0:0:0:
292,82,105996,2,0,B|301:71|301:71|318:73|318:73|328:60|328:60|365:71|391:53|406:33,1,100,2|8,0:0|0:0,0:0:0:0:
488,164,106402,1,2,0:0:0:0:
367,307,106604,2,0,B|431:291|431:291|448:261,1,100,10|0,0:0|0:0,0:0:0:0:
340,205,107010,5,14,0:0:0:0:
155,118,107213,1,8,0:0:0:0:
185,318,107415,1,8,0:0:0:0:
295,102,107618,1,8,0:0:0:0:
320,310,107821,1,8,0:0:0:0:
87,232,108023,1,8,0:0:0:0:
227,134,108226,1,8,0:0:0:0:
378,195,108429,5,10,0:0:0:0:
416,84,108632,1,8,0:0:0:0:
416,84,108834,1,8,0:0:0:0:
234,51,109037,1,8,0:0:0:0:
234,51,109240,1,8,0:0:0:0:
129,260,109442,1,8,0:0:0:0:
220,188,109645,1,8,0:0:0:0:
273,318,109848,1,8,0:0:0:0:
298,81,110050,5,10,0:0:0:0:
408,136,110253,1,8,0:0:0:0:
264,216,110456,1,8,0:0:0:0:
237,98,110659,1,8,0:0:0:0:
404,218,110861,1,8,0:0:0:0:
348,294,111064,1,8,0:0:0:0:
308,62,111267,1,8,0:0:0:0:
469,110,111469,1,8,0:0:0:0:
135,85,111672,6,0,P|102:143|111:209,1,100,10|8,0:0|0:0,0:0:0:0:
210,179,112077,2,0,B|202:231|243:219|226:287,1,100,10|8,0:0|0:0,0:0:0:0:
421,350,112483,2,0,P|372:357|326:340,1,100,10|8,0:0|0:0,0:0:0:0:
328,81,112888,1,10,0:0:0:0:
394,213,113091,1,8,0:0:0:0:
470,30,113294,1,10,0:0:0:0:
486,317,113496,6,0,B|416:293|452:347|368:314,1,100,10|8,0:0|0:0,0:0:0:0:
199,242,113902,1,8,0:0:0:0:
299,354,114104,1,8,0:0:0:0:
127,160,114307,1,8,0:0:0:0:
64,309,114510,1,8,0:0:0:0:
32,111,114713,1,8,0:0:0:0:
169,38,114915,6,0,B|174:93|215:68|219:141,1,100,10|8,0:0|0:0,0:0:0:0:
243,293,115321,1,8,0:0:0:0:
337,200,115523,1,8,0:0:0:0:
440,320,115726,1,8,0:0:0:0:
455,142,115929,5,8,0:0:0:0:
265,73,116132,1,8,0:0:0:0:
173,209,116334,1,8,0:0:0:0:
420,228,116537,6,0,P|454:184|452:132,1,100,10|8,0:0|0:0,0:0:0:0:
346,73,116942,1,8,0:0:0:0:
175,139,117145,1,8,0:0:0:0:
271,38,117348,1,8,0:0:0:0:
224,250,117550,1,8,0:0:0:0:
70,26,117753,1,8,0:0:0:0:
370,100,117956,1,8,0:0:0:0:
12,240,118159,1,8,0:0:0:0:
341,314,118361,5,8,0:0:0:0:
341,314,118463,1,8,0:0:0:0:
341,314,118564,1,8,0:0:0:0:
174,198,118767,1,8,0:0:0:0:
376,139,118969,1,8,0:0:0:0:
376,139,119071,1,8,0:0:0:0:
376,139,119172,2,0,L|412:166,1,25,8|0,0:0|0:0,0:0:0:0:
431,182,119375,5,2,0:0:0:0:
458,308,119577,2,0,L|397:330,1,50,2|0,0:0|0:0,0:0:0:0:
300,281,119983,6,0,B|219:190|219:190|248:54,1,239.999992675781,14|0,0:0|0:0,0:0:0:0:
168,309,120388,2,0,B|87:218|87:218|111:102,1,239.999992675781,8|0,0:0|0:0,0:0:0:0:
334,311,120794,5,8,0:0:0:0:
491,146,120996,1,0,0:0:0:0:
254,77,121199,1,8,0:0:0:0:
459,316,121402,2,0,B|383:212|383:212|264:214,1,239.999992675781,0|8,0:0|0:0,0:0:0:0:
321,356,121807,1,0,0:0:0:0:
59,226,122010,2,0,B|119:331|119:331|276:341,1,239.999992675781,8|0,0:0|0:0,0:0:0:0:
147,88,122415,5,8,0:0:0:0:
245,193,122618,1,2,0:0:0:0:
340,25,122821,1,8,0:0:0:0:
340,25,123023,2,0,P|418:116|393:252,1,239.999992675781,2|8,0:0|0:0,0:0:0:0:
147,42,123429,5,0,0:0:0:0:
338,149,123632,1,8,0:0:0:0:
10,223,123834,1,0,0:0:0:0:
369,323,124037,2,0,P|195:264|167:177,1,239.999992675781,8|2,0:0|0:0,0:0:0:0:
419,56,124442,1,10,0:0:0:0:
147,54,124645,2,0,P|256:127|273:242,1,239.999992675781,2|8,0:0|0:0,0:0:0:0:
332,67,125050,5,2,0:0:0:0:
476,307,125253,1,10,0:0:0:0:
216,148,125456,1,2,0:0:0:0:
468,77,125659,1,10,0:0:0:0:
257,307,125861,1,2,0:0:0:0:
257,307,126064,2,0,P|107:296|92:233,1,239.999992675781,10|0,0:0|0:0,0:0:0:0:
194,218,126469,6,0,B|216:94|216:94|349:43,1,239.999992675781,8|0,0:0|0:0,0:0:0:0:
289,287,126875,2,0,B|311:163|311:163|444:112,1,239.999992675781,10|2,0:0|0:0,0:0:0:0:
26,123,127280,1,8,0:0:0:0:
180,266,127483,1,0,0:0:0:0:
79,15,127686,1,8,0:0:0:0:
48,286,127888,2,0,P|156:343|285:320,1,239.999992675781,0|8,0:0|0:0,0:0:0:0:
309,73,128294,1,0,0:0:0:0:
309,73,128496,2,0,P|201:114|172:237,1,239.999992675781,8|0,0:0|0:0,0:0:0:0:
443,72,128902,5,8,0:0:0:0:
277,223,129104,1,0,0:0:0:0:
463,265,129307,1,8,0:0:0:0:
280,39,129510,1,0,0:0:0:0:
165,332,129713,5,8,0:0:0:0:
17,127,129915,1,0,0:0:0:0:
239,37,130118,1,8,0:0:0:0:
284,330,130321,1,0,0:0:0:0:
284,330,130523,2,0,B|317:323|317:323|411:279|378:125,1,239.999992675781,8|0,0:0|0:0,0:0:0:0:
170,121,130929,1,8,0:0:0:0:
170,121,131132,6,0,P|65:125|126:237,1,239.999992675781,0|8,0:0|0:0,0:0:0:0:
195,317,131537,1,8,0:0:0:0:
298,142,131740,1,0,0:0:0:0:
437,372,131942,1,10,0:0:0:0:
477,123,132145,1,8,0:0:0:0:
122,240,132348,1,10,0:0:0:0:
274,18,132550,1,8,0:0:0:0:
336,355,132753,1,8,0:0:0:0:
336,355,132854,1,8,0:0:0:0:
336,355,132956,6,0,B|422:283|422:283|401:154,1,239.999992675781,14|0,0:0|0:0,0:0:0:0:
210,304,133361,2,0,B|296:232|296:232|275:103,1,239.999992675781,8|0,0:0|0:0,0:0:0:0:
39,81,133767,1,8,0:0:0:0:
207,201,133969,1,0,0:0:0:0:
435,94,134172,1,8,0:0:0:0:
435,94,134375,2,0,P|446:248|376:282,1,239.999992675781,0|10,0:0|0:0,0:0:0:0:
239,103,134780,1,0,0:0:0:0:
84,239,134983,2,0,P|102:67|154:32,1,239.999992675781,8|2,0:0|0:0,0:0:0:0:
199,245,135388,5,8,0:0:0:0:
301,98,135591,1,2,0:0:0:0:
403,378,135794,1,8,0:0:0:0:
474,136,135996,1,2,0:0:0:0:
208,337,136199,5,10,0:0:0:0:
42,186,136402,1,2,0:0:0:0:
371,207,136604,1,8,0:0:0:0:
131,51,136807,1,0,0:0:0:0:
131,51,137010,2,0,B|293:21|192:97|385:53,1,239.999992675781,8|2,0:0|0:0,0:0:0:0:
211,173,137415,1,10,0:0:0:0:
453,281,137618,2,0,B|279:241|380:317|218:287,1,239.999992675781,2|8,0:0|0:0,0:0:0:0:
257,64,138023,5,0,0:0:0:0:
191,203,138226,1,10,0:0:0:0:
362,160,138429,1,2,0:0:0:0:
123,100,138632,5,10,0:0:0:0:
258,260,138834,1,2,0:0:0:0:
340,44,139037,2,0,B|253:129|253:129|139:72,1,239.999992675781,10|0,0:0|0:0,0:0:0:0:
340,44,139442,6,0,B|392:155|392:155|325:251,1,239.999992675781,8|0,0:0|0:0,0:0:0:0:
202,34,139848,2,0,B|254:145|254:145|187:241,1,239.999992675781,10|2,0:0|0:0,0:0:0:0:
400,300,140253,1,8,0:0:0:0:
127,337,140456,1,0,0:0:0:0:
455,162,140659,1,8,0:0:0:0:
455,162,140861,2,0,P|435:38|338:79,1,239.999992675781,0|8,0:0|0:0,0:0:0:0:
250,265,141267,1,0,0:0:0:0:
154,88,141469,2,0,P|70:74|78:197,1,239.999992675781,8|0,0:0|0:0,0:0:0:0:
249,323,141875,5,8,0:0:0:0:
259,120,142077,1,0,0:0:0:0:
421,223,142280,1,8,0:0:0:0:
120,169,142483,1,0,0:0:0:0:
53,361,142686,5,8,0:0:0:0:
237,253,142888,1,0,0:0:0:0:
103,62,143091,1,8,0:0:0:0:
388,182,143294,1,0,0:0:0:0:
259,41,143496,2,0,P|395:51|466:126,1,239.999992675781,8|0,0:0|0:0,0:0:0:0:
309,190,143902,1,8,0:0:0:0:
466,263,144104,2,0,P|378:341|261:343,1,239.999992675781,0|8,0:0|0:0,0:0:0:0:
197,97,144510,1,0,0:0:0:0:
89,275,144713,2,0,P|53:142|106:57,1,239.999992675781,8|0,0:0|0:0,0:0:0:0:
416,148,145118,5,8,0:0:0:0:
170,232,145321,1,8,0:0:0:0:
267,71,145523,1,8,0:0:0:0:
392,317,145726,1,8,0:0:0:0:
392,317,145929,6,0,B|355:305|366:332|309:320,1,59.9999981689454,14|0,0:0|0:0,0:0:0:0:
192,277,146334,2,0,P|200:232|265:200,1,119.999996337891
373,42,147348,6,0,P|399:70|408:96,1,59.9999981689454
306,136,147753,1,0,0:0:0:0:
247,82,147956,1,0,0:0:0:0:
196,179,148159,1,0,0:0:0:0:
127,114,148361,2,0,B|98:121|98:121|81:185,2,89.9999972534181
173,282,149172,2,0,P|217:253|266:300,1,119.999996337891
361,183,149780,1,0,0:0:0:0:
411,313,150186,5,0,0:0:0:0:
482,257,150388,1,0,0:0:0:0:
357,222,150591,1,0,0:0:0:0:
428,166,150794,2,0,P|449:131|434:95,2,59.9999981689454
306,114,151402,2,0,P|261:109|235:121,1,59.9999981689454
202,303,151807,5,0,0:0:0:0:
115,225,152010,1,0,0:0:0:0:
110,357,152213,1,0,0:0:0:0:
23,279,152416,1,0,0:0:0:0:
64,89,152821,6,0,B|144:55|113:108|191:78,1,119.999996337891
132,226,153632,1,0,0:0:0:0:
132,226,153834,2,0,B|158:203|158:203|192:221,1,59.9999981689454
216,320,154240,5,0,0:0:0:0:
274,256,154442,1,0,0:0:0:0:
330,340,154645,1,0,0:0:0:0:
330,340,154848,2,0,B|349:282|349:282|390:268,2,89.9999972534181
297,180,155659,6,0,B|295:171|295:171|281:166|281:166|280:152|280:152|267:147|267:147|266:132|266:132|252:128|252:128|249:110|249:110|286:100|290:64|318:69,1,179.999994506836
463,212,157077,2,0,B|462:197|472:181|472:181|456:188|442:193|425:191|409:192|394:203|386:222|387:239|378:259|360:269|333:273,1,200
220,195,158294,5,0,0:0:0:0:
144,281,158496,1,0,0:0:0:0:
88,183,158699,1,0,0:0:0:0:
88,183,158902,2,0,B|99:169|100:155|96:128|81:106|74:70|93:48|119:39|142:43|156:53|171:72|157:93|157:93,1,200
251,161,159915,5,0,0:0:0:0:
148,251,160118,1,0,0:0:0:0:
285,313,160321,2,0,B|316:276|346:304|376:260,1,100
337,115,161537,5,0,0:0:0:0:
232,77,161740,1,0,0:0:0:0:
238,183,161942,2,0,P|211:196|220:217,1,50
337,263,162348,1,0,0:0:0:0:
323,171,162550,1,0,0:0:0:0:
412,192,162753,1,0,0:0:0:0:
412,192,162956,2,0,P|441:216|450:245,1,50
395,319,163361,1,0,0:0:0:0:
315,239,163564,2,0,B|277:278|317:289|278:331,1,100
49,339,164780,5,0,0:0:0:0:
49,339,165186,2,0,B|111:240|-2:221|62:137,1,200
181,187,166402,6,0,P|191:214|207:227,1,50
285,149,166807,1,0,0:0:0:0:
342,284,167213,1,0,0:0:0:0:
96,71,168226,5,0,0:0:0:0:
96,71,168429,2,0,P|120:83|156:81,1,50
246,37,168834,1,0,0:0:0:0:
300,109,169037,1,0,0:0:0:0:
300,109,169240,1,0,0:0:0:0:
357,31,169442,2,0,P|386:46|396:64,1,50
393,161,169848,1,0,0:0:0:0:
393,161,170050,2,0,B|309:192|386:232|294:278,1,150
245,348,170861,6,0,P|220:326|209:297,1,50
243,188,171267,1,0,0:0:0:0:
300,246,171469,1,0,0:0:0:0:
332,168,171672,1,0,0:0:0:0:
332,168,171875,6,0,B|345:197|377:192|380:84|393:52|414:47|431:73,1,179.999994506836,2|0,0:0|0:0,0:0:0:0:
477,192,173294,2,0,B|461:190|441:198|435:217|435:217|450:244|447:287|433:316|412:337|377:350,1,209.999993591309,2|0,0:0|0:0,0:0:0:0:
293,302,174915,2,0,B|277:311|267:324|267:324|259:313|250:298|237:283|229:263|230:237|237:216|247:203|261:184|261:156|249:125,1,244.999992523194,2|0,0:0|0:0,0:0:0:0:
102,90,176537,6,0,P|91:103|85:124,1,34.9999989318848
72,216,176942,2,0,B|91:226|91:226|106:214,1,34.9999989318848
192,153,177348,2,0,P|209:177|210:189,1,34.9999989318848
158,325,177753,1,0,0:0:0:0:
223,266,177956,1,0,0:0:0:0:
262,340,178159,1,0,0:0:0:0:
262,340,178361,6,0,B|271:287|301:256|342:252|358:195|347:165|329:150|300:141|271:152|258:171,1,269.999991760254,2|0,0:0|0:0,0:0:0:0:
211,228,179780,2,0,B|179:224|149:157|187:96|220:64|279:65|337:68|378:88,1,314.999990386963,2|0,0:0|0:0,0:0:0:0:
426,147,181402,2,0,B|418:170|387:196|352:216|326:261|325:307|343:341|368:353|368:353|386:352|412:340|426:334|440:319|452:298|460:263|452:229,1,404.999987640381,2|0,0:0|0:0,0:0:0:0:
181,201,184240,5,2,0:0:0:0:
181,201,184442,2,0,P|209:189|236:156,1,59.9999981689454,2|0,0:0|0:0,0:0:0:0:
242,63,184848,2,8,P|267:51|320:215,1,280,10|8,0:0|0:0,0:0:0:0:
254,162,186469,2,8,P|207:193|246:285,1,160
365,184,187483,1,10,0:0:0:0:
436,331,187888,6,8,B|334:286|386:360|291:337,1,150,10|8,0:0|0:0,0:0:0:0:
180,294,188699,2,0,P|186:262|217:243,1,50
357,51,189104,5,10,0:0:0:0:
308,220,189307,1,10,0:0:0:0:
186,95,189510,2,0,P|170:86|149:108,1,50,10|0,0:0|0:0,0:0:0:0:
218,312,189915,1,10,0:0:0:0:
92,190,190118,1,10,0:0:0:0:
31,350,190321,1,10,0:0:0:0:
336,122,190523,5,10,0:0:0:0:
340,161,190625,1,8,0:0:0:0:
354,198,190726,1,10,0:0:0:0:
376,231,190827,1,8,0:0:0:0:
405,251,190929,2,0,P|349:251|311:273,1,89.9999972534181,10|0,0:0|0:0,0:0:0:0:
170,350,191334,6,0,B|132:295|183:255|247:225|264:179|257:149|237:127|219:118,1,259.999988098145,12|0,0:0|0:0,0:0:0:0:
49,254,191740,2,0,B|11:199|62:159|126:129|143:83|136:53|116:31|98:22,1,259.999988098145,10|2,0:0|0:0,0:0:0:0:
400,86,192145,1,8,0:0:0:0:
177,199,192348,1,0,0:0:0:0:
353,334,192550,1,8,0:0:0:0:
251,41,192753,2,0,P|110:93|63:202,1,259.999988098145,0|8,0:0|0:0,0:0:0:0:
345,243,193159,1,0,0:0:0:0:
138,285,193361,2,0,P|202:175|324:140,1,259.999988098145,8|0,0:0|0:0,0:0:0:0:
339,355,193767,5,8,0:0:0:0:
453,77,193969,1,0,0:0:0:0:
227,127,194172,1,8,0:0:0:0:
467,315,194375,1,0,0:0:0:0:
356,95,194577,5,8,0:0:0:0:
287,246,194780,1,0,0:0:0:0:
227,21,194983,1,8,0:0:0:0:
138,328,195186,1,0,0:0:0:0:
33,36,195388,2,0,P|158:168|221:158,1,259.999988098145,8|0,0:0|0:0,0:0:0:0:
260,44,195794,1,8,0:0:0:0:
418,104,195996,2,0,P|351:284|289:278,1,259.999988098145,0|8,0:0|0:0,0:0:0:0:
286,48,196402,5,0,0:0:0:0:
71,49,196604,1,8,0:0:0:0:
97,260,196807,2,0,B|163:143|163:143|201:279,1,259.999988098145,2|8,0:0|0:0,0:0:0:0:
383,88,197213,1,2,0:0:0:0:
477,294,197415,1,8,0:0:0:0:
170,355,197618,1,8,0:0:0:0:
170,355,197719,1,8,0:0:0:0:
170,355,197821,6,0,B|132:300|183:260|247:230|264:184|257:154|237:132|219:123,1,259.999988098145,14|0,0:0|0:0,0:0:0:0:
346,302,198226,2,0,B|308:247|359:207|423:177|440:131|433:101|413:79|395:70,1,259.999988098145,8|0,0:0|0:0,0:0:0:0:
248,76,198632,1,8,0:0:0:0:
105,316,198834,1,0,0:0:0:0:
37,26,199037,1,8,0:0:0:0:
254,339,199240,1,0,0:0:0:0:
301,50,199442,2,0,P|423:83|496:187,1,259.999988098145,10|0,0:0|0:0,0:0:0:0:
132,144,199848,5,8,0:0:0:0:
372,218,200050,2,0,P|381:330|271:310,1,259.999988098145,2|8,0:0|0:0,0:0:0:0:
278,57,200456,5,2,0:0:0:0:
155,317,200659,1,8,0:0:0:0:
73,65,200861,1,2,0:0:0:0:
282,213,201064,1,10,0:0:0:0:
32,228,201267,6,0,B|182:223|128:120|262:120,1,259.999988098145,2|8,0:0|0:0,0:0:0:0:
227,338,201672,1,0,0:0:0:0:
445,160,201875,1,8,0:0:0:0:
283,42,202077,1,2,0:0:0:0:
378,319,202280,1,10,0:0:0:0:
121,277,202483,6,0,B|216:182|216:182|67:196,1,259.999988098145,2|8,0:0|0:0,0:0:0:0:
248,55,202888,1,0,0:0:0:0:
357,262,203091,1,10,0:0:0:0:
414,42,203294,1,2,0:0:0:0:
187,223,203496,5,10,0:0:0:0:
428,132,203699,1,2,0:0:0:0:
464,359,203902,1,10,0:0:0:0:
244,245,204104,1,0,0:0:0:0:
244,245,204206,1,8,0:0:0:0:
244,245,204307,6,0,B|282:190|231:150|167:120|150:74|157:44|177:22|195:13,1,259.999988098145,8|0,0:0|0:0,0:0:0:0:
135,351,204713,2,0,B|173:296|122:256|58:226|41:180|48:150|68:128|86:119,1,259.999988098145,10|2,0:0|0:0,0:0:0:0:
259,350,205118,1,8,0:0:0:0:
203,99,205321,1,0,0:0:0:0:
420,278,205523,1,8,0:0:0:0:
78,217,205726,2,0,P|237:197|287:103,1,259.999988098145,0|8,0:0|0:0,0:0:0:0:
397,50,206132,5,0,0:0:0:0:
442,317,206334,2,0,B|283:225|347:370|183:280,1,259.999988098145,8|0,0:0|0:0,0:0:0:0:
435,132,206740,1,8,0:0:0:0:
254,282,206942,1,0,0:0:0:0:
388,62,207145,1,8,0:0:0:0:
439,357,207348,1,0,0:0:0:0:
272,57,207550,5,8,0:0:0:0:
30,267,207753,1,0,0:0:0:0:
101,41,207956,1,8,0:0:0:0:
213,337,208159,2,0,P|280:217|428:174,1,259.999988098145,0|8,0:0|0:0,0:0:0:0:
297,347,208564,1,2,0:0:0:0:
494,190,208767,1,10,0:0:0:0:
310,40,208969,2,0,P|193:91|134:204,1,259.999988098145,2|8,0:0|0:0,0:0:0:0:
335,276,209375,5,0,0:0:0:0:
494,160,209577,1,10,0:0:0:0:
252,94,209780,1,2,0:0:0:0:
166,361,209983,1,10,0:0:0:0:
66,126,210186,1,2,0:0:0:0:
399,246,210388,2,0,P|271:346|201:306,1,259.999988098145,10|0,0:0|0:0,0:0:0:0:
288,230,210794,6,0,L|302:221,1,15,10|0,0:0|0:0,0:0:0:0:
301,189,211199,6,0,P|246:135|162:137,1,129.999994049073,14|0,0:0|0:0,0:0:0:0:
120,331,211604,1,10,0:0:0:0:
53,215,211807,1,2,0:0:0:0:
253,331,212010,1,10,0:0:0:0:
253,331,212213,2,0,P|318:297|329:231,1,129.999994049073,2|8,0:0|0:0,0:0:0:0:
227,98,212618,1,0,0:0:0:0:
107,233,212821,2,0,P|90:156|118:93,1,129.999994049073,8|0,0:0|0:0,0:0:0:0:
276,54,213226,5,8,0:0:0:0:
397,140,213429,1,0,0:0:0:0:
223,243,213632,2,0,P|216:181|166:129,1,129.999994049073,8|0,0:0|0:0,0:0:0:0:
474,192,214037,5,10,0:0:0:0:
275,315,214240,1,2,0:0:0:0:
348,95,214442,1,10,0:0:0:0:
449,353,214645,1,2,0:0:0:0:
449,353,214848,2,0,B|359:301|406:378|273:317,1,129.999994049073,10|0,0:0|0:0,0:0:0:0:
280,177,215253,1,10,0:0:0:0:
181,343,215456,2,0,P|127:297|121:201,1,129.999994049073,2|8,0:0|0:0,0:0:0:0:
198,91,215861,1,0,0:0:0:0:
384,289,216064,2,0,P|337:236|258:237,1,129.999994049073,8|0,0:0|0:0,0:0:0:0:
297,29,216469,5,8,0:0:0:0:
463,90,216672,1,8,0:0:0:0:
463,90,216773,1,8,0:0:0:0:
463,90,216875,1,8,0:0:0:0:
291,211,217077,1,0,0:0:0:0:
130,83,217280,6,0,B|110:53|85:45|54:105|101:172,1,129.999994049073,10|0,0:0|0:0,0:0:0:0:
187,181,217686,2,0,B|218:183|236:202|198:257|147:248,1,129.999994049073,10|0,0:0|0:0,0:0:0:0:
300,351,218091,1,10,0:0:0:0:
460,194,218294,1,2,0:0:0:0:
309,75,218496,1,10,0:0:0:0:
185,294,218699,2,0,P|151:230|172:146,1,129.999994049073,2|8,0:0|0:0,0:0:0:0:
300,42,219104,1,0,0:0:0:0:
411,263,219307,2,0,P|338:232|267:246,1,129.999994049073,8|2,0:0|0:0,0:0:0:0:
325,75,219713,5,8,0:0:0:0:
473,196,219915,1,2,0:0:0:0:
197,158,220118,2,0,P|142:208|161:283,1,129.999994049073,10|0,0:0|0:0,0:0:0:0:
307,124,220523,5,10,0:0:0:0:
360,334,220726,1,2,0:0:0:0:
463,161,220929,1,10,0:0:0:0:
213,268,221132,1,2,0:0:0:0:
137,131,221334,2,0,P|71:158|66:220,2,129.999994049073,10|0|10,0:0|0:0|0:0,0:0:0:0:
304,332,221942,1,2,0:0:0:0:
209,61,222145,5,8,0:0:0:0:
209,61,222246,1,8,0:0:0:0:
209,61,222348,1,8,0:0:0:0:
396,131,222550,1,8,0:0:0:0:
423,349,222753,1,8,0:0:0:0:
423,349,222854,1,8,0:0:0:0:
423,349,222956,1,8,0:0:0:0:
284,57,223159,1,0,0:0:0:0:
237,319,223361,5,8,0:0:0:0:
200,332,223463,1,8,0:0:0:0:
168,309,223564,1,8,0:0:0:0:
154,272,223665,1,8,0:0:0:0:
156,232,223767,6,0,B|166:210|166:210|181:201|181:201|176:185|176:185|196:142|196:142|194:119|194:119|213:106|213:106|223:79,1,170.000003242493,14|0,0:0|0:0,0:0:0:0:
371,35,224172,2,0,B|364:51|364:51|345:64|345:64|347:87|347:87|327:130|327:130|332:146|332:146|317:155|317:155|307:177,1,170.000003242493,10|0,0:0|0:0,0:0:0:0:
403,353,224577,1,10,0:0:0:0:
194,207,224780,1,2,0:0:0:0:
438,161,224983,1,10,0:0:0:0:
438,161,225186,2,0,P|450:219|350:227,1,170.000003242493,2|8,0:0|0:0,0:0:0:0:
296,80,225591,5,0,0:0:0:0:
296,80,225794,2,0,P|308:138|208:146,1,170.000003242493,8|0,0:0|0:0,0:0:0:0:
191,47,226199,1,8,0:0:0:0:
22,153,226402,1,2,0:0:0:0:
142,293,226604,2,0,P|171:227|183:251,1,170.000003242493,10|0,0:0|0:0,0:0:0:0:
307,38,227010,5,10,0:0:0:0:
391,261,227213,1,2,0:0:0:0:
168,124,227415,1,10,0:0:0:0:
479,86,227618,1,2,0:0:0:0:
157,282,227821,6,0,P|232:293|241:218,1,170.000003242493,10|0,0:0|0:0,0:0:0:0:
48,216,228226,1,10,0:0:0:0:
387,47,228429,2,0,P|379:123|304:112,1,170.000003242493,2|8,0:0|0:0,0:0:0:0:
135,53,228834,5,0,0:0:0:0:
311,311,229037,1,8,0:0:0:0:
26,210,229240,2,0,B|43:185|43:185|71:172,12,42.5000008106232,2|0|2|0|10|0|2|0|2|0|2|0|10,0:0|0:0|0:0|0:0|0:0|0:0|0:0|0:0|0:0|0:0|0:0|0:0|0:0,0:0:0:0:
167,333,230050,1,0,0:0:0:0:
420,235,230253,6,0,B|410:213|410:213|395:204|395:204|400:188|400:188|380:145|380:145|382:122|382:122|363:109|363:109|353:82,1,170.000003242493,14|0,0:0|0:0,0:0:0:0:
220,175,230658,2,0,B|210:153|210:153|195:144|195:144|200:128|200:128|180:85|180:85|182:62|182:62|163:49|163:49|156:32,1,170.000003242493,10|0,0:0|0:0,0:0:0:0:
90,312,231064,5,10,0:0:0:0:
341,211,231267,1,2,0:0:0:0:
101,128,231469,1,10,0:0:0:0:
283,318,231672,2,0,P|374:337|374:266,1,170.000003242493,2|8,0:0|0:0,0:0:0:0:
472,150,232077,5,0,0:0:0:0:
472,150,232280,2,0,B|369:94|410:165|302:124,1,170.000003242493,8|0,0:0|0:0,0:0:0:0:
232,267,232686,1,8,0:0:0:0:
167,79,232888,1,2,0:0:0:0:
55,347,233091,1,10,0:0:0:0:
293,236,233294,1,0,0:0:0:0:
71,109,233496,5,10,0:0:0:0:
197,319,233699,1,2,0:0:0:0:
259,80,233902,1,10,0:0:0:0:
362,283,234104,1,2,0:0:0:0:
451,43,234307,2,0,P|452:128|375:177,1,170.000003242493,10|0,0:0|0:0,0:0:0:0:
194,148,234713,5,10,0:0:0:0:
438,339,234915,2,0,P|342:288|272:315,1,170.000003242493,2|8,0:0|0:0,0:0:0:0:
334,55,235321,1,0,0:0:0:0:
482,114,235523,1,8,0:0:0:0:
316,227,235726,2,0,P|384:179|466:193,1,170.000003242493,2|8,0:0|0:0,0:0:0:0:
211,43,236132,1,0,0:0:0:0:
127,323,236334,1,8,0:0:0:0:
