osu file format v14

[General]
AudioFilename: audio.mp3
AudioLeadIn: 0
PreviewTime: 54485
Countdown: 0
SampleSet: Soft
StackLeniency: 0.7
Mode: 0
LetterboxInBreaks: 0
WidescreenStoryboard: 0

[Editor]
DistanceSpacing: 0.8
BeatDivisor: 4
GridSize: 16
TimelineZoom: 1

[Metadata]
Title:Cheerleader
TitleUnicode:Cheerleader
Artist:Porter Robinson
ArtistUnicode:Porter Robinson
Creator:Ayanami
Version:Expert
Source:
Tags:dagdnoob pop english rock male vocal
BeatmapID:4537953
BeatmapSetID:2153631

[Difficulty]
HPDrainRate:6
CircleSize:3.8
OverallDifficulty:9
ApproachRate:9.2
SliderMultiplier:2
SliderTickRate:1

[Events]
//Background and Video events
0,0,"sky_stars_loneliness_freed124124om_4k_hd.jpg",0,0
//Break Periods
//Storyboard Layer 0 (Background)
//Storyboard Layer 1 (Fail)
//Storyboard Layer 2 (Pass)
//Storyboard Layer 3 (Foreground)
//Storyboard Layer 4 (Overlay)
//Storyboard Sound Samples

[TimingPoints]
770,405.405405405405,4,2,0,80,1,0
3202,405.405405405405,4,2,0,80,1,0
18607,-40,4,2,0,80,0,0
19012,-100,4,2,0,80,0,0
22256,-50,4,2,0,80,0,0
23066,-100,4,2,0,80,0,0
25093,-50,4,2,0,80,0,0
25904,-100,4,2,0,80,0,0
28742,-50,4,2,0,80,0,0
29147,-100,4,2,0,80,0,0
31580,-50,4,2,0,80,0,0
32188,-100,4,2,0,80,0,0

[HitObjects]
256,192,2797,5,0,0:0:0:0:
53,28,3202,5,0,0:0:0:0:
152,236,3404,1,0,0:0:0:0:
244,25,3607,2,0,B|364:20|309:89|451:73,1,200
197,188,4215,1,0,0:0:0:0:
429,265,4418,1,0,0:0:0:0:
325,91,4620,1,0,0:0:0:0:
219,337,4823,5,0,0:0:0:0:
219,337,5026,1,0,0:0:0:0:
133,246,5229,2,0,P|127:184|122:140,1,100
362,240,5634,5,0,0:0:0:0:
362,240,5837,1,0,0:0:0:0:
439,166,6039,2,0,P|445:104|450:60,1,100
151,0,6445,5,0,0:0:0:0:
254,256,6647,1,0,0:0:0:0:
355,9,6850,1,0,0:0:0:0:
138,188,7053,1,0,0:0:0:0:
405,188,7256,2,0,P|426:144|418:82,1,100
256,0,7661,1,0,0:0:0:0:
91,169,7864,2,0,P|92:197|93:231,1,50
151,364,8066,5,0,0:0:0:0:
151,364,8269,1,0,0:0:0:0:
252,268,8472,2,0,P|258:213|261:166,1,100
63,255,8877,5,0,0:0:0:0:
63,255,9080,1,0,0:0:0:0:
8,136,9283,2,0,P|2:81|-1:34,1,100
233,159,9688,5,0,0:0:0:0:
271,149,9789,1,0,0:0:0:0:
307,160,9890,1,0,0:0:0:0:
344,176,9992,1,0,0:0:0:0:
382,162,10093,2,0,P|427:256|384:344,1,200
195,214,10701,1,0,0:0:0:0:
442,122,10904,1,0,0:0:0:0:
195,33,11107,1,0,0:0:0:0:
328,274,11310,5,0,0:0:0:0:
328,274,11512,1,0,0:0:0:0:
235,360,11715,2,0,P|176:366|125:367,1,100
15,193,12120,5,0,0:0:0:0:
15,193,12323,1,0,0:0:0:0:
98,91,12526,2,0,P|157:85|208:84,1,100
442,158,12931,5,0,0:0:0:0:
227,291,13134,1,0,0:0:0:0:
12,148,13337,5,0,0:0:0:0:
227,281,13540,1,0,0:0:0:0:
308,38,13742,6,0,P|257:25|195:41,1,100
104,147,14147,1,0,0:0:0:0:
320,227,14350,2,0,L|320:173,1,50
185,18,14553,5,0,0:0:0:0:
185,18,14756,1,0,0:0:0:0:
91,115,14958,2,0,P|89:172|86:220,1,100
436,357,15364,5,0,0:0:0:0:
394,16,15566,1,0,0:0:0:0:
284,354,15769,5,0,0:0:0:0:
242,13,15971,1,0,0:0:0:0:
146,308,16174,6,0,P|87:318|41:307,1,100
232,82,16580,1,0,0:0:0:0:
320,318,16783,1,0,0:0:0:0:
320,318,17188,5,0,0:0:0:0:
124,170,17391,2,0,P|111:119|122:66,1,100
119,73,18201,1,0,0:0:0:0:
429,0,18607,6,0,L|423:140,1,125
423,137,18810,2,0,L|417:277,1,125
418,279,19012,1,0,0:0:0:0:
89,42,19215,6,0,P|140:42|207:43,1,100
282,126,19620,1,0,0:0:0:0:
193,218,19823,2,0,B|185:273|185:273|195:318,1,100
194,316,20431,5,0,0:0:0:0:
61,70,20634,1,0,0:0:0:0:
391,0,20837,6,0,B|365:87|426:86|388:170,1,150
396,146,21242,1,0,0:0:0:0:
436,322,21445,1,0,0:0:0:0:
275,187,21647,5,0,0:0:0:0:
252,176,21749,1,0,0:0:0:0:
217,195,21850,5,0,0:0:0:0:
240,206,21952,1,0,0:0:0:0:
215,225,22053,5,0,0:0:0:0:
192,214,22155,1,0,0:0:0:0:
167,218,22256,6,0,P|158:268|150:322,1,100
49,125,22458,2,0,P|41:75|32:26,1,100
264,0,22661,5,0,0:0:0:0:
264,0,23066,5,0,0:0:0:0:
372,221,23269,1,0,0:1:0:0:
372,221,23674,6,0,P|378:296|381:332,1,100
489,79,24080,2,0,P|425:71|385:69,1,100
275,137,24485,1,0,0:0:0:0:
171,37,24688,1,0,0:0:0:0:
171,37,25093,6,0,L|160:142,1,100
159,150,25296,2,0,L|148:255,1,100
149,260,25499,1,0,0:0:0:0:
313,368,25701,1,0,0:0:0:0:
372,35,25904,5,0,0:0:0:0:
276,239,26107,1,0,0:0:0:0:
178,34,26310,1,0,0:0:0:0:
408,180,26512,2,0,P|431:252|406:338,1,150
415,322,26918,1,0,0:0:0:0:
254,168,27120,1,0,0:0:0:0:
131,288,27323,6,0,B|118:341|118:341|130:387,1,100
290,196,27729,1,0,0:0:0:0:
104,122,27931,1,0,0:0:0:0:
310,54,28134,5,0,0:0:0:0:
333,44,28235,1,0,0:0:0:0:
358,68,28337,5,0,0:0:0:0:
335,78,28438,1,0,0:0:0:0:
353,106,28539,5,0,0:0:0:0:
376,96,28640,1,0,0:0:0:0:
400,106,28742,6,0,P|408:174|411:218,1,100
248,300,28945,2,0,P|252:250|258:200,1,100
139,29,29147,5,0,0:0:0:0:
139,29,29350,1,0,0:0:0:0:
57,136,29553,2,0,P|54:198|51:239,1,100
51,235,30161,5,0,0:0:0:0:
281,128,30364,1,0,0:0:0:0:
46,47,30567,1,0,0:0:0:0:
46,47,31174,2,0,P|46:109|47:153,1,100
391,288,31580,6,0,L|398:183,1,100
399,177,31783,2,0,L|406:72,1,100
408,55,31985,1,0,0:0:0:0:
135,209,32188,6,0,P|125:266|131:315,1,100
303,160,32593,1,0,0:0:0:0:
126,80,32796,1,0,0:0:0:0:
310,18,32999,1,0,0:0:0:0:
199,178,33201,1,0,0:0:0:0:
352,225,33404,1,0,0:0:0:0:
318,70,33607,1,0,0:0:0:0:
199,178,33810,6,0,B|167:255|237:250|204:339,1,150
209,322,34215,1,0,0:0:0:0:
369,384,34418,1,0,0:0:0:0:
503,273,34620,2,0,B|518:188|518:188|491:115,1,150
497,129,35026,1,0,0:0:0:0:
296,217,35229,1,0,0:0:0:0:
95,129,35431,6,0,P|89:57|85:18,1,100
297,185,35837,1,0,0:0:0:0:
166,349,36039,2,0,B|219:359|219:359|273:347,1,100
263,349,36647,6,0,L|370:348,1,100
