osu file format v14

[General]
AudioFilename: audio.mp3
AudioLeadIn: 0
PreviewTime: -1
Countdown: 1
SampleSet: None
StackLeniency: 0.7
Mode: 3
LetterboxInBreaks: 0
SpecialStyle: 1
WidescreenStoryboard: 1

[Editor]
DistanceSpacing: 0.8
BeatDivisor: 16
GridSize: 32
TimelineZoom: 1

[Metadata]
Title:Shelter - Full Version
TitleUnicode:Shelter - Full Version
Artist:Porter Robinson & Madeon
ArtistUnicode:Porter Robinson & Madeon
Creator:HybridLiam
Version:Memories
Source:
Tags:
BeatmapID:1149215
BeatmapSetID:541560

[Difficulty]
HPDrainRate:7.5
CircleSize:4
OverallDifficulty:7.5
ApproachRate:5
SliderMultiplier:1.4
SliderTickRate:1

[Events]
//Background and Video events
Video,0,"Video.mp4"
0,0,"Background.jpg",0,0
//Break Periods
//Storyboard Layer 0 (Background)
//Storyboard Layer 1 (Fail)
//Storyboard Layer 2 (Pass)
//Storyboard Layer 3 (Foreground)
//Storyboard Sound Samples

[TimingPoints]
0,600,4,1,0,15,1,0
52.6356284286629,-100,4,1,0,15,0,0
49584.3369400425,600,4,1,0,15,1,0
282603,-100,4,1,0,15,0,0
282773,-100,4,1,0,15,0,0
283225,600,4,1,0,15,1,0
283237,-100,4,1,0,15,0,0
285775,600,4,1,0,15,1,0
286900,600,4,1,0,15,1,0
288475,600,4,1,0,15,1,0
291116,600,4,1,0,15,1,0
293912,600,4,1,0,15,1,0
296598,600,4,1,0,15,1,0
301810,600,4,1,0,15,1,0
307397,600,4,1,0,15,1,0
315347,600,4,1,0,15,1,0

[HitObjects]
64,192,49584,128,0,50184:0:0:0:0:
460,192,50184,128,0,50334:0:0:0:0:
358,192,50334,128,0,50634:0:0:0:0:
51,192,50634,128,0,51384:0:0:0:0:
448,192,51984,128,0,52584:0:0:0:0:
358,192,51984,1,0,0:0:0:0:
64,192,52584,128,0,52734:0:0:0:0:
192,192,52734,128,0,53034:0:0:0:0:
448,192,53034,128,0,53784:0:0:0:0:
320,192,53784,128,0,54084:0:0:0:0:
192,192,54084,128,0,54384:0:0:0:0:
51,192,54384,128,0,54984:0:0:0:0:
460,192,54984,128,0,55134:0:0:0:0:
358,192,55134,128,0,55434:0:0:0:0:
153,192,55434,128,0,56484:0:0:0:0:
448,192,56484,128,0,56784:0:0:0:0:
320,192,56784,1,0,0:0:0:0:
51,192,57009,1,0,0:0:0:0:
153,192,57234,1,0,0:0:0:0:
320,192,57384,1,0,0:0:0:0:
51,192,57609,1,0,0:0:0:0:
192,192,57834,1,0,0:0:0:0:
320,192,57984,1,0,0:0:0:0:
51,192,58209,1,0,0:0:0:0:
192,192,58434,1,0,0:0:0:0:
320,192,58584,1,0,0:0:0:0:
64,192,58809,1,0,0:0:0:0:
192,192,59034,1,0,0:0:0:0:
448,192,59184,128,0,61584:0:0:0:0:
320,192,59184,1,0,0:0:0:0:
320,192,59784,1,0,0:0:0:0:
51,192,60234,128,0,61584:0:0:0:0:
256,192,60984,1,0,0:0:0:0:
153,192,61584,128,0,62184:0:0:0:0:
448,192,62184,1,0,0:0:0:0:
320,192,62334,128,0,62634:0:0:0:0:
448,192,62634,128,0,63984:0:0:0:0:
64,192,63384,128,0,63684:0:0:0:0:
192,192,63684,128,0,63984:0:0:0:0:
320,192,63984,128,0,65034:0:0:0:0:
448,192,64584,1,0,0:0:0:0:
51,192,64734,1,0,0:0:0:0:
192,192,65034,128,0,66084:0:0:0:0:
448,192,66084,128,0,66384:0:0:0:0:
320,192,66384,128,0,68184:0:0:0:0:
64,192,66384,128,0,66984:0:0:0:0:
192,192,66984,128,0,67584:0:0:0:0:
192,192,68184,1,0,0:0:0:0:
64,192,68184,1,0,0:0:0:0:
320,192,68334,1,0,0:0:0:0:
448,192,68334,1,0,0:0:0:0:
192,192,68784,128,0,69384:0:0:0:0:
320,192,68784,128,0,69384:0:0:0:0:
51,192,69384,1,0,0:0:0:0:
153,192,69534,1,0,0:0:0:0:
358,192,69684,1,0,0:0:0:0:
448,192,69834,1,0,0:0:0:0:
64,192,69984,1,0,0:0:0:0:
192,192,70134,1,0,0:0:0:0:
320,192,70284,1,0,0:0:0:0:
448,192,70434,1,0,0:0:0:0:
153,192,70584,1,0,0:0:0:0:
51,192,70584,1,0,0:0:0:0:
460,192,70884,1,0,0:0:0:0:
192,192,71184,128,0,71784:0:0:0:0:
320,192,71184,128,0,71784:0:0:0:0:
448,192,71784,1,0,0:0:0:0:
320,192,71934,1,0,0:0:0:0:
192,192,72084,1,0,0:0:0:0:
64,192,72234,1,0,0:0:0:0:
448,192,72384,1,0,0:0:0:0:
320,192,72534,1,0,0:0:0:0:
192,192,72684,1,0,0:0:0:0:
460,192,72984,1,0,0:0:0:0:
320,192,72984,1,0,0:0:0:0:
51,192,73284,1,0,0:0:0:0:
460,192,73584,128,0,74184:0:0:0:0:
320,192,73584,128,0,74184:0:0:0:0:
64,192,74184,1,0,0:0:0:0:
192,192,74334,1,0,0:0:0:0:
460,192,74484,1,0,0:0:0:0:
320,192,74634,1,0,0:0:0:0:
192,192,74784,1,0,0:0:0:0:
64,192,74934,1,0,0:0:0:0:
320,192,75084,1,0,0:0:0:0:
64,192,75384,1,0,0:0:0:0:
192,192,75384,1,0,0:0:0:0:
51,192,75984,1,0,0:0:0:0:
320,192,75984,128,0,76434:0:0:0:0:
448,192,76434,1,0,0:0:0:0:
64,192,76584,1,0,0:0:0:0:
320,192,76584,128,0,77034:0:0:0:0:
448,192,77034,1,0,0:0:0:0:
64,192,77184,1,0,0:0:0:0:
320,192,77184,128,0,77634:0:0:0:0:
448,192,77634,1,0,0:0:0:0:
192,192,77784,1,0,0:0:0:0:
320,192,77784,1,0,0:0:0:0:
192,192,78384,128,0,78984:0:0:0:0:
320,192,78384,128,0,78984:0:0:0:0:
51,192,78984,1,0,0:0:0:0:
153,192,79134,1,0,0:0:0:0:
320,192,79284,1,0,0:0:0:0:
448,192,79434,1,0,0:0:0:0:
64,192,79584,1,0,0:0:0:0:
192,192,79734,1,0,0:0:0:0:
320,192,79884,1,0,0:0:0:0:
448,192,80034,1,0,0:0:0:0:
153,192,80184,1,0,0:0:0:0:
51,192,80184,1,0,0:0:0:0:
460,192,80484,1,0,0:0:0:0:
192,192,80784,128,0,81384:0:0:0:0:
320,192,80784,128,0,81384:0:0:0:0:
448,192,81384,1,0,0:0:0:0:
320,192,81534,1,0,0:0:0:0:
192,192,81684,1,0,0:0:0:0:
64,192,81834,1,0,0:0:0:0:
448,192,81984,1,0,0:0:0:0:
320,192,82134,1,0,0:0:0:0:
192,192,82284,1,0,0:0:0:0:
460,192,82584,1,0,0:0:0:0:
320,192,82584,1,0,0:0:0:0:
51,192,82884,1,0,0:0:0:0:
460,192,83184,128,0,83784:0:0:0:0:
320,192,83184,128,0,83784:0:0:0:0:
64,192,83784,1,0,0:0:0:0:
192,192,83934,1,0,0:0:0:0:
460,192,84084,1,0,0:0:0:0:
320,192,84234,1,0,0:0:0:0:
192,192,84384,1,0,0:0:0:0:
64,192,84534,1,0,0:0:0:0:
320,192,84684,1,0,0:0:0:0:
64,192,84984,1,0,0:0:0:0:
192,192,84984,1,0,0:0:0:0:
320,192,85284,128,0,86034:0:0:0:0:
51,192,85584,1,0,0:0:0:0:
448,192,86034,1,0,0:0:0:0:
64,192,86184,1,0,0:0:0:0:
320,192,86184,128,0,86634:0:0:0:0:
448,192,86634,1,0,0:0:0:0:
64,192,86784,1,0,0:0:0:0:
320,192,86784,128,0,87234:0:0:0:0:
448,192,87234,1,0,0:0:0:0:
320,192,87384,1,0,0:0:0:0:
192,192,87384,1,0,0:0:0:0:
64,192,87984,1,0,0:0:0:0:
192,192,87984,128,0,89784:0:0:0:0:
448,192,89784,1,0,0:0:0:0:
192,192,90384,128,0,91284:0:0:0:0:
64,192,91284,128,0,92184:0:0:0:0:
448,192,92184,1,0,0:0:0:0:
320,192,92334,1,0,0:0:0:0:
192,192,92484,1,0,0:0:0:0:
64,192,92634,1,0,0:0:0:0:
192,192,92784,1,0,0:0:0:0:
320,192,92784,1,0,0:0:0:0:
448,192,92934,1,0,0:0:0:0:
64,192,93084,1,0,0:0:0:0:
192,192,93234,1,0,0:0:0:0:
448,192,93384,1,0,0:0:0:0:
192,192,93534,1,0,0:0:0:0:
64,192,93684,1,0,0:0:0:0:
448,192,93834,1,0,0:0:0:0:
320,192,93984,1,0,0:0:0:0:
64,192,94134,1,0,0:0:0:0:
192,192,94434,1,0,0:0:0:0:
448,192,94584,1,0,0:0:0:0:
64,192,94734,1,0,0:0:0:0:
192,192,94884,1,0,0:0:0:0:
320,192,95034,1,0,0:0:0:0:
448,192,95184,1,0,0:0:0:0:
192,192,95334,1,0,0:0:0:0:
320,192,95484,1,0,0:0:0:0:
192,192,95634,1,0,0:0:0:0:
448,192,95784,1,0,0:0:0:0:
320,192,95934,1,0,0:0:0:0:
192,192,96084,1,0,0:0:0:0:
320,192,96234,1,0,0:0:0:0:
64,192,96384,1,0,0:0:0:0:
320,192,96534,1,0,0:0:0:0:
320,192,96834,1,0,0:0:0:0:
64,192,96984,1,0,0:0:0:0:
320,192,97059,1,0,0:0:0:0:
64,192,97134,1,0,0:0:0:0:
192,192,97284,1,0,0:0:0:0:
320,192,97434,1,0,0:0:0:0:
448,192,97584,128,0,98184:0:0:0:0:
64,192,98184,1,0,0:0:0:0:
153,192,98334,1,0,0:0:0:0:
320,192,98484,1,0,0:0:0:0:
448,192,98634,1,0,0:0:0:0:
192,192,98784,1,0,0:0:0:0:
51,192,98934,1,0,0:0:0:0:
448,192,99084,1,0,0:0:0:0:
51,192,99234,1,0,0:0:0:0:
448,192,99384,1,0,0:0:0:0:
320,192,99534,1,0,0:0:0:0:
192,192,99684,1,0,0:0:0:0:
64,192,99834,1,0,0:0:0:0:
192,192,99984,1,0,0:0:0:0:
320,192,99984,128,0,100584:0:0:0:0:
192,192,100584,1,0,0:0:0:0:
448,192,100734,1,0,0:0:0:0:
64,192,100884,1,0,0:0:0:0:
192,192,101034,1,0,0:0:0:0:
448,192,101184,1,0,0:0:0:0:
64,192,101334,1,0,0:0:0:0:
320,192,101484,1,0,0:0:0:0:
192,192,101634,1,0,0:0:0:0:
448,192,101784,1,0,0:0:0:0:
320,192,101934,1,0,0:0:0:0:
192,192,102084,1,0,0:0:0:0:
64,192,102234,1,0,0:0:0:0:
192,192,102384,128,0,102984:0:0:0:0:
320,192,102384,1,0,0:0:0:0:
448,192,102984,1,0,0:0:0:0:
64,192,103134,1,0,0:0:0:0:
192,192,103284,1,0,0:0:0:0:
320,192,103434,1,0,0:0:0:0:
192,192,103584,1,0,0:0:0:0:
448,192,103734,1,0,0:0:0:0:
448,192,104184,1,0,0:0:0:0:
192,192,104184,1,0,0:0:0:0:
51,192,104484,1,0,0:0:0:0:
320,192,104634,1,0,0:0:0:0:
153,192,104784,1,0,0:0:0:0:
448,192,104784,128,0,105384:0:0:0:0:
192,192,105384,1,0,0:0:0:0:
64,192,105384,1,0,0:0:0:0:
320,192,105534,1,0,0:0:0:0:
448,192,105684,1,0,0:0:0:0:
153,192,105834,1,0,0:0:0:0:
320,192,105984,1,0,0:0:0:0:
153,192,106134,1,0,0:0:0:0:
51,192,106284,1,0,0:0:0:0:
320,192,106434,1,0,0:0:0:0:
448,192,106584,1,0,0:0:0:0:
51,192,106659,1,0,0:0:0:0:
448,192,106734,1,0,0:0:0:0:
320,192,106884,1,0,0:0:0:0:
153,192,107034,1,0,0:0:0:0:
64,192,107184,128,0,108384:0:0:0:0:
320,192,107784,1,0,0:0:0:0:
192,192,108384,128,0,109584:0:0:0:0:
320,192,108984,1,0,0:0:0:0:
320,192,109584,128,0,110784:0:0:0:0:
192,192,110184,1,0,0:0:0:0:
448,192,110784,128,0,111984:0:0:0:0:
192,192,111384,1,0,0:0:0:0:
51,192,111984,128,0,113184:0:0:0:0:
320,192,112584,1,0,0:0:0:0:
192,192,113184,128,0,114384:0:0:0:0:
320,192,113784,1,0,0:0:0:0:
320,192,114384,128,0,115584:0:0:0:0:
192,192,114984,1,0,0:0:0:0:
448,192,115584,128,0,116784:0:0:0:0:
64,192,116184,1,0,0:0:0:0:
320,192,116784,128,0,117984:0:0:0:0:
153,192,117384,1,0,0:0:0:0:
192,192,117984,128,0,119184:0:0:0:0:
320,192,118584,1,0,0:0:0:0:
64,192,119184,128,0,120384:0:0:0:0:
153,192,119784,1,0,0:0:0:0:
192,192,120384,128,0,121584:0:0:0:0:
448,192,120984,1,0,0:0:0:0:
51,192,121584,128,0,125184:0:0:0:0:
460,192,122784,128,0,125184:0:0:0:0:
153,192,123984,128,0,125184:0:0:0:0:
320,192,123984,128,0,125184:0:0:0:0:
51,192,125784,1,0,0:0:0:0:
460,192,125784,1,0,0:0:0:0:
320,192,125934,1,0,0:0:0:0:
192,192,126084,1,0,0:0:0:0:
64,192,126084,1,0,0:0:0:0:
192,192,126384,128,0,126984:0:0:0:0:
320,192,126384,128,0,126984:0:0:0:0:
51,192,126984,1,0,0:0:0:0:
153,192,127134,1,0,0:0:0:0:
320,192,127284,1,0,0:0:0:0:
448,192,127434,1,0,0:0:0:0:
64,192,127584,1,0,0:0:0:0:
192,192,127734,1,0,0:0:0:0:
320,192,127884,1,0,0:0:0:0:
448,192,128034,1,0,0:0:0:0:
153,192,128184,1,0,0:0:0:0:
51,192,128184,1,0,0:0:0:0:
460,192,128484,1,0,0:0:0:0:
192,192,128784,128,0,129384:0:0:0:0:
320,192,128784,128,0,129384:0:0:0:0:
448,192,129384,1,0,0:0:0:0:
320,192,129534,1,0,0:0:0:0:
192,192,129684,1,0,0:0:0:0:
64,192,129834,1,0,0:0:0:0:
448,192,129984,1,0,0:0:0:0:
320,192,130134,1,0,0:0:0:0:
192,192,130284,1,0,0:0:0:0:
51,192,130434,1,0,0:0:0:0:
460,192,130584,1,0,0:0:0:0:
320,192,130584,1,0,0:0:0:0:
51,192,130884,1,0,0:0:0:0:
460,192,131184,128,0,131784:0:0:0:0:
320,192,131184,128,0,131784:0:0:0:0:
64,192,131784,1,0,0:0:0:0:
192,192,131934,1,0,0:0:0:0:
448,192,132084,1,0,0:0:0:0:
320,192,132234,1,0,0:0:0:0:
192,192,132384,1,0,0:0:0:0:
64,192,132534,1,0,0:0:0:0:
320,192,132684,1,0,0:0:0:0:
448,192,132834,1,0,0:0:0:0:
192,192,132984,1,0,0:0:0:0:
64,192,132984,1,0,0:0:0:0:
448,192,133284,128,0,133584:0:0:0:0:
320,192,133584,128,0,134034:0:0:0:0:
64,192,133584,1,0,0:0:0:0:
448,192,134034,1,0,0:0:0:0:
192,192,134184,128,0,134634:0:0:0:0:
64,192,134184,1,0,0:0:0:0:
448,192,134634,1,0,0:0:0:0:
64,192,134784,1,0,0:0:0:0:
320,192,134784,128,0,135234:0:0:0:0:
448,192,135234,1,0,0:0:0:0:
64,192,135384,1,0,0:0:0:0:
192,192,135384,128,0,135834:0:0:0:0:
448,192,135834,1,0,0:0:0:0:
192,192,135984,128,0,136584:0:0:0:0:
320,192,135984,128,0,136584:0:0:0:0:
64,192,136584,1,0,0:0:0:0:
192,192,136734,1,0,0:0:0:0:
320,192,136884,1,0,0:0:0:0:
448,192,137034,1,0,0:0:0:0:
64,192,137034,1,0,0:0:0:0:
192,192,137184,1,0,0:0:0:0:
320,192,137184,1,0,0:0:0:0:
448,192,137334,1,0,0:0:0:0:
192,192,137484,1,0,0:0:0:0:
448,192,137634,1,0,0:0:0:0:
64,192,137784,1,0,0:0:0:0:
192,192,137784,1,0,0:0:0:0:
448,192,138084,128,0,138384:0:0:0:0:
192,192,138384,128,0,138984:0:0:0:0:
64,192,138384,128,0,138984:0:0:0:0:
448,192,138984,1,0,0:0:0:0:
320,192,139134,1,0,0:0:0:0:
192,192,139284,1,0,0:0:0:0:
448,192,139434,1,0,0:0:0:0:
64,192,139584,1,0,0:0:0:0:
192,192,139734,1,0,0:0:0:0:
320,192,139884,1,0,0:0:0:0:
64,192,140034,1,0,0:0:0:0:
320,192,140184,1,0,0:0:0:0:
192,192,140184,128,0,140484:0:0:0:0:
64,192,140484,128,0,140784:0:0:0:0:
320,192,140784,128,0,141384:0:0:0:0:
448,192,140784,128,0,141384:0:0:0:0:
192,192,141534,1,0,0:0:0:0:
64,192,141684,1,0,0:0:0:0:
192,192,141834,1,0,0:0:0:0:
64,192,141984,1,0,0:0:0:0:
320,192,141984,1,0,0:0:0:0:
448,192,142134,1,0,0:0:0:0:
320,192,142284,1,0,0:0:0:0:
192,192,142434,1,0,0:0:0:0:
64,192,142584,1,0,0:0:0:0:
448,192,142584,1,0,0:0:0:0:
448,192,142884,128,0,143184:0:0:0:0:
64,192,143184,1,0,0:0:0:0:
320,192,143184,128,0,143634:0:0:0:0:
448,192,143634,1,0,0:0:0:0:
192,192,143784,128,0,144234:0:0:0:0:
64,192,143784,1,0,0:0:0:0:
448,192,144234,1,0,0:0:0:0:
320,192,144384,128,0,144834:0:0:0:0:
64,192,144384,1,0,0:0:0:0:
448,192,144834,1,0,0:0:0:0:
51,192,144984,1,0,0:0:0:0:
448,192,145059,1,0,0:0:0:0:
64,192,145134,1,0,0:0:0:0:
448,192,145284,1,0,0:0:0:0:
64,192,145434,1,0,0:0:0:0:
448,192,145584,128,0,146184:0:0:0:0:
320,192,145584,128,0,146184:0:0:0:0:
192,192,146184,128,0,146334:0:0:0:0:
64,192,146334,128,0,146484:0:0:0:0:
448,192,146484,128,0,146634:0:0:0:0:
320,192,146634,128,0,146784:0:0:0:0:
64,192,146784,128,0,146934:0:0:0:0:
192,192,146934,128,0,147084:0:0:0:0:
448,192,147084,128,0,147234:0:0:0:0:
320,192,147234,128,0,147384:0:0:0:0:
192,192,147384,1,0,0:0:0:0:
64,192,147384,1,0,0:0:0:0:
448,192,147684,128,0,147984:0:0:0:0:
64,192,147984,128,0,148584:0:0:0:0:
192,192,147984,128,0,148584:0:0:0:0:
448,192,148584,128,0,148734:0:0:0:0:
320,192,148734,128,0,148884:0:0:0:0:
64,192,148884,128,0,149034:0:0:0:0:
192,192,149034,128,0,149184:0:0:0:0:
320,192,149184,128,0,149334:0:0:0:0:
448,192,149334,128,0,149484:0:0:0:0:
64,192,149484,128,0,149634:0:0:0:0:
192,192,149634,128,0,149784:0:0:0:0:
448,192,149784,1,0,0:0:0:0:
320,192,149784,1,0,0:0:0:0:
64,192,150084,128,0,150384:0:0:0:0:
192,192,150384,128,0,150984:0:0:0:0:
320,192,150384,128,0,150984:0:0:0:0:
448,192,150984,128,0,151134:0:0:0:0:
320,192,151134,128,0,151284:0:0:0:0:
64,192,151284,128,0,151434:0:0:0:0:
192,192,151434,128,0,151584:0:0:0:0:
320,192,151584,128,0,151734:0:0:0:0:
448,192,151734,128,0,151884:0:0:0:0:
64,192,151884,128,0,152034:0:0:0:0:
192,192,152034,128,0,152184:0:0:0:0:
448,192,152184,1,0,0:0:0:0:
320,192,152184,1,0,0:0:0:0:
320,192,152484,128,0,152784:0:0:0:0:
460,192,152784,128,0,155034:0:0:0:0:
64,192,152784,1,0,0:0:0:0:
192,192,153009,1,0,0:0:0:0:
320,192,153234,1,0,0:0:0:0:
320,192,153384,1,0,0:0:0:0:
153,192,153609,1,0,0:0:0:0:
64,192,153834,1,0,0:0:0:0:
64,192,153984,1,0,0:0:0:0:
192,192,154209,1,0,0:0:0:0:
320,192,154434,1,0,0:0:0:0:
320,192,154584,1,0,0:0:0:0:
192,192,154809,1,0,0:0:0:0:
64,192,155034,1,0,0:0:0:0:
192,192,155184,128,0,155784:0:0:0:0:
320,192,155184,128,0,155784:0:0:0:0:
51,192,155784,1,0,0:0:0:0:
153,192,155934,1,0,0:0:0:0:
320,192,156084,1,0,0:0:0:0:
448,192,156234,1,0,0:0:0:0:
64,192,156384,1,0,0:0:0:0:
320,192,156534,1,0,0:0:0:0:
153,192,156684,1,0,0:0:0:0:
448,192,156834,1,0,0:0:0:0:
51,192,156984,1,0,0:0:0:0:
320,192,156984,1,0,0:0:0:0:
448,192,157284,1,0,0:0:0:0:
192,192,157584,128,0,158184:0:0:0:0:
320,192,157584,128,0,158184:0:0:0:0:
448,192,158184,1,0,0:0:0:0:
320,192,158334,1,0,0:0:0:0:
192,192,158484,1,0,0:0:0:0:
64,192,158634,1,0,0:0:0:0:
448,192,158784,1,0,0:0:0:0:
192,192,158934,1,0,0:0:0:0:
320,192,159084,1,0,0:0:0:0:
51,192,159234,1,0,0:0:0:0:
460,192,159384,1,0,0:0:0:0:
192,192,159384,1,0,0:0:0:0:
51,192,159684,1,0,0:0:0:0:
192,192,159684,1,0,0:0:0:0:
448,192,159984,128,0,160584:0:0:0:0:
320,192,160284,1,0,0:0:0:0:
51,192,160584,1,0,0:0:0:0:
192,192,160584,1,0,0:0:0:0:
51,192,160884,128,0,161784:0:0:0:0:
460,192,160884,1,0,0:0:0:0:
153,192,161184,1,0,0:0:0:0:
320,192,161184,1,0,0:0:0:0:
192,192,161484,1,0,0:0:0:0:
460,192,161784,1,0,0:0:0:0:
320,192,161784,1,0,0:0:0:0:
448,192,162084,128,0,162384:0:0:0:0:
51,192,162384,1,0,0:0:0:0:
192,192,162609,1,0,0:0:0:0:
448,192,162834,1,0,0:0:0:0:
64,192,162984,1,0,0:0:0:0:
192,192,163209,1,0,0:0:0:0:
448,192,163434,1,0,0:0:0:0:
64,192,163584,1,0,0:0:0:0:
192,192,163809,1,0,0:0:0:0:
448,192,164034,1,0,0:0:0:0:
64,192,164184,1,0,0:0:0:0:
192,192,164409,1,0,0:0:0:0:
448,192,164634,1,0,0:0:0:0:
192,192,164784,1,0,0:0:0:0:
320,192,164784,128,0,165984:0:0:0:0:
153,192,165984,128,0,167184:0:0:0:0:
51,192,167184,128,0,168384:0:0:0:0:
460,192,168384,128,0,169584:0:0:0:0:
320,192,169584,128,0,174084:0:0:0:0:
460,192,171984,128,0,174084:0:0:0:0:
320,192,174384,128,0,175584:0:0:0:0:
448,192,175584,128,0,176784:0:0:0:0:
64,192,176784,128,0,177984:0:0:0:0:
192,192,177984,128,0,179184:0:0:0:0:
64,192,179184,128,0,183984:0:0:0:0:
192,192,181584,128,0,183984:0:0:0:0:
448,192,183984,128,0,184584:0:0:0:0:
320,192,183984,1,0,0:0:0:0:
320,192,184584,1,0,0:0:0:0:
192,192,185184,128,0,185784:0:0:0:0:
320,192,185784,1,0,0:0:0:0:
448,192,186384,128,0,186984:0:0:0:0:
320,192,186984,1,0,0:0:0:0:
192,192,187584,128,0,188184:0:0:0:0:
320,192,188184,1,0,0:0:0:0:
64,192,188784,128,0,189384:0:0:0:0:
192,192,189384,1,0,0:0:0:0:
320,192,189984,128,0,190584:0:0:0:0:
153,192,190584,1,0,0:0:0:0:
64,192,191184,128,0,191784:0:0:0:0:
192,192,191784,1,0,0:0:0:0:
320,192,192384,128,0,192984:0:0:0:0:
192,192,192984,1,0,0:0:0:0:
51,192,193584,128,0,194784:0:0:0:0:
448,192,193584,128,0,194784:0:0:0:0:
320,192,194784,128,0,195984:0:0:0:0:
192,192,195384,1,0,0:0:0:0:
192,192,195984,128,0,197184:0:0:0:0:
51,192,196584,1,0,0:0:0:0:
448,192,197184,128,0,198384:0:0:0:0:
320,192,197784,1,0,0:0:0:0:
320,192,198384,128,0,199584:0:0:0:0:
153,192,199584,128,0,202884:0:0:0:0:
51,192,200784,128,0,202884:0:0:0:0:
51,192,203184,1,0,0:0:0:0:
460,192,203334,1,0,0:0:0:0:
51,192,203484,1,0,0:0:0:0:
448,192,203634,1,0,0:0:0:0:
192,192,203784,128,0,204234:0:0:0:0:
320,192,204234,1,0,0:0:0:0:
64,192,204534,128,0,204609:0:0:0:0:
192,192,204684,128,0,204759:0:0:0:0:
320,192,204834,128,0,204909:0:0:0:0:
448,192,204984,128,0,205059:0:0:0:0:
320,192,205134,128,0,205209:0:0:0:0:
192,192,205284,128,0,205359:0:0:0:0:
64,192,205434,128,0,205509:0:0:0:0:
460,192,205584,1,0,0:0:0:0:
51,192,205734,1,0,0:0:0:0:
460,192,205884,1,0,0:0:0:0:
51,192,206034,1,0,0:0:0:0:
320,192,206184,128,0,206634:0:0:0:0:
192,192,206634,1,0,0:0:0:0:
448,192,206934,128,0,207009:0:0:0:0:
320,192,207084,128,0,207159:0:0:0:0:
192,192,207234,128,0,207309:0:0:0:0:
64,192,207384,128,0,207459:0:0:0:0:
192,192,207534,128,0,207609:0:0:0:0:
320,192,207684,128,0,207759:0:0:0:0:
448,192,207834,128,0,207909:0:0:0:0:
64,192,207984,1,0,0:0:0:0:
192,192,208134,1,0,0:0:0:0:
64,192,208284,1,0,0:0:0:0:
192,192,208434,1,0,0:0:0:0:
448,192,208584,1,0,0:0:0:0:
320,192,208734,1,0,0:0:0:0:
448,192,208884,1,0,0:0:0:0:
320,192,209034,1,0,0:0:0:0:
64,192,209334,128,0,209409:0:0:0:0:
192,192,209484,128,0,209559:0:0:0:0:
320,192,209634,128,0,209709:0:0:0:0:
192,192,209784,128,0,209859:0:0:0:0:
448,192,209934,128,0,210009:0:0:0:0:
320,192,210084,128,0,210159:0:0:0:0:
192,192,210234,128,0,210309:0:0:0:0:
448,192,210384,128,0,210609:0:0:0:0:
320,192,210609,1,0,0:0:0:0:
192,192,210834,1,0,0:0:0:0:
64,192,210984,128,0,211209:0:0:0:0:
192,192,211209,1,0,0:0:0:0:
320,192,211434,1,0,0:0:0:0:
448,192,211584,128,0,211809:0:0:0:0:
320,192,211809,1,0,0:0:0:0:
153,192,212034,1,0,0:0:0:0:
64,192,212184,128,0,212409:0:0:0:0:
192,192,212409,1,0,0:0:0:0:
320,192,212634,1,0,0:0:0:0:
460,192,212784,128,0,212934:0:0:0:0:
192,192,212934,128,0,213084:0:0:0:0:
320,192,213084,128,0,213234:0:0:0:0:
51,192,213234,128,0,213384:0:0:0:0:
153,192,213384,128,0,213534:0:0:0:0:
64,192,213534,128,0,213684:0:0:0:0:
460,192,213684,128,0,213834:0:0:0:0:
320,192,213834,1,0,0:0:0:0:
448,192,214134,128,0,214284:0:0:0:0:
51,192,214284,128,0,214434:0:0:0:0:
153,192,214434,128,0,214584:0:0:0:0:
320,192,214584,128,0,214734:0:0:0:0:
64,192,214734,128,0,214884:0:0:0:0:
448,192,214884,128,0,215034:0:0:0:0:
320,192,215034,128,0,215184:0:0:0:0:
51,192,215184,128,0,215334:0:0:0:0:
448,192,215334,128,0,215484:0:0:0:0:
358,192,215484,128,0,215634:0:0:0:0:
64,192,215634,128,0,215784:0:0:0:0:
358,192,215784,128,0,215934:0:0:0:0:
192,192,215934,128,0,216084:0:0:0:0:
448,192,216084,128,0,216234:0:0:0:0:
192,192,216234,1,0,0:0:0:0:
460,192,216534,128,0,216684:0:0:0:0:
358,192,216684,128,0,216834:0:0:0:0:
153,192,216834,128,0,216984:0:0:0:0:
51,192,216984,128,0,217134:0:0:0:0:
153,192,217134,128,0,217284:0:0:0:0:
320,192,217284,128,0,217434:0:0:0:0:
460,192,217434,128,0,217584:0:0:0:0:
192,192,217584,128,0,217734:0:0:0:0:
64,192,217734,128,0,217884:0:0:0:0:
448,192,217884,128,0,218034:0:0:0:0:
320,192,218034,128,0,218184:0:0:0:0:
448,192,218184,128,0,218334:0:0:0:0:
320,192,218334,128,0,218484:0:0:0:0:
192,192,218484,128,0,218634:0:0:0:0:
64,192,218634,1,0,0:0:0:0:
320,192,218934,128,0,219084:0:0:0:0:
460,192,219084,128,0,219234:0:0:0:0:
320,192,219234,128,0,219384:0:0:0:0:
192,192,219384,128,0,219534:0:0:0:0:
64,192,219534,128,0,219684:0:0:0:0:
192,192,219684,128,0,219834:0:0:0:0:
320,192,219834,128,0,219984:0:0:0:0:
448,192,219984,128,0,220171:0:0:0:0:
51,192,220171,128,0,220359:0:0:0:0:
320,192,220359,128,0,220584:0:0:0:0:
153,192,220584,128,0,220771:0:0:0:0:
448,192,220771,128,0,220959:0:0:0:0:
64,192,220959,128,0,221184:0:0:0:0:
320,192,221184,128,0,221371:0:0:0:0:
192,192,221371,128,0,221559:0:0:0:0:
51,192,221559,128,0,221784:0:0:0:0:
448,192,221784,1,0,0:0:0:0:
320,192,221784,1,0,0:0:0:0:
153,192,221934,1,0,0:0:0:0:
64,192,221934,1,0,0:0:0:0:
448,192,222084,1,0,0:0:0:0:
320,192,222084,1,0,0:0:0:0:
153,192,222234,1,0,0:0:0:0:
64,192,222234,1,0,0:0:0:0:
460,192,222384,1,0,0:0:0:0:
320,192,222384,1,0,0:0:0:0:
64,192,222534,1,0,0:0:0:0:
192,192,222684,1,0,0:0:0:0:
320,192,222834,1,0,0:0:0:0:
64,192,222984,1,0,0:0:0:0:
448,192,222984,1,0,0:0:0:0:
320,192,223134,1,0,0:0:0:0:
51,192,223284,1,0,0:0:0:0:
460,192,223434,1,0,0:0:0:0:
64,192,223584,1,0,0:0:0:0:
320,192,223584,1,0,0:0:0:0:
448,192,223734,1,0,0:0:0:0:
64,192,223884,1,0,0:0:0:0:
320,192,224034,1,0,0:0:0:0:
448,192,224184,1,0,0:0:0:0:
64,192,224184,1,0,0:0:0:0:
192,192,224334,1,0,0:0:0:0:
320,192,224484,1,0,0:0:0:0:
448,192,224634,1,0,0:0:0:0:
153,192,224784,1,0,0:0:0:0:
51,192,224784,1,0,0:0:0:0:
320,192,224934,1,0,0:0:0:0:
51,192,225084,1,0,0:0:0:0:
320,192,225234,1,0,0:0:0:0:
192,192,225384,1,0,0:0:0:0:
448,192,225384,1,0,0:0:0:0:
320,192,225534,1,0,0:0:0:0:
64,192,225684,1,0,0:0:0:0:
192,192,225834,1,0,0:0:0:0:
448,192,225984,1,0,0:0:0:0:
320,192,225984,1,0,0:0:0:0:
64,192,226134,1,0,0:0:0:0:
192,192,226284,1,0,0:0:0:0:
320,192,226434,1,0,0:0:0:0:
64,192,226584,1,0,0:0:0:0:
448,192,226584,1,0,0:0:0:0:
320,192,226734,1,0,0:0:0:0:
192,192,226884,1,0,0:0:0:0:
64,192,227034,1,0,0:0:0:0:
192,192,227184,1,0,0:0:0:0:
448,192,227184,1,0,0:0:0:0:
320,192,227334,1,0,0:0:0:0:
64,192,227484,1,0,0:0:0:0:
320,192,227634,1,0,0:0:0:0:
192,192,227784,1,0,0:0:0:0:
64,192,227784,1,0,0:0:0:0:
460,192,227934,1,0,0:0:0:0:
51,192,228084,1,0,0:0:0:0:
460,192,228234,1,0,0:0:0:0:
64,192,228384,1,0,0:0:0:0:
320,192,228384,1,0,0:0:0:0:
448,192,228534,1,0,0:0:0:0:
64,192,228684,1,0,0:0:0:0:
153,192,228834,1,0,0:0:0:0:
448,192,228984,1,0,0:0:0:0:
320,192,228984,1,0,0:0:0:0:
153,192,229134,1,0,0:0:0:0:
448,192,229284,1,0,0:0:0:0:
192,192,229434,1,0,0:0:0:0:
460,192,229584,128,0,231834:0:0:0:0:
320,192,229584,1,0,0:0:0:0:
64,192,229809,1,0,0:0:0:0:
192,192,230034,1,0,0:0:0:0:
320,192,230184,1,0,0:0:0:0:
64,192,230409,1,0,0:0:0:0:
192,192,230634,1,0,0:0:0:0:
320,192,230784,1,0,0:0:0:0:
64,192,231009,1,0,0:0:0:0:
192,192,231234,1,0,0:0:0:0:
320,192,231384,1,0,0:0:0:0:
64,192,231609,1,0,0:0:0:0:
153,192,231834,1,0,0:0:0:0:
320,192,231984,1,0,0:0:0:0:
448,192,231984,1,0,0:0:0:0:
64,192,232134,1,0,0:0:0:0:
192,192,232284,1,0,0:0:0:0:
320,192,232434,1,0,0:0:0:0:
448,192,232584,1,0,0:0:0:0:
64,192,232584,1,0,0:0:0:0:
320,192,232734,1,0,0:0:0:0:
64,192,232884,1,0,0:0:0:0:
448,192,233034,1,0,0:0:0:0:
320,192,233184,1,0,0:0:0:0:
64,192,233184,1,0,0:0:0:0:
448,192,233334,1,0,0:0:0:0:
64,192,233484,1,0,0:0:0:0:
320,192,233634,1,0,0:0:0:0:
448,192,233784,1,0,0:0:0:0:
64,192,233784,1,0,0:0:0:0:
192,192,233934,1,0,0:0:0:0:
320,192,234084,1,0,0:0:0:0:
448,192,234234,1,0,0:0:0:0:
64,192,234384,1,0,0:0:0:0:
192,192,234384,1,0,0:0:0:0:
320,192,234534,1,0,0:0:0:0:
64,192,234684,1,0,0:0:0:0:
320,192,234834,1,0,0:0:0:0:
192,192,234984,1,0,0:0:0:0:
448,192,234984,1,0,0:0:0:0:
320,192,235134,1,0,0:0:0:0:
64,192,235284,1,0,0:0:0:0:
192,192,235434,1,0,0:0:0:0:
320,192,235584,1,0,0:0:0:0:
448,192,235584,1,0,0:0:0:0:
64,192,235734,1,0,0:0:0:0:
192,192,235884,1,0,0:0:0:0:
320,192,236034,1,0,0:0:0:0:
448,192,236184,1,0,0:0:0:0:
64,192,236184,1,0,0:0:0:0:
320,192,236334,1,0,0:0:0:0:
192,192,236484,1,0,0:0:0:0:
64,192,236634,1,0,0:0:0:0:
192,192,236784,1,0,0:0:0:0:
448,192,236784,1,0,0:0:0:0:
320,192,236934,1,0,0:0:0:0:
64,192,237084,1,0,0:0:0:0:
320,192,237234,1,0,0:0:0:0:
192,192,237384,1,0,0:0:0:0:
64,192,237384,1,0,0:0:0:0:
448,192,237534,1,0,0:0:0:0:
64,192,237684,1,0,0:0:0:0:
448,192,237834,1,0,0:0:0:0:
320,192,237984,1,0,0:0:0:0:
64,192,237984,1,0,0:0:0:0:
448,192,238134,1,0,0:0:0:0:
64,192,238284,1,0,0:0:0:0:
192,192,238434,1,0,0:0:0:0:
320,192,238584,1,0,0:0:0:0:
448,192,238584,1,0,0:0:0:0:
192,192,238734,1,0,0:0:0:0:
448,192,238884,1,0,0:0:0:0:
192,192,239034,1,0,0:0:0:0:
460,192,239184,128,0,240984:0:0:0:0:
320,192,239184,1,0,0:0:0:0:
64,192,239409,1,0,0:0:0:0:
192,192,239634,1,0,0:0:0:0:
320,192,239784,1,0,0:0:0:0:
64,192,240009,1,0,0:0:0:0:
192,192,240234,1,0,0:0:0:0:
320,192,240384,1,0,0:0:0:0:
64,192,240609,1,0,0:0:0:0:
192,192,240834,1,0,0:0:0:0:
320,192,240984,1,0,0:0:0:0:
64,192,241059,1,0,0:0:0:0:
320,192,241134,1,0,0:0:0:0:
64,192,241284,1,0,0:0:0:0:
320,192,241434,1,0,0:0:0:0:
64,192,241584,128,0,242184:0:0:0:0:
448,192,241584,1,0,0:0:0:0:
448,192,242184,1,0,0:0:0:0:
320,192,242184,128,0,242334:0:0:0:0:
192,192,242334,128,0,242634:0:0:0:0:
64,192,242634,128,0,243984:0:0:0:0:
448,192,242784,1,0,0:0:0:0:
448,192,243384,1,0,0:0:0:0:
320,192,243384,1,0,0:0:0:0:
192,192,243684,128,0,243984:0:0:0:0:
448,192,243984,128,0,244884:0:0:0:0:
320,192,243984,1,0,0:0:0:0:
320,192,244584,128,0,244734:0:0:0:0:
64,192,244734,128,0,244884:0:0:0:0:
192,192,244884,128,0,245034:0:0:0:0:
320,192,245034,128,0,245784:0:0:0:0:
64,192,245184,1,0,0:0:0:0:
192,192,245784,128,0,246084:0:0:0:0:
448,192,245784,1,0,0:0:0:0:
64,192,246084,128,0,246384:0:0:0:0:
448,192,246384,128,0,246984:0:0:0:0:
64,192,246984,1,0,0:0:0:0:
192,192,246984,128,0,247134:0:0:0:0:
320,192,247134,128,0,247434:0:0:0:0:
448,192,247434,128,0,248784:0:0:0:0:
64,192,247584,1,0,0:0:0:0:
192,192,248184,1,0,0:0:0:0:
64,192,248184,1,0,0:0:0:0:
320,192,248484,128,0,248784:0:0:0:0:
64,192,248784,128,0,249009:0:0:0:0:
320,192,249009,128,0,249234:0:0:0:0:
192,192,249234,128,0,249384:0:0:0:0:
64,192,249384,128,0,249609:0:0:0:0:
320,192,249609,128,0,249834:0:0:0:0:
192,192,249834,128,0,249984:0:0:0:0:
64,192,249984,128,0,250209:0:0:0:0:
320,192,250209,128,0,250434:0:0:0:0:
192,192,250434,128,0,250584:0:0:0:0:
64,192,250584,128,0,250809:0:0:0:0:
320,192,250809,128,0,251034:0:0:0:0:
192,192,251034,128,0,251184:0:0:0:0:
460,192,251184,1,0,0:0:0:0:
64,192,251184,128,0,251784:0:0:0:0:
448,192,251784,1,0,0:0:0:0:
320,192,251784,128,0,251934:0:0:0:0:
192,192,251934,128,0,252234:0:0:0:0:
64,192,252234,128,0,253584:0:0:0:0:
448,192,252384,1,0,0:0:0:0:
448,192,252984,1,0,0:0:0:0:
320,192,252984,1,0,0:0:0:0:
192,192,253284,128,0,253584:0:0:0:0:
448,192,253584,128,0,254484:0:0:0:0:
320,192,253584,1,0,0:0:0:0:
320,192,254184,128,0,254334:0:0:0:0:
64,192,254334,128,0,254484:0:0:0:0:
192,192,254484,128,0,254634:0:0:0:0:
320,192,254634,128,0,255384:0:0:0:0:
64,192,254784,1,0,0:0:0:0:
192,192,255384,128,0,255684:0:0:0:0:
448,192,255384,1,0,0:0:0:0:
64,192,255684,128,0,255984:0:0:0:0:
448,192,255984,128,0,256584:0:0:0:0:
64,192,256584,1,0,0:0:0:0:
192,192,256584,128,0,256734:0:0:0:0:
320,192,256734,128,0,257034:0:0:0:0:
448,192,257034,128,0,258384:0:0:0:0:
64,192,257184,1,0,0:0:0:0:
192,192,257784,1,0,0:0:0:0:
64,192,257784,1,0,0:0:0:0:
320,192,258084,128,0,258384:0:0:0:0:
64,192,258384,128,0,258984:0:0:0:0:
320,192,258609,128,0,258834:0:0:0:0:
192,192,258834,128,0,258984:0:0:0:0:
448,192,258984,128,0,259584:0:0:0:0:
192,192,259209,128,0,259434:0:0:0:0:
320,192,259434,128,0,259584:0:0:0:0:
64,192,259584,128,0,260634:0:0:0:0:
192,192,259884,128,0,260634:0:0:0:0:
320,192,260184,128,0,260634:0:0:0:0:
448,192,260484,128,0,260634:0:0:0:0:
64,192,260784,128,0,261384:0:0:0:0:
448,192,260784,128,0,261384:0:0:0:0:
320,192,261384,1,0,0:0:0:0:
192,192,261534,1,0,0:0:0:0:
64,192,261684,1,0,0:0:0:0:
448,192,261834,1,0,0:0:0:0:
192,192,261984,1,0,0:0:0:0:
320,192,261984,1,0,0:0:0:0:
64,192,262134,1,0,0:0:0:0:
448,192,262284,1,0,0:0:0:0:
320,192,262434,1,0,0:0:0:0:
192,192,262584,1,0,0:0:0:0:
64,192,262584,1,0,0:0:0:0:
448,192,262734,1,0,0:0:0:0:
320,192,262884,1,0,0:0:0:0:
192,192,263034,1,0,0:0:0:0:
64,192,263184,128,0,263784:0:0:0:0:
448,192,263184,128,0,263784:0:0:0:0:
192,192,263784,1,0,0:0:0:0:
320,192,263934,1,0,0:0:0:0:
448,192,264084,1,0,0:0:0:0:
64,192,264234,1,0,0:0:0:0:
192,192,264384,1,0,0:0:0:0:
320,192,264384,1,0,0:0:0:0:
448,192,264534,1,0,0:0:0:0:
64,192,264684,1,0,0:0:0:0:
192,192,264834,1,0,0:0:0:0:
448,192,264984,1,0,0:0:0:0:
320,192,264984,1,0,0:0:0:0:
64,192,265134,1,0,0:0:0:0:
192,192,265284,1,0,0:0:0:0:
320,192,265434,1,0,0:0:0:0:
192,192,265584,128,0,266184:0:0:0:0:
448,192,265584,128,0,266184:0:0:0:0:
64,192,266184,1,0,0:0:0:0:
192,192,266334,1,0,0:0:0:0:
64,192,266484,1,0,0:0:0:0:
448,192,266634,1,0,0:0:0:0:
64,192,266784,1,0,0:0:0:0:
320,192,266784,1,0,0:0:0:0:
448,192,266934,1,0,0:0:0:0:
64,192,267084,1,0,0:0:0:0:
192,192,267234,1,0,0:0:0:0:
64,192,267384,1,0,0:0:0:0:
448,192,267384,1,0,0:0:0:0:
320,192,267534,1,0,0:0:0:0:
64,192,267684,1,0,0:0:0:0:
448,192,267834,1,0,0:0:0:0:
64,192,267984,1,0,0:0:0:0:
320,192,267984,1,0,0:0:0:0:
192,192,268134,1,0,0:0:0:0:
320,192,268284,1,0,0:0:0:0:
448,192,268584,1,0,0:0:0:0:
320,192,268734,1,0,0:0:0:0:
192,192,268884,1,0,0:0:0:0:
448,192,268884,1,0,0:0:0:0:
64,192,269184,1,0,0:0:0:0:
192,192,269334,1,0,0:0:0:0:
320,192,269334,1,0,0:0:0:0:
448,192,269484,1,0,0:0:0:0:
64,192,269784,1,0,0:0:0:0:
320,192,269784,1,0,0:0:0:0:
448,192,270084,1,0,0:0:0:0:
64,192,270384,128,0,270909:0:0:0:0:
192,192,270384,128,0,270909:0:0:0:0:
320,192,270384,128,0,270909:0:0:0:0:
64,192,270984,1,0,0:0:0:0:
192,192,270984,1,0,0:0:0:0:
320,192,270984,1,0,0:0:0:0:
192,192,271584,128,0,272109:0:0:0:0:
320,192,271584,128,0,272109:0:0:0:0:
448,192,271584,128,0,272109:0:0:0:0:
192,192,272184,1,0,0:0:0:0:
320,192,272184,1,0,0:0:0:0:
448,192,272184,1,0,0:0:0:0:
64,192,272784,128,0,273234:0:0:0:0:
192,192,272784,128,0,273234:0:0:0:0:
64,192,273384,128,0,273834:0:0:0:0:
320,192,273384,128,0,273834:0:0:0:0:
448,192,273984,128,0,274434:0:0:0:0:
320,192,273984,128,0,274434:0:0:0:0:
192,192,274584,128,0,275034:0:0:0:0:
448,192,274584,128,0,275034:0:0:0:0:
64,192,275184,128,0,277284:0:0:0:0:
448,192,275784,128,0,276384:0:0:0:0:
320,192,276384,128,0,277284:0:0:0:0:
448,192,277284,128,0,282384:0:0:0:0:
51,192,283225,128,0,285625:0:0:0:0:
320,192,283225,1,0,0:0:0:0:
448,192,283825,1,0,0:0:0:0:
320,192,283975,1,0,0:0:0:0:
153,192,284275,128,0,285625:0:0:0:0:
320,192,285775,128,0,286900:0:0:0:0:
64,192,286375,1,0,0:0:0:0:
192,192,286600,1,0,0:0:0:0:
460,192,286900,128,0,288325:0:0:0:0:
320,192,287800,128,0,288100:0:0:0:0:
192,192,288100,128,0,288325:0:0:0:0:
320,192,288475,128,0,290762:0:0:0:0:
51,192,289075,128,0,289262:0:0:0:0:
153,192,289262,128,0,289562:0:0:0:0:
448,192,289562,128,0,290762:0:0:0:0:
460,192,291100,128,0,293066:0:0:0:0:
320,192,291100,1,0,0:0:0:0:
51,192,291325,1,0,0:0:0:0:
153,192,291550,1,0,0:0:0:0:
320,192,291791,1,0,0:0:0:0:
51,192,292016,1,0,0:0:0:0:
153,192,292241,1,0,0:0:0:0:
320,192,292391,1,0,0:0:0:0:
51,192,292653,1,0,0:0:0:0:
153,192,292878,1,0,0:0:0:0:
256,192,293066,128,0,293741:0:0:0:0:
51,192,293312,1,0,0:0:0:0:
192,192,293891,1,0,0:0:0:0:
64,192,293891,128,0,294512:0:0:0:0:
320,192,294212,1,0,0:0:0:0:
460,192,294512,1,0,0:0:0:0:
358,192,294662,1,0,0:0:0:0:
153,192,294887,1,0,0:0:0:0:
320,192,295112,128,0,296574:0:0:0:0:
51,192,295262,1,0,0:0:0:0:
153,192,295562,1,0,0:0:0:0:
448,192,295899,1,0,0:0:0:0:
192,192,296199,1,0,0:0:0:0:
64,192,296574,128,0,297198:0:0:0:0:
358,192,296898,1,0,0:0:0:0:
448,192,297198,1,0,0:0:0:0:
320,192,297348,1,0,0:0:0:0:
192,192,297498,1,0,0:0:0:0:
320,192,297648,128,0,298998:0:0:0:0:
64,192,297798,1,0,0:0:0:0:
64,192,298510,1,0,0:0:0:0:
448,192,298848,1,0,0:0:0:0:
320,192,299148,128,0,300123:0:0:0:0:
64,192,299148,1,0,0:0:0:0:
192,192,299448,1,0,0:0:0:0:
448,192,299823,1,0,0:0:0:0:
192,192,299973,1,0,0:0:0:0:
64,192,300123,1,0,0:0:0:0:
192,192,300273,128,0,301773:0:0:0:0:
448,192,301435,1,0,0:0:0:0:
448,192,301773,128,0,304585:0:0:0:0:
51,192,301960,1,0,0:0:0:0:
153,192,302185,1,0,0:0:0:0:
256,192,302410,1,0,0:0:0:0:
51,192,302635,1,0,0:0:0:0:
153,192,302860,1,0,0:0:0:0:
51,192,303235,128,0,304585:0:0:0:0:
153,192,304697,1,0,0:0:0:0:
320,192,304735,128,0,306347:0:0:0:0:
64,192,305185,1,0,0:0:0:0:
460,192,305710,1,0,0:0:0:0:
51,192,306010,1,0,0:0:0:0:
153,192,306047,1,0,0:0:0:0:
64,192,306347,128,0,307247:0:0:0:0:
256,192,307360,1,0,0:0:0:0:
460,192,307360,128,0,307847:0:0:0:0:
358,192,307847,128,0,308334:0:0:0:0:
192,192,308334,128,0,308672:0:0:0:0:
460,192,308672,128,0,309947:0:0:0:0:
51,192,308672,128,0,309947:0:0:0:0:
256,192,310022,128,0,310997:0:0:0:0:
51,192,310022,128,0,312647:0:0:0:0:
448,192,310472,1,0,0:0:0:0:
192,192,310997,1,0,0:0:0:0:
358,192,311372,128,0,312047:0:0:0:0:
460,192,311709,128,0,312647:0:0:0:0:
192,192,312347,128,0,312647:0:0:0:0:
320,192,312722,128,0,314372:0:0:0:0:
460,192,313209,1,0,0:0:0:0:
51,192,313622,128,0,315047:0:0:0:0:
448,192,313997,128,0,314372:0:0:0:0:
153,192,314372,128,0,315047:0:0:0:0:
358,192,314709,128,0,315272:0:0:0:0:
448,192,315047,128,0,315272:0:0:0:0:
153,192,315347,128,0,316697:0:0:0:0:
51,192,315347,128,0,317897:0:0:0:0:
460,192,315347,1,0,0:0:0:0:
320,192,315347,1,0,0:0:0:0:
448,192,316022,1,0,0:0:0:0:
320,192,316359,1,0,0:0:0:0:
448,192,317297,1,0,0:0:0:0:
256,192,317672,1,0,0:0:0:0:
51,192,318009,128,0,320672:0:0:0:0:
192,192,318347,1,0,0:0:0:0:
460,192,318684,1,0,0:0:0:0:
256,192,318984,1,0,0:0:0:0:
460,192,319172,1,0,0:0:0:0:
460,192,319697,1,0,0:0:0:0:
256,192,319847,128,0,320522:0:0:0:0:
192,192,320672,1,0,0:0:0:0:
460,192,321309,1,0,0:0:0:0:
358,192,321684,1,0,0:0:0:0:
153,192,321984,128,0,322997:0:0:0:0:
64,192,321984,128,0,322997:0:0:0:0:
448,192,322622,1,0,0:0:0:0:
320,192,322997,1,0,0:0:0:0:
153,192,323297,128,0,325397:0:0:0:0:
256,192,323297,1,0,0:0:0:0:
358,192,325397,1,0,0:0:0:0:
460,192,325397,1,0,0:0:0:0:
51,192,325997,128,0,340847:0:0:0:0:
460,192,326672,128,0,326897:0:0:0:0:
358,192,326897,128,0,327234:0:0:0:0:
192,192,327234,128,0,338409:0:0:0:0:
