osu file format v14

[General]
AudioFilename: audio.mp3
AudioLeadIn: 0
PreviewTime: -1
Countdown: 1
SampleSet: Soft
StackLeniency: 0.7
Mode: 3
LetterboxInBreaks: 0
SpecialStyle: 1
WidescreenStoryboard: 1

[Editor]
DistanceSpacing: 0.8
BeatDivisor: 8
GridSize: 32
TimelineZoom: 1

[Metadata]
Title:Shelter - Full Version
TitleUnicode:Shelter - Full Version
Artist:Porter Robinson & Madeon
ArtistUnicode:Porter Robinson & Madeon
Creator:HybridLiam
Version:Alone
Source:
Tags:
BeatmapID:1149037
BeatmapSetID:541560

[Difficulty]
HPDrainRate:8
CircleSize:5
OverallDifficulty:7.5
ApproachRate:5
SliderMultiplier:1.4
SliderTickRate:1

[Events]
//Background and Video events
0,0,"Background.jpg",0,0
//Break Periods
//Storyboard Layer 0 (Background)
//Storyboard Layer 1 (Fail)
//Storyboard Layer 2 (Pass)
//Storyboard Layer 3 (Foreground)
//Storyboard Sound Samples

[TimingPoints]
0,600,4,2,0,15,1,0
49584.3369400425,600,4,2,0,15,1,0
49612,-133.333333333333,4,2,0,15,0,0
59184,-100,4,2,0,15,0,0
66384,-133.333333333333,4,2,0,15,0,0
68184,-80,4,2,0,15,0,0
68334,-133.333333333333,4,2,0,15,0,0
68784,-100,4,2,0,15,0,0
87985,-200,4,2,0,15,0,0
92184,-400,4,2,0,15,0,0
92484,-200,4,2,0,15,0,0
92559,-166.666666666667,4,2,0,15,0,0
92634,-133.333333333333,4,2,0,15,0,0
92709,-111.111111111111,4,2,0,15,0,0
92784,-100,4,2,0,15,0,0
107184,-200,4,2,0,15,0,0
121584,-222.222222222222,4,2,0,15,0,0
122784,-250,4,2,0,15,0,0
123995,-333.333333333333,4,2,0,15,0,0
124884,-200,4,2,0,15,0,0
124959,-133.333333333333,4,2,0,15,0,0
125034,-100,4,2,0,15,0,0
126384,-100,4,2,0,15,0,1
144995,-133.333333333333,4,2,0,15,0,0
145580,-90.9090909090909,4,2,0,15,0,1
152784,-100,4,2,0,15,0,0
155184,-100,4,2,0,15,0,1
159984,-100,4,2,0,15,0,0
162384,-111.111111111111,4,2,0,15,0,0
162984,-125,4,2,0,15,0,0
163585,-142.857142857143,4,2,0,15,0,0
164185,-166.666666666667,4,2,0,15,0,0
164784,-200,4,2,0,15,0,0
183985,-133.333333333333,4,2,0,15,0,0
198384,-200,4,2,0,15,0,0
203184,-133.333333333333,4,2,0,15,0,0
212795,-100,4,2,0,15,0,0
219975,-133.333333333333,4,2,0,15,0,0
220809,-125,4,2,0,15,0,0
220959,-117.647058823529,4,2,0,15,0,0
221200,-111.111111111111,4,2,0,15,0,0
221409,-105.263157894737,4,2,0,15,0,0
221559,-100,4,2,0,15,0,1
269784,-100,4,2,0,15,0,0
270400,-133.333333333333,4,2,0,15,0,1
270984,-66.6666666666667,4,2,0,15,0,0
271575,-133.333333333333,4,2,0,15,0,1
272195,-66.6666666666667,4,2,0,15,0,0
272784,-100,4,2,0,15,0,1
275184,-133.333333333333,4,2,0,15,0,0
277284,-100,4,2,0,15,0,0
283225,600,4,2,0,15,1,0
285775,600,4,2,0,15,1,0
286900,600,4,2,0,15,1,0
288475,600,4,2,0,15,1,0
291116,600,4,2,0,15,1,0
293912,600,4,2,0,15,1,0
296598,600,4,2,0,15,1,0
301810,600,4,2,0,15,1,0
307397,600,4,2,0,15,1,0
315347,600,4,2,0,15,1,0
325393,-100,4,2,0,15,0,0
325993,-133.333333333333,4,2,0,15,0,0
338447,-200,4,2,0,15,0,0

[HitObjects]
256,192,49575,128,0,50184:0:0:0:0:
460,192,50184,128,0,50334:0:0:0:0:
358,192,50334,128,0,50634:0:0:0:0:
51,192,50634,128,0,51084:0:0:0:0:
51,192,51984,128,0,52584:0:0:0:0:
358,192,51984,1,0,0:0:0:0:
460,192,52584,128,0,52734:0:0:0:0:
358,192,52734,128,0,52884:0:0:0:0:
153,192,53034,1,0,0:0:0:0:
256,192,53034,128,0,53784:0:0:0:0:
153,192,53784,128,0,54384:0:0:0:0:
460,192,54084,128,0,54384:0:0:0:0:
51,192,54384,128,0,54984:0:0:0:0:
256,192,54384,1,0,0:0:0:0:
460,192,54984,128,0,55134:0:0:0:0:
358,192,55134,128,0,55434:0:0:0:0:
51,192,55284,128,0,56484:0:0:0:0:
153,192,55434,128,0,56484:0:0:0:0:
460,192,56484,128,0,59034:0:0:0:0:
256,192,56784,128,0,57234:0:0:0:0:
51,192,57009,1,0,0:0:0:0:
153,192,57234,1,0,0:0:0:0:
256,192,57384,128,0,57834:0:0:0:0:
51,192,57609,1,0,0:0:0:0:
153,192,57834,1,0,0:0:0:0:
256,192,57984,128,0,58434:0:0:0:0:
51,192,58209,1,0,0:0:0:0:
153,192,58434,1,0,0:0:0:0:
256,192,58584,128,0,59034:0:0:0:0:
358,192,58584,1,0,0:0:0:0:
51,192,58809,1,0,0:0:0:0:
153,192,59034,1,0,0:0:0:0:
460,192,59184,128,0,61584:0:0:0:0:
256,192,59184,1,0,0:0:0:0:
51,192,59184,128,0,59784:0:0:0:0:
256,192,59784,1,0,0:0:0:0:
358,192,59784,128,0,59934:0:0:0:0:
153,192,59934,128,0,60234:0:0:0:0:
51,192,60234,128,0,61284:0:0:0:0:
256,192,60984,1,0,0:0:0:0:
358,192,61284,128,0,61584:0:0:0:0:
51,192,61584,128,0,62484:0:0:0:0:
153,192,61584,128,0,62184:0:0:0:0:
256,192,62184,1,0,0:0:0:0:
358,192,62334,1,0,0:0:0:0:
460,192,62484,128,0,63984:0:0:0:0:
358,192,62634,128,0,63384:0:0:0:0:
256,192,63384,1,0,0:0:0:0:
153,192,63384,128,0,63684:0:0:0:0:
51,192,63684,128,0,63984:0:0:0:0:
153,192,63984,128,0,64884:0:0:0:0:
256,192,64584,1,0,0:0:0:0:
460,192,64584,1,0,0:0:0:0:
51,192,64734,1,0,0:0:0:0:
460,192,64884,128,0,66084:0:0:0:0:
358,192,64884,1,0,0:0:0:0:
51,192,65034,128,0,65784:0:0:0:0:
256,192,65784,1,0,0:0:0:0:
153,192,66084,1,0,0:0:0:0:
51,192,66234,1,0,0:0:0:0:
153,192,66309,1,0,0:0:0:0:
256,192,66384,128,0,68184:0:0:0:0:
460,192,66609,1,0,0:0:0:0:
358,192,66834,1,0,0:0:0:0:
460,192,66984,128,0,67209:0:0:0:0:
51,192,67209,1,0,0:0:0:0:
153,192,67434,1,0,0:0:0:0:
51,192,67584,128,0,67809:0:0:0:0:
460,192,67809,1,0,0:0:0:0:
358,192,68034,1,0,0:0:0:0:
460,192,68184,1,0,0:0:0:0:
153,192,68184,1,0,0:0:0:0:
51,192,68334,1,0,0:0:0:0:
358,192,68334,1,0,0:0:0:0:
256,192,68784,1,0,0:0:0:0:
460,192,68784,128,0,69384:0:0:0:0:
358,192,68784,1,0,0:0:0:0:
51,192,68859,1,0,0:0:0:0:
153,192,68934,1,0,0:0:0:0:
256,192,69009,1,0,0:0:0:0:
358,192,69084,1,0,0:0:0:0:
51,192,69159,1,0,0:0:0:0:
153,192,69234,1,0,0:0:0:0:
256,192,69309,1,0,0:0:0:0:
51,192,69384,1,0,0:0:0:0:
358,192,69384,1,0,0:0:0:0:
153,192,69534,1,0,0:0:0:0:
358,192,69684,1,0,0:0:0:0:
51,192,69834,1,0,0:0:0:0:
256,192,69984,1,0,0:0:0:0:
153,192,69984,1,0,0:0:0:0:
460,192,70134,1,0,0:0:0:0:
153,192,70284,1,0,0:0:0:0:
358,192,70434,1,0,0:0:0:0:
256,192,70584,1,0,0:0:0:0:
153,192,70584,1,0,0:0:0:0:
51,192,70584,1,0,0:0:0:0:
460,192,70884,1,0,0:0:0:0:
153,192,71184,1,0,0:0:0:0:
256,192,71184,1,0,0:0:0:0:
51,192,71184,128,0,71784:0:0:0:0:
460,192,71259,1,0,0:0:0:0:
358,192,71334,1,0,0:0:0:0:
256,192,71409,1,0,0:0:0:0:
153,192,71484,1,0,0:0:0:0:
460,192,71559,1,0,0:0:0:0:
358,192,71634,1,0,0:0:0:0:
256,192,71709,1,0,0:0:0:0:
460,192,71784,1,0,0:0:0:0:
153,192,71784,1,0,0:0:0:0:
358,192,71934,1,0,0:0:0:0:
153,192,72084,128,0,72984:0:0:0:0:
51,192,72084,1,0,0:0:0:0:
460,192,72234,1,0,0:0:0:0:
256,192,72384,1,0,0:0:0:0:
51,192,72384,1,0,0:0:0:0:
460,192,72534,1,0,0:0:0:0:
358,192,72684,1,0,0:0:0:0:
51,192,72834,1,0,0:0:0:0:
256,192,72984,1,0,0:0:0:0:
358,192,72984,1,0,0:0:0:0:
460,192,72984,1,0,0:0:0:0:
51,192,73284,1,0,0:0:0:0:
256,192,73584,1,0,0:0:0:0:
460,192,73584,128,0,74184:0:0:0:0:
358,192,73584,1,0,0:0:0:0:
51,192,73659,1,0,0:0:0:0:
153,192,73734,1,0,0:0:0:0:
256,192,73809,1,0,0:0:0:0:
358,192,73884,1,0,0:0:0:0:
51,192,73959,1,0,0:0:0:0:
153,192,74034,1,0,0:0:0:0:
256,192,74109,1,0,0:0:0:0:
51,192,74184,1,0,0:0:0:0:
358,192,74184,1,0,0:0:0:0:
153,192,74334,1,0,0:0:0:0:
51,192,74484,128,0,75384:0:0:0:0:
460,192,74484,1,0,0:0:0:0:
358,192,74634,1,0,0:0:0:0:
153,192,74784,1,0,0:0:0:0:
256,192,74784,1,0,0:0:0:0:
460,192,74934,1,0,0:0:0:0:
358,192,75084,1,0,0:0:0:0:
153,192,75234,1,0,0:0:0:0:
256,192,75384,1,0,0:0:0:0:
460,192,75384,1,0,0:0:0:0:
256,192,75684,128,0,76434:0:0:0:0:
51,192,75984,1,0,0:0:0:0:
153,192,75984,1,0,0:0:0:0:
460,192,76209,1,0,0:0:0:0:
358,192,76434,1,0,0:0:0:0:
256,192,76584,128,0,77034:0:0:0:0:
51,192,76809,1,0,0:0:0:0:
153,192,77034,1,0,0:0:0:0:
256,192,77184,128,0,77634:0:0:0:0:
51,192,77334,1,0,0:0:0:0:
460,192,77409,1,0,0:0:0:0:
358,192,77634,1,0,0:0:0:0:
153,192,77784,1,0,0:0:0:0:
256,192,77784,1,0,0:0:0:0:
460,192,77934,1,0,0:0:0:0:
51,192,78009,1,0,0:0:0:0:
153,192,78234,1,0,0:0:0:0:
51,192,78234,1,0,0:0:0:0:
256,192,78384,1,0,0:0:0:0:
460,192,78384,128,0,78984:0:0:0:0:
358,192,78384,1,0,0:0:0:0:
51,192,78459,1,0,0:0:0:0:
153,192,78534,1,0,0:0:0:0:
256,192,78609,1,0,0:0:0:0:
358,192,78684,1,0,0:0:0:0:
51,192,78759,1,0,0:0:0:0:
153,192,78834,1,0,0:0:0:0:
256,192,78909,1,0,0:0:0:0:
51,192,78984,1,0,0:0:0:0:
358,192,78984,1,0,0:0:0:0:
153,192,79134,1,0,0:0:0:0:
358,192,79284,1,0,0:0:0:0:
51,192,79434,1,0,0:0:0:0:
256,192,79584,1,0,0:0:0:0:
153,192,79584,1,0,0:0:0:0:
460,192,79734,1,0,0:0:0:0:
153,192,79884,1,0,0:0:0:0:
358,192,80034,1,0,0:0:0:0:
256,192,80184,1,0,0:0:0:0:
153,192,80184,1,0,0:0:0:0:
51,192,80184,1,0,0:0:0:0:
460,192,80484,1,0,0:0:0:0:
153,192,80784,1,0,0:0:0:0:
256,192,80784,1,0,0:0:0:0:
51,192,80784,128,0,81384:0:0:0:0:
460,192,80859,1,0,0:0:0:0:
358,192,80934,1,0,0:0:0:0:
256,192,81009,1,0,0:0:0:0:
153,192,81084,1,0,0:0:0:0:
460,192,81159,1,0,0:0:0:0:
358,192,81234,1,0,0:0:0:0:
256,192,81309,1,0,0:0:0:0:
460,192,81384,1,0,0:0:0:0:
153,192,81384,1,0,0:0:0:0:
358,192,81534,1,0,0:0:0:0:
153,192,81684,128,0,82584:0:0:0:0:
51,192,81684,1,0,0:0:0:0:
460,192,81834,1,0,0:0:0:0:
256,192,81984,1,0,0:0:0:0:
51,192,81984,1,0,0:0:0:0:
460,192,82134,1,0,0:0:0:0:
358,192,82284,1,0,0:0:0:0:
51,192,82434,1,0,0:0:0:0:
256,192,82584,1,0,0:0:0:0:
358,192,82584,1,0,0:0:0:0:
460,192,82584,1,0,0:0:0:0:
51,192,82884,1,0,0:0:0:0:
256,192,83184,1,0,0:0:0:0:
460,192,83184,128,0,83784:0:0:0:0:
358,192,83184,1,0,0:0:0:0:
51,192,83259,1,0,0:0:0:0:
153,192,83334,1,0,0:0:0:0:
256,192,83409,1,0,0:0:0:0:
358,192,83484,1,0,0:0:0:0:
51,192,83559,1,0,0:0:0:0:
153,192,83634,1,0,0:0:0:0:
256,192,83709,1,0,0:0:0:0:
51,192,83784,1,0,0:0:0:0:
358,192,83784,1,0,0:0:0:0:
153,192,83934,1,0,0:0:0:0:
51,192,84084,128,0,84984:0:0:0:0:
460,192,84084,1,0,0:0:0:0:
358,192,84234,1,0,0:0:0:0:
153,192,84384,1,0,0:0:0:0:
256,192,84384,1,0,0:0:0:0:
460,192,84534,1,0,0:0:0:0:
358,192,84684,1,0,0:0:0:0:
153,192,84834,1,0,0:0:0:0:
256,192,84984,1,0,0:0:0:0:
460,192,84984,1,0,0:0:0:0:
256,192,85284,128,0,86034:0:0:0:0:
51,192,85584,1,0,0:0:0:0:
153,192,85584,1,0,0:0:0:0:
460,192,85809,1,0,0:0:0:0:
358,192,86034,1,0,0:0:0:0:
256,192,86184,128,0,86634:0:0:0:0:
51,192,86409,1,0,0:0:0:0:
153,192,86634,1,0,0:0:0:0:
256,192,86784,128,0,87234:0:0:0:0:
460,192,87009,1,0,0:0:0:0:
358,192,87234,1,0,0:0:0:0:
256,192,87384,1,0,0:0:0:0:
51,192,87609,1,0,0:0:0:0:
153,192,87834,1,0,0:0:0:0:
51,192,87984,128,0,90384:0:0:0:0:
358,192,89784,128,0,90384:0:0:0:0:
153,192,90384,128,0,91284:0:0:0:0:
256,192,90384,1,0,0:0:0:0:
460,192,91284,128,0,92184:0:0:0:0:
358,192,91284,1,0,0:0:0:0:
256,192,92184,1,0,0:0:0:0:
51,192,92184,1,0,0:0:0:0:
153,192,92784,1,0,0:0:0:0:
256,192,92784,1,0,0:0:0:0:
460,192,92934,1,0,0:0:0:0:
358,192,93084,1,0,0:0:0:0:
460,192,93234,1,0,0:0:0:0:
358,192,93384,1,0,0:0:0:0:
153,192,93384,1,0,0:0:0:0:
51,192,93534,1,0,0:0:0:0:
153,192,93684,1,0,0:0:0:0:
460,192,93834,1,0,0:0:0:0:
256,192,93984,1,0,0:0:0:0:
358,192,93984,1,0,0:0:0:0:
51,192,94134,1,0,0:0:0:0:
358,192,94284,1,0,0:0:0:0:
51,192,94434,1,0,0:0:0:0:
153,192,94584,1,0,0:0:0:0:
358,192,94584,1,0,0:0:0:0:
460,192,94734,1,0,0:0:0:0:
358,192,94884,1,0,0:0:0:0:
51,192,95034,1,0,0:0:0:0:
256,192,95184,1,0,0:0:0:0:
153,192,95184,1,0,0:0:0:0:
358,192,95334,1,0,0:0:0:0:
460,192,95484,1,0,0:0:0:0:
51,192,95634,1,0,0:0:0:0:
153,192,95784,1,0,0:0:0:0:
358,192,95784,1,0,0:0:0:0:
460,192,95934,1,0,0:0:0:0:
358,192,96084,1,0,0:0:0:0:
51,192,96234,1,0,0:0:0:0:
256,192,96384,1,0,0:0:0:0:
358,192,96384,1,0,0:0:0:0:
51,192,96534,1,0,0:0:0:0:
153,192,96684,1,0,0:0:0:0:
460,192,96834,1,0,0:0:0:0:
153,192,96984,1,0,0:0:0:0:
358,192,96984,1,0,0:0:0:0:
256,192,97059,1,0,0:0:0:0:
51,192,97059,1,0,0:0:0:0:
153,192,97134,1,0,0:0:0:0:
460,192,97134,1,0,0:0:0:0:
51,192,97284,1,0,0:0:0:0:
358,192,97284,1,0,0:0:0:0:
153,192,97434,1,0,0:0:0:0:
460,192,97434,1,0,0:0:0:0:
256,192,97584,1,0,0:0:0:0:
358,192,97584,1,0,0:0:0:0:
460,192,97659,1,0,0:0:0:0:
153,192,97734,1,0,0:0:0:0:
51,192,97809,1,0,0:0:0:0:
358,192,97884,1,0,0:0:0:0:
460,192,97959,1,0,0:0:0:0:
153,192,98034,1,0,0:0:0:0:
51,192,98109,1,0,0:0:0:0:
460,192,98184,128,0,98784:0:0:0:0:
358,192,98184,1,0,0:0:0:0:
153,192,98334,1,0,0:0:0:0:
51,192,98484,1,0,0:0:0:0:
153,192,98634,1,0,0:0:0:0:
256,192,98784,128,0,99384:0:0:0:0:
358,192,98784,1,0,0:0:0:0:
51,192,98934,1,0,0:0:0:0:
153,192,99084,1,0,0:0:0:0:
51,192,99234,1,0,0:0:0:0:
358,192,99384,1,0,0:0:0:0:
460,192,99384,128,0,99984:0:0:0:0:
153,192,99534,1,0,0:0:0:0:
51,192,99684,1,0,0:0:0:0:
358,192,99834,1,0,0:0:0:0:
256,192,99984,1,0,0:0:0:0:
153,192,99984,1,0,0:0:0:0:
51,192,100059,1,0,0:0:0:0:
460,192,100134,1,0,0:0:0:0:
358,192,100209,1,0,0:0:0:0:
153,192,100284,1,0,0:0:0:0:
51,192,100359,1,0,0:0:0:0:
460,192,100434,1,0,0:0:0:0:
358,192,100509,1,0,0:0:0:0:
153,192,100584,1,0,0:0:0:0:
51,192,100584,128,0,101184:0:0:0:0:
460,192,100734,1,0,0:0:0:0:
358,192,100884,1,0,0:0:0:0:
460,192,101034,1,0,0:0:0:0:
153,192,101184,1,0,0:0:0:0:
256,192,101184,128,0,101784:0:0:0:0:
358,192,101334,1,0,0:0:0:0:
460,192,101484,1,0,0:0:0:0:
358,192,101634,1,0,0:0:0:0:
153,192,101784,1,0,0:0:0:0:
51,192,101784,128,0,102384:0:0:0:0:
460,192,101934,1,0,0:0:0:0:
358,192,102084,1,0,0:0:0:0:
153,192,102234,1,0,0:0:0:0:
256,192,102384,1,0,0:0:0:0:
358,192,102384,1,0,0:0:0:0:
460,192,102459,1,0,0:0:0:0:
358,192,102534,1,0,0:0:0:0:
51,192,102609,1,0,0:0:0:0:
256,192,102684,1,0,0:0:0:0:
460,192,102759,1,0,0:0:0:0:
153,192,102834,1,0,0:0:0:0:
51,192,102909,1,0,0:0:0:0:
256,192,102984,1,0,0:0:0:0:
460,192,102984,128,0,103584:0:0:0:0:
358,192,103134,1,0,0:0:0:0:
51,192,103284,1,0,0:0:0:0:
358,192,103434,1,0,0:0:0:0:
51,192,103584,128,0,104184:0:0:0:0:
256,192,103584,1,0,0:0:0:0:
153,192,103734,1,0,0:0:0:0:
460,192,103884,1,0,0:0:0:0:
153,192,104034,1,0,0:0:0:0:
460,192,104184,128,0,104784:0:0:0:0:
256,192,104184,1,0,0:0:0:0:
358,192,104334,1,0,0:0:0:0:
51,192,104484,1,0,0:0:0:0:
358,192,104634,1,0,0:0:0:0:
256,192,104784,1,0,0:0:0:0:
153,192,104784,1,0,0:0:0:0:
51,192,104859,1,0,0:0:0:0:
153,192,104934,1,0,0:0:0:0:
460,192,105009,1,0,0:0:0:0:
256,192,105084,1,0,0:0:0:0:
51,192,105159,1,0,0:0:0:0:
358,192,105234,1,0,0:0:0:0:
460,192,105309,1,0,0:0:0:0:
256,192,105384,1,0,0:0:0:0:
51,192,105384,128,0,105984:0:0:0:0:
358,192,105534,1,0,0:0:0:0:
460,192,105684,1,0,0:0:0:0:
153,192,105834,1,0,0:0:0:0:
460,192,105984,128,0,106584:0:0:0:0:
256,192,105984,1,0,0:0:0:0:
153,192,106134,1,0,0:0:0:0:
51,192,106284,1,0,0:0:0:0:
358,192,106434,1,0,0:0:0:0:
153,192,106584,1,0,0:0:0:0:
256,192,106584,1,0,0:0:0:0:
51,192,106659,1,0,0:0:0:0:
153,192,106734,1,0,0:0:0:0:
358,192,106734,1,0,0:0:0:0:
51,192,106884,1,0,0:0:0:0:
460,192,106884,1,0,0:0:0:0:
153,192,107034,1,0,0:0:0:0:
256,192,107034,1,0,0:0:0:0:
358,192,107184,128,0,108384:0:0:0:0:
256,192,107784,1,0,0:0:0:0:
460,192,108384,128,0,109584:0:0:0:0:
256,192,108984,1,0,0:0:0:0:
51,192,109584,128,0,110784:0:0:0:0:
256,192,110184,1,0,0:0:0:0:
153,192,110784,128,0,111984:0:0:0:0:
256,192,111384,1,0,0:0:0:0:
51,192,111984,128,0,113184:0:0:0:0:
256,192,112584,1,0,0:0:0:0:
358,192,113184,128,0,114384:0:0:0:0:
256,192,113784,1,0,0:0:0:0:
460,192,114384,128,0,115584:0:0:0:0:
256,192,114984,1,0,0:0:0:0:
153,192,115584,128,0,116784:0:0:0:0:
256,192,116184,1,0,0:0:0:0:
51,192,116784,128,0,121434:0:0:0:0:
358,192,117384,1,0,0:0:0:0:
460,192,117984,128,0,122634:0:0:0:0:
153,192,118584,1,0,0:0:0:0:
256,192,119184,128,0,120234:0:0:0:0:
358,192,119784,1,0,0:0:0:0:
256,192,120384,128,0,124884:0:0:0:0:
153,192,120984,1,0,0:0:0:0:
51,192,121584,128,0,125634:0:0:0:0:
460,192,122784,128,0,125634:0:0:0:0:
358,192,123984,128,0,124884:0:0:0:0:
153,192,123984,128,0,124884:0:0:0:0:
153,192,125184,1,0,0:0:0:0:
256,192,125259,1,0,0:0:0:0:
358,192,125334,1,0,0:0:0:0:
256,192,125484,1,0,0:0:0:0:
153,192,125634,1,0,0:0:0:0:
358,192,125634,1,0,0:0:0:0:
51,192,125784,1,0,0:0:0:0:
460,192,125784,1,0,0:0:0:0:
153,192,125934,1,0,0:0:0:0:
358,192,125934,1,0,0:0:0:0:
256,192,125934,128,0,126234:0:0:0:0:
256,192,126384,128,0,126984:0:0:0:0:
460,192,126384,1,0,0:0:0:0:
51,192,126384,1,0,0:0:0:0:
358,192,126459,1,0,0:0:0:0:
51,192,126534,1,0,0:0:0:0:
153,192,126609,1,0,0:0:0:0:
460,192,126684,1,0,0:0:0:0:
358,192,126759,1,0,0:0:0:0:
51,192,126834,1,0,0:0:0:0:
153,192,126909,1,0,0:0:0:0:
358,192,126984,1,0,0:0:0:0:
460,192,126984,1,0,0:0:0:0:
153,192,127134,1,0,0:0:0:0:
358,192,127284,1,0,0:0:0:0:
51,192,127434,1,0,0:0:0:0:
256,192,127584,1,0,0:0:0:0:
153,192,127584,1,0,0:0:0:0:
460,192,127734,1,0,0:0:0:0:
153,192,127884,1,0,0:0:0:0:
358,192,128034,1,0,0:0:0:0:
256,192,128184,1,0,0:0:0:0:
153,192,128184,1,0,0:0:0:0:
51,192,128184,1,0,0:0:0:0:
460,192,128484,1,0,0:0:0:0:
153,192,128784,1,0,0:0:0:0:
256,192,128784,1,0,0:0:0:0:
51,192,128784,128,0,129384:0:0:0:0:
460,192,128859,1,0,0:0:0:0:
358,192,128934,1,0,0:0:0:0:
256,192,129009,1,0,0:0:0:0:
153,192,129084,1,0,0:0:0:0:
460,192,129159,1,0,0:0:0:0:
358,192,129234,1,0,0:0:0:0:
256,192,129309,1,0,0:0:0:0:
460,192,129384,1,0,0:0:0:0:
153,192,129384,1,0,0:0:0:0:
358,192,129534,1,0,0:0:0:0:
153,192,129684,128,0,130584:0:0:0:0:
51,192,129684,1,0,0:0:0:0:
460,192,129834,1,0,0:0:0:0:
256,192,129984,1,0,0:0:0:0:
51,192,129984,1,0,0:0:0:0:
460,192,130134,1,0,0:0:0:0:
358,192,130284,1,0,0:0:0:0:
51,192,130434,1,0,0:0:0:0:
256,192,130584,1,0,0:0:0:0:
358,192,130584,1,0,0:0:0:0:
460,192,130584,1,0,0:0:0:0:
51,192,130884,1,0,0:0:0:0:
256,192,131184,1,0,0:0:0:0:
460,192,131184,128,0,131784:0:0:0:0:
358,192,131184,1,0,0:0:0:0:
51,192,131259,1,0,0:0:0:0:
153,192,131334,1,0,0:0:0:0:
256,192,131409,1,0,0:0:0:0:
358,192,131484,1,0,0:0:0:0:
51,192,131559,1,0,0:0:0:0:
153,192,131634,1,0,0:0:0:0:
256,192,131709,1,0,0:0:0:0:
51,192,131784,1,0,0:0:0:0:
358,192,131784,1,0,0:0:0:0:
153,192,131934,1,0,0:0:0:0:
51,192,132084,128,0,132984:0:0:0:0:
460,192,132084,1,0,0:0:0:0:
358,192,132234,1,0,0:0:0:0:
153,192,132384,1,0,0:0:0:0:
256,192,132384,1,0,0:0:0:0:
460,192,132534,1,0,0:0:0:0:
358,192,132684,1,0,0:0:0:0:
153,192,132834,1,0,0:0:0:0:
256,192,132984,1,0,0:0:0:0:
460,192,132984,1,0,0:0:0:0:
256,192,133284,128,0,134034:0:0:0:0:
51,192,133584,1,0,0:0:0:0:
153,192,133584,1,0,0:0:0:0:
460,192,133809,1,0,0:0:0:0:
358,192,134034,1,0,0:0:0:0:
256,192,134184,128,0,134634:0:0:0:0:
51,192,134409,1,0,0:0:0:0:
153,192,134634,1,0,0:0:0:0:
256,192,134784,128,0,135234:0:0:0:0:
51,192,134934,1,0,0:0:0:0:
460,192,135009,1,0,0:0:0:0:
358,192,135234,1,0,0:0:0:0:
153,192,135384,1,0,0:0:0:0:
256,192,135384,1,0,0:0:0:0:
460,192,135534,1,0,0:0:0:0:
51,192,135609,1,0,0:0:0:0:
153,192,135834,1,0,0:0:0:0:
51,192,135834,1,0,0:0:0:0:
256,192,135984,1,0,0:0:0:0:
460,192,135984,128,0,136584:0:0:0:0:
358,192,135984,1,0,0:0:0:0:
51,192,136059,1,0,0:0:0:0:
153,192,136134,1,0,0:0:0:0:
256,192,136209,1,0,0:0:0:0:
358,192,136284,1,0,0:0:0:0:
51,192,136359,1,0,0:0:0:0:
153,192,136434,1,0,0:0:0:0:
256,192,136509,1,0,0:0:0:0:
51,192,136584,1,0,0:0:0:0:
358,192,136584,1,0,0:0:0:0:
153,192,136734,1,0,0:0:0:0:
358,192,136884,1,0,0:0:0:0:
51,192,137034,1,0,0:0:0:0:
256,192,137184,1,0,0:0:0:0:
153,192,137184,1,0,0:0:0:0:
460,192,137334,1,0,0:0:0:0:
153,192,137484,1,0,0:0:0:0:
358,192,137634,1,0,0:0:0:0:
256,192,137784,1,0,0:0:0:0:
153,192,137784,1,0,0:0:0:0:
51,192,137784,1,0,0:0:0:0:
460,192,138084,1,0,0:0:0:0:
153,192,138384,1,0,0:0:0:0:
256,192,138384,1,0,0:0:0:0:
51,192,138384,128,0,138984:0:0:0:0:
460,192,138459,1,0,0:0:0:0:
358,192,138534,1,0,0:0:0:0:
256,192,138609,1,0,0:0:0:0:
153,192,138684,1,0,0:0:0:0:
460,192,138759,1,0,0:0:0:0:
358,192,138834,1,0,0:0:0:0:
256,192,138909,1,0,0:0:0:0:
460,192,138984,1,0,0:0:0:0:
153,192,138984,1,0,0:0:0:0:
358,192,139134,1,0,0:0:0:0:
153,192,139284,128,0,140184:0:0:0:0:
51,192,139284,1,0,0:0:0:0:
460,192,139434,1,0,0:0:0:0:
256,192,139584,1,0,0:0:0:0:
51,192,139584,1,0,0:0:0:0:
460,192,139734,1,0,0:0:0:0:
358,192,139884,1,0,0:0:0:0:
51,192,140034,1,0,0:0:0:0:
256,192,140184,1,0,0:0:0:0:
358,192,140184,1,0,0:0:0:0:
460,192,140184,1,0,0:0:0:0:
51,192,140484,1,0,0:0:0:0:
256,192,140784,1,0,0:0:0:0:
460,192,140784,128,0,141384:0:0:0:0:
358,192,140784,1,0,0:0:0:0:
51,192,140859,1,0,0:0:0:0:
153,192,140934,1,0,0:0:0:0:
256,192,141009,1,0,0:0:0:0:
358,192,141084,1,0,0:0:0:0:
51,192,141159,1,0,0:0:0:0:
153,192,141234,1,0,0:0:0:0:
256,192,141309,1,0,0:0:0:0:
51,192,141384,1,0,0:0:0:0:
358,192,141384,1,0,0:0:0:0:
153,192,141534,1,0,0:0:0:0:
51,192,141684,128,0,142584:0:0:0:0:
460,192,141684,1,0,0:0:0:0:
358,192,141834,1,0,0:0:0:0:
153,192,141984,1,0,0:0:0:0:
256,192,141984,1,0,0:0:0:0:
460,192,142134,1,0,0:0:0:0:
358,192,142284,1,0,0:0:0:0:
153,192,142434,1,0,0:0:0:0:
256,192,142584,1,0,0:0:0:0:
460,192,142584,1,0,0:0:0:0:
256,192,142884,128,0,143634:0:0:0:0:
51,192,143184,1,0,0:0:0:0:
153,192,143184,1,0,0:0:0:0:
460,192,143409,1,0,0:0:0:0:
358,192,143634,1,0,0:0:0:0:
256,192,143784,128,0,144234:0:0:0:0:
51,192,144009,1,0,0:0:0:0:
153,192,144234,1,0,0:0:0:0:
256,192,144384,128,0,144834:0:0:0:0:
460,192,144609,1,0,0:0:0:0:
358,192,144834,1,0,0:0:0:0:
153,192,144984,1,0,0:0:0:0:
51,192,144984,1,0,0:0:0:0:
256,192,144984,1,0,0:0:0:0:
358,192,145059,1,0,0:0:0:0:
460,192,145059,1,0,0:0:0:0:
153,192,145134,1,0,0:0:0:0:
51,192,145134,1,0,0:0:0:0:
358,192,145284,1,0,0:0:0:0:
460,192,145284,1,0,0:0:0:0:
153,192,145434,1,0,0:0:0:0:
51,192,145434,1,0,0:0:0:0:
460,192,145584,1,0,0:0:0:0:
358,192,145584,1,0,0:0:0:0:
256,192,145584,1,0,0:0:0:0:
51,192,145584,1,0,0:0:0:0:
153,192,145659,1,0,0:0:0:0:
358,192,145734,1,0,0:0:0:0:
460,192,145809,1,0,0:0:0:0:
51,192,145884,1,0,0:0:0:0:
153,192,145959,1,0,0:0:0:0:
358,192,146034,1,0,0:0:0:0:
460,192,146109,1,0,0:0:0:0:
256,192,146184,1,0,0:0:0:0:
51,192,146184,128,0,146334:0:0:0:0:
358,192,146334,1,0,0:0:0:0:
460,192,146334,128,0,146484:0:0:0:0:
51,192,146484,128,0,146634:0:0:0:0:
153,192,146484,1,0,0:0:0:0:
256,192,146634,1,0,0:0:0:0:
460,192,146634,128,0,146784:0:0:0:0:
51,192,146784,1,0,0:0:0:0:
358,192,146784,1,0,0:0:0:0:
460,192,146934,1,0,0:0:0:0:
153,192,146934,1,0,0:0:0:0:
51,192,147084,1,0,0:0:0:0:
358,192,147084,1,0,0:0:0:0:
153,192,147234,1,0,0:0:0:0:
460,192,147234,1,0,0:0:0:0:
256,192,147384,1,0,0:0:0:0:
358,192,147384,1,0,0:0:0:0:
153,192,147534,1,0,0:0:0:0:
51,192,147534,1,0,0:0:0:0:
256,192,147684,1,0,0:0:0:0:
358,192,147684,1,0,0:0:0:0:
153,192,147834,1,0,0:0:0:0:
51,192,147834,1,0,0:0:0:0:
460,192,147984,1,0,0:0:0:0:
358,192,148059,1,0,0:0:0:0:
153,192,148134,1,0,0:0:0:0:
51,192,148209,1,0,0:0:0:0:
460,192,148284,1,0,0:0:0:0:
358,192,148359,1,0,0:0:0:0:
153,192,148434,1,0,0:0:0:0:
51,192,148509,1,0,0:0:0:0:
256,192,148584,1,0,0:0:0:0:
460,192,148584,128,0,148734:0:0:0:0:
153,192,148734,1,0,0:0:0:0:
51,192,148734,128,0,148884:0:0:0:0:
358,192,148884,1,0,0:0:0:0:
460,192,148884,128,0,149034:0:0:0:0:
256,192,149034,1,0,0:0:0:0:
51,192,149034,128,0,149184:0:0:0:0:
153,192,149184,1,0,0:0:0:0:
460,192,149184,1,0,0:0:0:0:
358,192,149334,1,0,0:0:0:0:
51,192,149334,1,0,0:0:0:0:
153,192,149484,1,0,0:0:0:0:
460,192,149484,1,0,0:0:0:0:
358,192,149634,1,0,0:0:0:0:
51,192,149634,1,0,0:0:0:0:
153,192,149784,1,0,0:0:0:0:
256,192,149784,1,0,0:0:0:0:
358,192,149934,1,0,0:0:0:0:
460,192,149934,1,0,0:0:0:0:
256,192,150084,1,0,0:0:0:0:
153,192,150084,1,0,0:0:0:0:
358,192,150234,1,0,0:0:0:0:
460,192,150234,1,0,0:0:0:0:
51,192,150384,1,0,0:0:0:0:
153,192,150459,1,0,0:0:0:0:
460,192,150534,1,0,0:0:0:0:
358,192,150609,1,0,0:0:0:0:
51,192,150684,1,0,0:0:0:0:
153,192,150759,1,0,0:0:0:0:
460,192,150834,1,0,0:0:0:0:
358,192,150909,1,0,0:0:0:0:
256,192,150984,1,0,0:0:0:0:
51,192,150984,1,0,0:0:0:0:
153,192,151134,1,0,0:0:0:0:
358,192,151284,1,0,0:0:0:0:
460,192,151434,1,0,0:0:0:0:
256,192,151584,1,0,0:0:0:0:
358,192,151584,1,0,0:0:0:0:
51,192,151734,1,0,0:0:0:0:
460,192,151884,1,0,0:0:0:0:
358,192,152034,1,0,0:0:0:0:
256,192,152184,1,0,0:0:0:0:
51,192,152184,1,0,0:0:0:0:
358,192,152484,128,0,152784:0:0:0:0:
460,192,152784,128,0,155034:0:0:0:0:
153,192,152784,128,0,153009:0:0:0:0:
51,192,153009,1,0,0:0:0:0:
256,192,153234,1,0,0:0:0:0:
358,192,153384,1,0,0:0:0:0:
51,192,153384,128,0,153609:0:0:0:0:
153,192,153609,1,0,0:0:0:0:
256,192,153834,1,0,0:0:0:0:
51,192,153984,128,0,154284:0:0:0:0:
358,192,153984,1,0,0:0:0:0:
256,192,154134,1,0,0:0:0:0:
153,192,154284,1,0,0:0:0:0:
358,192,154434,1,0,0:0:0:0:
256,192,154584,1,0,0:0:0:0:
51,192,154584,128,0,155034:0:0:0:0:
153,192,154734,1,0,0:0:0:0:
358,192,154884,1,0,0:0:0:0:
256,192,155034,1,0,0:0:0:0:
256,192,155184,1,0,0:0:0:0:
460,192,155184,128,0,155784:0:0:0:0:
358,192,155184,1,0,0:0:0:0:
51,192,155259,1,0,0:0:0:0:
153,192,155334,1,0,0:0:0:0:
256,192,155409,1,0,0:0:0:0:
358,192,155484,1,0,0:0:0:0:
51,192,155559,1,0,0:0:0:0:
153,192,155634,1,0,0:0:0:0:
256,192,155709,1,0,0:0:0:0:
51,192,155784,1,0,0:0:0:0:
358,192,155784,1,0,0:0:0:0:
153,192,155934,1,0,0:0:0:0:
358,192,156084,1,0,0:0:0:0:
51,192,156234,1,0,0:0:0:0:
256,192,156384,1,0,0:0:0:0:
153,192,156384,1,0,0:0:0:0:
460,192,156534,1,0,0:0:0:0:
153,192,156684,1,0,0:0:0:0:
358,192,156834,1,0,0:0:0:0:
256,192,156984,1,0,0:0:0:0:
153,192,156984,1,0,0:0:0:0:
51,192,156984,1,0,0:0:0:0:
460,192,157284,1,0,0:0:0:0:
153,192,157584,1,0,0:0:0:0:
256,192,157584,1,0,0:0:0:0:
51,192,157584,128,0,158184:0:0:0:0:
460,192,157659,1,0,0:0:0:0:
358,192,157734,1,0,0:0:0:0:
256,192,157809,1,0,0:0:0:0:
153,192,157884,1,0,0:0:0:0:
460,192,157959,1,0,0:0:0:0:
358,192,158034,1,0,0:0:0:0:
256,192,158109,1,0,0:0:0:0:
460,192,158184,1,0,0:0:0:0:
153,192,158184,1,0,0:0:0:0:
358,192,158334,1,0,0:0:0:0:
153,192,158484,128,0,159384:0:0:0:0:
51,192,158484,1,0,0:0:0:0:
460,192,158634,1,0,0:0:0:0:
256,192,158784,1,0,0:0:0:0:
51,192,158784,1,0,0:0:0:0:
460,192,158934,1,0,0:0:0:0:
358,192,159084,1,0,0:0:0:0:
51,192,159234,1,0,0:0:0:0:
256,192,159384,1,0,0:0:0:0:
358,192,159384,1,0,0:0:0:0:
460,192,159384,1,0,0:0:0:0:
51,192,159684,1,0,0:0:0:0:
460,192,159984,128,0,160584:0:0:0:0:
256,192,159984,1,0,0:0:0:0:
153,192,160284,1,0,0:0:0:0:
51,192,160584,1,0,0:0:0:0:
256,192,160584,1,0,0:0:0:0:
51,192,160884,128,0,161784:0:0:0:0:
460,192,160884,1,0,0:0:0:0:
153,192,161184,1,0,0:0:0:0:
256,192,161184,1,0,0:0:0:0:
358,192,161484,1,0,0:0:0:0:
256,192,161784,1,0,0:0:0:0:
460,192,161784,1,0,0:0:0:0:
256,192,162084,128,0,162834:0:0:0:0:
51,192,162384,1,0,0:0:0:0:
153,192,162384,1,0,0:0:0:0:
460,192,162609,1,0,0:0:0:0:
358,192,162834,1,0,0:0:0:0:
256,192,162984,128,0,163434:0:0:0:0:
51,192,163209,1,0,0:0:0:0:
153,192,163434,1,0,0:0:0:0:
256,192,163584,128,0,164034:0:0:0:0:
460,192,163809,1,0,0:0:0:0:
358,192,164034,1,0,0:0:0:0:
256,192,164184,128,0,164634:0:0:0:0:
51,192,164409,1,0,0:0:0:0:
153,192,164634,1,0,0:0:0:0:
51,192,164784,1,0,0:0:0:0:
256,192,164784,128,0,165984:0:0:0:0:
153,192,165984,128,0,167184:0:0:0:0:
51,192,167184,128,0,168384:0:0:0:0:
460,192,168384,128,0,169584:0:0:0:0:
358,192,169584,128,0,174384:0:0:0:0:
460,192,171984,128,0,174384:0:0:0:0:
256,192,174384,128,0,175584:0:0:0:0:
358,192,175584,128,0,176784:0:0:0:0:
460,192,176784,128,0,177984:0:0:0:0:
51,192,177984,128,0,179184:0:0:0:0:
153,192,179184,128,0,183984:0:0:0:0:
51,192,181584,128,0,183984:0:0:0:0:
460,192,183984,1,0,0:0:0:0:
358,192,183984,128,0,184584:0:0:0:0:
256,192,184584,1,0,0:0:0:0:
153,192,185184,128,0,185784:0:0:0:0:
256,192,185784,1,0,0:0:0:0:
460,192,186384,128,0,186984:0:0:0:0:
256,192,186984,1,0,0:0:0:0:
51,192,187584,128,0,188184:0:0:0:0:
256,192,188184,1,0,0:0:0:0:
256,192,188784,128,0,189384:0:0:0:0:
358,192,189384,1,0,0:0:0:0:
256,192,189984,128,0,190584:0:0:0:0:
153,192,190584,1,0,0:0:0:0:
256,192,191184,128,0,191784:0:0:0:0:
460,192,191784,1,0,0:0:0:0:
256,192,192384,128,0,192984:0:0:0:0:
51,192,192984,1,0,0:0:0:0:
51,192,193584,128,0,194784:0:0:0:0:
256,192,193584,128,0,194784:0:0:0:0:
460,192,194184,1,0,0:0:0:0:
153,192,194784,128,0,195984:0:0:0:0:
358,192,194784,128,0,195984:0:0:0:0:
256,192,195384,1,0,0:0:0:0:
256,192,195984,128,0,197184:0:0:0:0:
460,192,195984,128,0,197184:0:0:0:0:
51,192,196584,1,0,0:0:0:0:
358,192,197184,128,0,198384:0:0:0:0:
51,192,197184,128,0,198384:0:0:0:0:
460,192,197784,1,0,0:0:0:0:
256,192,198384,128,0,202284:0:0:0:0:
153,192,199584,128,0,202359:0:0:0:0:
51,192,200784,128,0,202434:0:0:0:0:
256,192,202434,1,0,0:0:0:0:
153,192,202509,1,0,0:0:0:0:
51,192,202584,1,0,0:0:0:0:
460,192,202734,1,0,0:0:0:0:
358,192,202884,1,0,0:0:0:0:
256,192,203034,1,0,0:0:0:0:
51,192,203184,1,0,0:0:0:0:
460,192,203334,1,0,0:0:0:0:
51,192,203484,1,0,0:0:0:0:
460,192,203634,1,0,0:0:0:0:
153,192,203784,1,0,0:0:0:0:
460,192,203934,1,0,0:0:0:0:
153,192,204084,1,0,0:0:0:0:
460,192,204234,1,0,0:0:0:0:
256,192,204384,1,0,0:0:0:0:
460,192,204534,1,0,0:0:0:0:
256,192,204684,1,0,0:0:0:0:
460,192,204834,128,0,204909:0:0:0:0:
358,192,204984,128,0,205059:0:0:0:0:
256,192,205134,128,0,205209:0:0:0:0:
153,192,205284,128,0,205359:0:0:0:0:
51,192,205434,128,0,205509:0:0:0:0:
460,192,205584,1,0,0:0:0:0:
51,192,205734,1,0,0:0:0:0:
460,192,205884,1,0,0:0:0:0:
51,192,206034,1,0,0:0:0:0:
358,192,206184,1,0,0:0:0:0:
51,192,206334,1,0,0:0:0:0:
358,192,206484,1,0,0:0:0:0:
51,192,206634,1,0,0:0:0:0:
256,192,206784,1,0,0:0:0:0:
51,192,206934,1,0,0:0:0:0:
256,192,207084,1,0,0:0:0:0:
51,192,207234,128,0,207309:0:0:0:0:
153,192,207384,128,0,207459:0:0:0:0:
256,192,207534,128,0,207609:0:0:0:0:
358,192,207684,128,0,207759:0:0:0:0:
460,192,207834,128,0,207909:0:0:0:0:
256,192,207984,1,0,0:0:0:0:
153,192,208134,1,0,0:0:0:0:
256,192,208284,1,0,0:0:0:0:
358,192,208434,1,0,0:0:0:0:
256,192,208584,1,0,0:0:0:0:
51,192,208734,1,0,0:0:0:0:
256,192,208884,1,0,0:0:0:0:
460,192,209034,1,0,0:0:0:0:
256,192,209184,1,0,0:0:0:0:
153,192,209334,1,0,0:0:0:0:
256,192,209484,128,0,209559:0:0:0:0:
358,192,209634,128,0,209709:0:0:0:0:
256,192,209784,128,0,209859:0:0:0:0:
153,192,209934,128,0,210009:0:0:0:0:
358,192,210084,128,0,210159:0:0:0:0:
51,192,210234,128,0,210309:0:0:0:0:
460,192,210384,128,0,211584:0:0:0:0:
256,192,210384,128,0,210609:0:0:0:0:
51,192,210609,1,0,0:0:0:0:
358,192,210834,1,0,0:0:0:0:
256,192,210984,128,0,211209:0:0:0:0:
51,192,211209,1,0,0:0:0:0:
358,192,211434,1,0,0:0:0:0:
51,192,211584,128,0,212784:0:0:0:0:
256,192,211584,128,0,211809:0:0:0:0:
460,192,211809,1,0,0:0:0:0:
153,192,212034,1,0,0:0:0:0:
256,192,212184,128,0,212409:0:0:0:0:
460,192,212409,1,0,0:0:0:0:
153,192,212634,1,0,0:0:0:0:
256,192,212784,1,0,0:0:0:0:
460,192,212784,128,0,212934:0:0:0:0:
358,192,212934,128,0,213084:0:0:0:0:
153,192,213084,128,0,213234:0:0:0:0:
51,192,213234,128,0,213384:0:0:0:0:
153,192,213384,128,0,213534:0:0:0:0:
256,192,213384,1,0,0:0:0:0:
358,192,213534,128,0,213684:0:0:0:0:
460,192,213684,128,0,213834:0:0:0:0:
358,192,213834,128,0,213984:0:0:0:0:
256,192,213984,1,0,0:0:0:0:
153,192,214134,128,0,214284:0:0:0:0:
51,192,214284,128,0,214434:0:0:0:0:
153,192,214434,128,0,214584:0:0:0:0:
358,192,214584,128,0,214734:0:0:0:0:
51,192,214584,1,0,0:0:0:0:
460,192,214734,128,0,214884:0:0:0:0:
358,192,214884,128,0,215034:0:0:0:0:
256,192,215034,1,0,0:0:0:0:
153,192,215109,1,0,0:0:0:0:
51,192,215184,128,0,215334:0:0:0:0:
153,192,215334,128,0,215484:0:0:0:0:
358,192,215484,128,0,215634:0:0:0:0:
460,192,215634,128,0,215784:0:0:0:0:
358,192,215784,128,0,215934:0:0:0:0:
51,192,215784,1,0,0:0:0:0:
256,192,215934,128,0,216084:0:0:0:0:
153,192,216084,128,0,216234:0:0:0:0:
51,192,216234,128,0,216384:0:0:0:0:
460,192,216534,128,0,216684:0:0:0:0:
358,192,216684,128,0,216834:0:0:0:0:
153,192,216834,128,0,216984:0:0:0:0:
51,192,216984,128,0,217134:0:0:0:0:
460,192,216984,1,0,0:0:0:0:
153,192,217134,128,0,217284:0:0:0:0:
358,192,217284,128,0,217434:0:0:0:0:
460,192,217434,128,0,217584:0:0:0:0:
51,192,217584,128,0,217734:0:0:0:0:
153,192,217734,128,0,217884:0:0:0:0:
256,192,217884,128,0,218034:0:0:0:0:
358,192,218034,128,0,218184:0:0:0:0:
460,192,218184,128,0,218334:0:0:0:0:
51,192,218184,1,0,0:0:0:0:
358,192,218334,128,0,218484:0:0:0:0:
256,192,218484,128,0,218634:0:0:0:0:
153,192,218634,128,0,218784:0:0:0:0:
358,192,218934,128,0,219084:0:0:0:0:
460,192,219084,128,0,219234:0:0:0:0:
358,192,219234,128,0,219384:0:0:0:0:
256,192,219384,128,0,219534:0:0:0:0:
51,192,219384,1,0,0:0:0:0:
153,192,219534,128,0,219684:0:0:0:0:
51,192,219684,128,0,219834:0:0:0:0:
153,192,219834,128,0,219984:0:0:0:0:
460,192,219984,128,0,220171:0:0:0:0:
51,192,220171,128,0,220359:0:0:0:0:
358,192,220359,128,0,220584:0:0:0:0:
153,192,220584,128,0,220771:0:0:0:0:
256,192,220771,128,0,221371:0:0:0:0:
358,192,220959,128,0,221559:0:0:0:0:
153,192,221184,128,0,221784:0:0:0:0:
460,192,221371,128,0,221559:0:0:0:0:
51,192,221559,128,0,221784:0:0:0:0:
256,192,221784,1,0,0:0:0:0:
358,192,221784,1,0,0:0:0:0:
460,192,221784,128,0,221934:0:0:0:0:
153,192,221934,1,0,0:0:0:0:
51,192,221934,128,0,222084:0:0:0:0:
256,192,222084,1,0,0:0:0:0:
358,192,222084,1,0,0:0:0:0:
460,192,222084,128,0,222234:0:0:0:0:
153,192,222234,1,0,0:0:0:0:
51,192,222234,128,0,222384:0:0:0:0:
460,192,222384,1,0,0:0:0:0:
358,192,222384,1,0,0:0:0:0:
256,192,222384,1,0,0:0:0:0:
153,192,222534,1,0,0:0:0:0:
51,192,222534,1,0,0:0:0:0:
256,192,222684,1,0,0:0:0:0:
460,192,222684,1,0,0:0:0:0:
358,192,222834,1,0,0:0:0:0:
51,192,222834,1,0,0:0:0:0:
256,192,222984,1,0,0:0:0:0:
153,192,222984,1,0,0:0:0:0:
358,192,223134,1,0,0:0:0:0:
460,192,223134,1,0,0:0:0:0:
256,192,223284,1,0,0:0:0:0:
51,192,223284,1,0,0:0:0:0:
153,192,223434,1,0,0:0:0:0:
460,192,223434,1,0,0:0:0:0:
358,192,223584,1,0,0:0:0:0:
256,192,223584,1,0,0:0:0:0:
153,192,223734,1,0,0:0:0:0:
51,192,223734,1,0,0:0:0:0:
256,192,223884,1,0,0:0:0:0:
460,192,223884,1,0,0:0:0:0:
153,192,224034,1,0,0:0:0:0:
358,192,224034,1,0,0:0:0:0:
256,192,224184,1,0,0:0:0:0:
51,192,224184,1,0,0:0:0:0:
358,192,224334,1,0,0:0:0:0:
460,192,224334,1,0,0:0:0:0:
153,192,224484,1,0,0:0:0:0:
51,192,224484,1,0,0:0:0:0:
358,192,224634,1,0,0:0:0:0:
460,192,224634,1,0,0:0:0:0:
256,192,224784,1,0,0:0:0:0:
153,192,224784,1,0,0:0:0:0:
51,192,224784,1,0,0:0:0:0:
358,192,224934,1,0,0:0:0:0:
460,192,224934,1,0,0:0:0:0:
256,192,225084,1,0,0:0:0:0:
51,192,225084,1,0,0:0:0:0:
153,192,225234,1,0,0:0:0:0:
460,192,225234,1,0,0:0:0:0:
256,192,225384,1,0,0:0:0:0:
358,192,225384,1,0,0:0:0:0:
153,192,225534,1,0,0:0:0:0:
51,192,225534,1,0,0:0:0:0:
256,192,225684,1,0,0:0:0:0:
460,192,225684,1,0,0:0:0:0:
358,192,225834,1,0,0:0:0:0:
51,192,225834,1,0,0:0:0:0:
153,192,225984,1,0,0:0:0:0:
256,192,225984,1,0,0:0:0:0:
358,192,226134,1,0,0:0:0:0:
460,192,226134,1,0,0:0:0:0:
256,192,226284,1,0,0:0:0:0:
51,192,226284,1,0,0:0:0:0:
358,192,226434,1,0,0:0:0:0:
153,192,226434,1,0,0:0:0:0:
256,192,226584,1,0,0:0:0:0:
460,192,226584,1,0,0:0:0:0:
153,192,226734,1,0,0:0:0:0:
51,192,226734,1,0,0:0:0:0:
358,192,226884,1,0,0:0:0:0:
460,192,226884,1,0,0:0:0:0:
153,192,227034,1,0,0:0:0:0:
51,192,227034,1,0,0:0:0:0:
256,192,227184,1,0,0:0:0:0:
358,192,227184,1,0,0:0:0:0:
460,192,227184,1,0,0:0:0:0:
153,192,227334,1,0,0:0:0:0:
51,192,227334,1,0,0:0:0:0:
256,192,227484,1,0,0:0:0:0:
460,192,227484,1,0,0:0:0:0:
51,192,227634,1,0,0:0:0:0:
358,192,227634,1,0,0:0:0:0:
256,192,227784,1,0,0:0:0:0:
153,192,227784,1,0,0:0:0:0:
460,192,227934,1,0,0:0:0:0:
358,192,227934,1,0,0:0:0:0:
256,192,228084,1,0,0:0:0:0:
51,192,228084,1,0,0:0:0:0:
460,192,228234,1,0,0:0:0:0:
153,192,228234,1,0,0:0:0:0:
256,192,228384,1,0,0:0:0:0:
358,192,228384,1,0,0:0:0:0:
51,192,228534,1,0,0:0:0:0:
153,192,228534,1,0,0:0:0:0:
460,192,228684,1,0,0:0:0:0:
256,192,228684,1,0,0:0:0:0:
358,192,228834,1,0,0:0:0:0:
153,192,228834,1,0,0:0:0:0:
51,192,228984,1,0,0:0:0:0:
460,192,228984,1,0,0:0:0:0:
153,192,229134,1,0,0:0:0:0:
358,192,229134,1,0,0:0:0:0:
256,192,229284,1,0,0:0:0:0:
358,192,229434,1,0,0:0:0:0:
460,192,229584,128,0,231834:0:0:0:0:
153,192,229584,128,0,229809:0:0:0:0:
51,192,229809,1,0,0:0:0:0:
256,192,230034,1,0,0:0:0:0:
358,192,230184,1,0,0:0:0:0:
51,192,230184,128,0,230409:0:0:0:0:
153,192,230409,1,0,0:0:0:0:
256,192,230634,1,0,0:0:0:0:
51,192,230784,128,0,231084:0:0:0:0:
358,192,230784,1,0,0:0:0:0:
256,192,230934,1,0,0:0:0:0:
153,192,231084,1,0,0:0:0:0:
358,192,231234,1,0,0:0:0:0:
256,192,231384,1,0,0:0:0:0:
51,192,231384,128,0,231834:0:0:0:0:
153,192,231384,1,0,0:0:0:0:
358,192,231534,1,0,0:0:0:0:
256,192,231684,1,0,0:0:0:0:
153,192,231834,1,0,0:0:0:0:
256,192,231984,1,0,0:0:0:0:
358,192,231984,1,0,0:0:0:0:
460,192,231984,1,0,0:0:0:0:
153,192,232134,1,0,0:0:0:0:
51,192,232134,1,0,0:0:0:0:
256,192,232284,1,0,0:0:0:0:
460,192,232284,1,0,0:0:0:0:
358,192,232434,1,0,0:0:0:0:
51,192,232434,1,0,0:0:0:0:
256,192,232584,1,0,0:0:0:0:
153,192,232584,1,0,0:0:0:0:
358,192,232734,1,0,0:0:0:0:
460,192,232734,1,0,0:0:0:0:
256,192,232884,1,0,0:0:0:0:
51,192,232884,1,0,0:0:0:0:
153,192,233034,1,0,0:0:0:0:
460,192,233034,1,0,0:0:0:0:
358,192,233184,1,0,0:0:0:0:
256,192,233184,1,0,0:0:0:0:
153,192,233334,1,0,0:0:0:0:
51,192,233334,1,0,0:0:0:0:
256,192,233484,1,0,0:0:0:0:
460,192,233484,1,0,0:0:0:0:
153,192,233634,1,0,0:0:0:0:
358,192,233634,1,0,0:0:0:0:
256,192,233784,1,0,0:0:0:0:
51,192,233784,1,0,0:0:0:0:
358,192,233934,1,0,0:0:0:0:
460,192,233934,1,0,0:0:0:0:
153,192,234084,1,0,0:0:0:0:
51,192,234084,1,0,0:0:0:0:
358,192,234234,1,0,0:0:0:0:
460,192,234234,1,0,0:0:0:0:
256,192,234384,1,0,0:0:0:0:
153,192,234384,1,0,0:0:0:0:
51,192,234384,1,0,0:0:0:0:
358,192,234534,1,0,0:0:0:0:
460,192,234534,1,0,0:0:0:0:
256,192,234684,1,0,0:0:0:0:
51,192,234684,1,0,0:0:0:0:
153,192,234834,1,0,0:0:0:0:
460,192,234834,1,0,0:0:0:0:
256,192,234984,1,0,0:0:0:0:
358,192,234984,1,0,0:0:0:0:
153,192,235134,1,0,0:0:0:0:
51,192,235134,1,0,0:0:0:0:
256,192,235284,1,0,0:0:0:0:
460,192,235284,1,0,0:0:0:0:
358,192,235434,1,0,0:0:0:0:
51,192,235434,1,0,0:0:0:0:
153,192,235584,1,0,0:0:0:0:
256,192,235584,1,0,0:0:0:0:
358,192,235734,1,0,0:0:0:0:
460,192,235734,1,0,0:0:0:0:
256,192,235884,1,0,0:0:0:0:
51,192,235884,1,0,0:0:0:0:
358,192,236034,1,0,0:0:0:0:
153,192,236034,1,0,0:0:0:0:
256,192,236184,1,0,0:0:0:0:
460,192,236184,1,0,0:0:0:0:
153,192,236334,1,0,0:0:0:0:
51,192,236334,1,0,0:0:0:0:
358,192,236484,1,0,0:0:0:0:
460,192,236484,1,0,0:0:0:0:
153,192,236634,1,0,0:0:0:0:
51,192,236634,1,0,0:0:0:0:
256,192,236784,1,0,0:0:0:0:
358,192,236784,1,0,0:0:0:0:
460,192,236784,1,0,0:0:0:0:
153,192,236934,1,0,0:0:0:0:
51,192,236934,1,0,0:0:0:0:
256,192,237084,1,0,0:0:0:0:
460,192,237084,1,0,0:0:0:0:
51,192,237234,1,0,0:0:0:0:
358,192,237234,1,0,0:0:0:0:
256,192,237384,1,0,0:0:0:0:
153,192,237384,1,0,0:0:0:0:
460,192,237534,1,0,0:0:0:0:
358,192,237534,1,0,0:0:0:0:
256,192,237684,1,0,0:0:0:0:
51,192,237684,1,0,0:0:0:0:
460,192,237834,1,0,0:0:0:0:
153,192,237834,1,0,0:0:0:0:
256,192,237984,1,0,0:0:0:0:
358,192,237984,1,0,0:0:0:0:
51,192,238134,1,0,0:0:0:0:
153,192,238134,1,0,0:0:0:0:
460,192,238284,1,0,0:0:0:0:
256,192,238284,1,0,0:0:0:0:
358,192,238434,1,0,0:0:0:0:
153,192,238434,1,0,0:0:0:0:
51,192,238584,1,0,0:0:0:0:
460,192,238584,1,0,0:0:0:0:
153,192,238734,1,0,0:0:0:0:
358,192,238734,1,0,0:0:0:0:
256,192,238884,1,0,0:0:0:0:
153,192,239034,1,0,0:0:0:0:
358,192,239184,128,0,239409:0:0:0:0:
51,192,239184,128,0,241434:0:0:0:0:
460,192,239409,1,0,0:0:0:0:
256,192,239634,1,0,0:0:0:0:
153,192,239784,1,0,0:0:0:0:
460,192,239784,128,0,240009:0:0:0:0:
358,192,240009,1,0,0:0:0:0:
256,192,240234,1,0,0:0:0:0:
153,192,240384,1,0,0:0:0:0:
460,192,240384,128,0,240684:0:0:0:0:
256,192,240534,1,0,0:0:0:0:
358,192,240684,1,0,0:0:0:0:
153,192,240834,1,0,0:0:0:0:
358,192,240984,1,0,0:0:0:0:
460,192,240984,1,0,0:0:0:0:
256,192,241059,1,0,0:0:0:0:
153,192,241059,1,0,0:0:0:0:
358,192,241134,1,0,0:0:0:0:
460,192,241134,1,0,0:0:0:0:
153,192,241284,1,0,0:0:0:0:
256,192,241284,1,0,0:0:0:0:
358,192,241434,1,0,0:0:0:0:
256,192,241584,1,0,0:0:0:0:
153,192,241584,1,0,0:0:0:0:
460,192,241584,1,0,0:0:0:0:
51,192,241734,1,0,0:0:0:0:
358,192,241734,1,0,0:0:0:0:
460,192,241884,1,0,0:0:0:0:
256,192,241884,1,0,0:0:0:0:
51,192,242034,1,0,0:0:0:0:
358,192,242034,1,0,0:0:0:0:
153,192,242184,1,0,0:0:0:0:
256,192,242184,1,0,0:0:0:0:
358,192,242334,1,0,0:0:0:0:
460,192,242334,1,0,0:0:0:0:
51,192,242484,1,0,0:0:0:0:
256,192,242484,1,0,0:0:0:0:
460,192,242634,1,0,0:0:0:0:
153,192,242634,1,0,0:0:0:0:
256,192,242784,1,0,0:0:0:0:
358,192,242784,1,0,0:0:0:0:
51,192,242934,1,0,0:0:0:0:
153,192,242934,1,0,0:0:0:0:
460,192,243084,1,0,0:0:0:0:
256,192,243084,1,0,0:0:0:0:
358,192,243234,1,0,0:0:0:0:
51,192,243384,1,0,0:0:0:0:
256,192,243384,1,0,0:0:0:0:
153,192,243384,1,0,0:0:0:0:
460,192,243534,1,0,0:0:0:0:
358,192,243534,1,0,0:0:0:0:
51,192,243684,1,0,0:0:0:0:
153,192,243684,1,0,0:0:0:0:
460,192,243834,1,0,0:0:0:0:
358,192,243834,1,0,0:0:0:0:
51,192,243984,1,0,0:0:0:0:
153,192,243984,1,0,0:0:0:0:
256,192,243984,1,0,0:0:0:0:
460,192,244134,1,0,0:0:0:0:
358,192,244134,1,0,0:0:0:0:
51,192,244284,1,0,0:0:0:0:
256,192,244284,1,0,0:0:0:0:
460,192,244434,1,0,0:0:0:0:
153,192,244434,1,0,0:0:0:0:
358,192,244584,1,0,0:0:0:0:
256,192,244584,1,0,0:0:0:0:
51,192,244734,1,0,0:0:0:0:
153,192,244734,1,0,0:0:0:0:
460,192,244884,1,0,0:0:0:0:
256,192,244884,1,0,0:0:0:0:
51,192,245034,1,0,0:0:0:0:
358,192,245034,1,0,0:0:0:0:
256,192,245184,1,0,0:0:0:0:
153,192,245184,1,0,0:0:0:0:
460,192,245334,1,0,0:0:0:0:
358,192,245334,1,0,0:0:0:0:
51,192,245484,1,0,0:0:0:0:
256,192,245484,1,0,0:0:0:0:
153,192,245634,1,0,0:0:0:0:
460,192,245784,1,0,0:0:0:0:
256,192,245784,1,0,0:0:0:0:
358,192,245784,1,0,0:0:0:0:
51,192,245934,1,0,0:0:0:0:
153,192,245934,1,0,0:0:0:0:
460,192,246084,1,0,0:0:0:0:
358,192,246084,1,0,0:0:0:0:
51,192,246234,1,0,0:0:0:0:
153,192,246234,1,0,0:0:0:0:
460,192,246384,1,0,0:0:0:0:
358,192,246384,1,0,0:0:0:0:
256,192,246384,1,0,0:0:0:0:
51,192,246534,1,0,0:0:0:0:
153,192,246534,1,0,0:0:0:0:
460,192,246684,1,0,0:0:0:0:
256,192,246684,1,0,0:0:0:0:
358,192,246834,1,0,0:0:0:0:
51,192,246834,1,0,0:0:0:0:
153,192,246984,1,0,0:0:0:0:
256,192,246984,1,0,0:0:0:0:
358,192,247134,1,0,0:0:0:0:
460,192,247134,1,0,0:0:0:0:
51,192,247284,1,0,0:0:0:0:
256,192,247284,1,0,0:0:0:0:
153,192,247434,1,0,0:0:0:0:
460,192,247434,1,0,0:0:0:0:
358,192,247584,1,0,0:0:0:0:
256,192,247584,1,0,0:0:0:0:
153,192,247734,1,0,0:0:0:0:
51,192,247734,1,0,0:0:0:0:
256,192,247884,1,0,0:0:0:0:
460,192,247884,1,0,0:0:0:0:
153,192,248034,1,0,0:0:0:0:
51,192,248184,1,0,0:0:0:0:
256,192,248184,1,0,0:0:0:0:
358,192,248184,1,0,0:0:0:0:
460,192,248334,1,0,0:0:0:0:
153,192,248484,1,0,0:0:0:0:
358,192,248484,1,0,0:0:0:0:
256,192,248484,1,0,0:0:0:0:
51,192,248634,1,0,0:0:0:0:
153,192,248784,128,0,249009:0:0:0:0:
460,192,248784,128,0,251034:0:0:0:0:
358,192,248784,1,0,0:0:0:0:
51,192,249009,1,0,0:0:0:0:
256,192,249234,1,0,0:0:0:0:
51,192,249384,128,0,249609:0:0:0:0:
358,192,249384,1,0,0:0:0:0:
153,192,249609,1,0,0:0:0:0:
256,192,249834,1,0,0:0:0:0:
358,192,249984,1,0,0:0:0:0:
51,192,249984,128,0,250284:0:0:0:0:
256,192,250134,1,0,0:0:0:0:
153,192,250284,1,0,0:0:0:0:
358,192,250434,1,0,0:0:0:0:
51,192,250584,128,0,251034:0:0:0:0:
256,192,250584,1,0,0:0:0:0:
153,192,250584,1,0,0:0:0:0:
358,192,250734,1,0,0:0:0:0:
256,192,250884,1,0,0:0:0:0:
153,192,251034,1,0,0:0:0:0:
256,192,251184,1,0,0:0:0:0:
358,192,251184,1,0,0:0:0:0:
460,192,251184,1,0,0:0:0:0:
153,192,251334,1,0,0:0:0:0:
51,192,251334,1,0,0:0:0:0:
256,192,251484,1,0,0:0:0:0:
460,192,251484,1,0,0:0:0:0:
358,192,251634,1,0,0:0:0:0:
51,192,251634,1,0,0:0:0:0:
256,192,251784,1,0,0:0:0:0:
153,192,251784,1,0,0:0:0:0:
358,192,251934,1,0,0:0:0:0:
460,192,251934,1,0,0:0:0:0:
256,192,252084,1,0,0:0:0:0:
51,192,252084,1,0,0:0:0:0:
153,192,252234,1,0,0:0:0:0:
460,192,252234,1,0,0:0:0:0:
358,192,252384,1,0,0:0:0:0:
256,192,252384,1,0,0:0:0:0:
153,192,252534,1,0,0:0:0:0:
51,192,252534,1,0,0:0:0:0:
256,192,252684,1,0,0:0:0:0:
460,192,252684,1,0,0:0:0:0:
358,192,252834,1,0,0:0:0:0:
256,192,252984,1,0,0:0:0:0:
51,192,252984,1,0,0:0:0:0:
153,192,252984,1,0,0:0:0:0:
358,192,253134,1,0,0:0:0:0:
460,192,253134,1,0,0:0:0:0:
153,192,253284,1,0,0:0:0:0:
51,192,253284,1,0,0:0:0:0:
358,192,253434,1,0,0:0:0:0:
460,192,253434,1,0,0:0:0:0:
256,192,253584,1,0,0:0:0:0:
153,192,253584,1,0,0:0:0:0:
51,192,253584,1,0,0:0:0:0:
358,192,253734,1,0,0:0:0:0:
460,192,253734,1,0,0:0:0:0:
256,192,253884,1,0,0:0:0:0:
51,192,253884,1,0,0:0:0:0:
153,192,254034,1,0,0:0:0:0:
460,192,254034,1,0,0:0:0:0:
256,192,254184,1,0,0:0:0:0:
358,192,254184,1,0,0:0:0:0:
153,192,254334,1,0,0:0:0:0:
51,192,254334,1,0,0:0:0:0:
256,192,254484,1,0,0:0:0:0:
460,192,254484,1,0,0:0:0:0:
358,192,254634,1,0,0:0:0:0:
51,192,254634,1,0,0:0:0:0:
153,192,254784,1,0,0:0:0:0:
256,192,254784,1,0,0:0:0:0:
358,192,254934,1,0,0:0:0:0:
460,192,254934,1,0,0:0:0:0:
256,192,255084,1,0,0:0:0:0:
51,192,255084,1,0,0:0:0:0:
153,192,255234,1,0,0:0:0:0:
256,192,255384,1,0,0:0:0:0:
460,192,255384,1,0,0:0:0:0:
358,192,255384,1,0,0:0:0:0:
153,192,255534,1,0,0:0:0:0:
51,192,255534,1,0,0:0:0:0:
358,192,255684,1,0,0:0:0:0:
460,192,255684,1,0,0:0:0:0:
153,192,255834,1,0,0:0:0:0:
51,192,255834,1,0,0:0:0:0:
256,192,255984,1,0,0:0:0:0:
358,192,255984,1,0,0:0:0:0:
460,192,255984,1,0,0:0:0:0:
153,192,256134,1,0,0:0:0:0:
51,192,256134,1,0,0:0:0:0:
256,192,256284,1,0,0:0:0:0:
460,192,256284,1,0,0:0:0:0:
51,192,256434,1,0,0:0:0:0:
358,192,256434,1,0,0:0:0:0:
256,192,256584,1,0,0:0:0:0:
153,192,256584,1,0,0:0:0:0:
460,192,256734,1,0,0:0:0:0:
358,192,256734,1,0,0:0:0:0:
256,192,256884,1,0,0:0:0:0:
51,192,256884,1,0,0:0:0:0:
460,192,257034,1,0,0:0:0:0:
153,192,257034,1,0,0:0:0:0:
256,192,257184,1,0,0:0:0:0:
358,192,257184,1,0,0:0:0:0:
51,192,257334,1,0,0:0:0:0:
153,192,257334,1,0,0:0:0:0:
460,192,257484,1,0,0:0:0:0:
256,192,257484,1,0,0:0:0:0:
358,192,257634,1,0,0:0:0:0:
153,192,257634,1,0,0:0:0:0:
51,192,257784,1,0,0:0:0:0:
460,192,257784,1,0,0:0:0:0:
153,192,257934,1,0,0:0:0:0:
358,192,257934,1,0,0:0:0:0:
256,192,258084,1,0,0:0:0:0:
358,192,258234,1,0,0:0:0:0:
460,192,258384,128,0,260634:0:0:0:0:
153,192,258384,128,0,258609:0:0:0:0:
51,192,258609,1,0,0:0:0:0:
256,192,258834,1,0,0:0:0:0:
358,192,258984,1,0,0:0:0:0:
51,192,258984,128,0,259209:0:0:0:0:
153,192,259209,1,0,0:0:0:0:
256,192,259434,1,0,0:0:0:0:
358,192,259584,1,0,0:0:0:0:
51,192,259884,128,0,260634:0:0:0:0:
256,192,259884,1,0,0:0:0:0:
153,192,260184,1,0,0:0:0:0:
358,192,260184,1,0,0:0:0:0:
256,192,260484,1,0,0:0:0:0:
51,192,260784,1,0,0:0:0:0:
460,192,260784,1,0,0:0:0:0:
153,192,260934,1,0,0:0:0:0:
358,192,261009,1,0,0:0:0:0:
460,192,261084,1,0,0:0:0:0:
51,192,261159,1,0,0:0:0:0:
153,192,261234,1,0,0:0:0:0:
358,192,261309,1,0,0:0:0:0:
256,192,261384,1,0,0:0:0:0:
51,192,261384,1,0,0:0:0:0:
460,192,261534,1,0,0:0:0:0:
153,192,261684,1,0,0:0:0:0:
358,192,261684,1,0,0:0:0:0:
51,192,261834,1,0,0:0:0:0:
256,192,261984,1,0,0:0:0:0:
460,192,261984,1,0,0:0:0:0:
51,192,262134,1,0,0:0:0:0:
153,192,262284,1,0,0:0:0:0:
358,192,262284,1,0,0:0:0:0:
460,192,262434,1,0,0:0:0:0:
256,192,262584,1,0,0:0:0:0:
51,192,262584,1,0,0:0:0:0:
460,192,262734,1,0,0:0:0:0:
153,192,262884,1,0,0:0:0:0:
358,192,262884,1,0,0:0:0:0:
256,192,263034,1,0,0:0:0:0:
51,192,263184,1,0,0:0:0:0:
460,192,263184,1,0,0:0:0:0:
358,192,263334,1,0,0:0:0:0:
153,192,263409,1,0,0:0:0:0:
51,192,263484,1,0,0:0:0:0:
460,192,263559,1,0,0:0:0:0:
358,192,263634,1,0,0:0:0:0:
153,192,263709,1,0,0:0:0:0:
256,192,263784,1,0,0:0:0:0:
460,192,263784,1,0,0:0:0:0:
51,192,263934,1,0,0:0:0:0:
153,192,264084,1,0,0:0:0:0:
358,192,264084,1,0,0:0:0:0:
460,192,264234,1,0,0:0:0:0:
51,192,264384,1,0,0:0:0:0:
256,192,264384,1,0,0:0:0:0:
460,192,264534,1,0,0:0:0:0:
153,192,264684,1,0,0:0:0:0:
358,192,264684,1,0,0:0:0:0:
51,192,264834,1,0,0:0:0:0:
256,192,264984,1,0,0:0:0:0:
460,192,264984,1,0,0:0:0:0:
51,192,265134,1,0,0:0:0:0:
153,192,265284,1,0,0:0:0:0:
358,192,265284,1,0,0:0:0:0:
256,192,265434,1,0,0:0:0:0:
358,192,265584,1,0,0:0:0:0:
460,192,265584,1,0,0:0:0:0:
153,192,265659,1,0,0:0:0:0:
51,192,265734,1,0,0:0:0:0:
153,192,265809,1,0,0:0:0:0:
358,192,265884,1,0,0:0:0:0:
460,192,265959,1,0,0:0:0:0:
358,192,266034,1,0,0:0:0:0:
153,192,266109,1,0,0:0:0:0:
51,192,266184,1,0,0:0:0:0:
460,192,266184,1,0,0:0:0:0:
358,192,266334,1,0,0:0:0:0:
256,192,266484,1,0,0:0:0:0:
153,192,266634,1,0,0:0:0:0:
51,192,266784,1,0,0:0:0:0:
358,192,266784,1,0,0:0:0:0:
460,192,266784,1,0,0:0:0:0:
153,192,266934,1,0,0:0:0:0:
256,192,267084,1,0,0:0:0:0:
358,192,267234,1,0,0:0:0:0:
460,192,267384,1,0,0:0:0:0:
51,192,267384,1,0,0:0:0:0:
153,192,267384,1,0,0:0:0:0:
358,192,267534,1,0,0:0:0:0:
256,192,267684,1,0,0:0:0:0:
153,192,267834,1,0,0:0:0:0:
51,192,267984,1,0,0:0:0:0:
358,192,267984,1,0,0:0:0:0:
460,192,267984,1,0,0:0:0:0:
153,192,268134,1,0,0:0:0:0:
256,192,268284,1,0,0:0:0:0:
358,192,268584,1,0,0:0:0:0:
256,192,268584,1,0,0:0:0:0:
153,192,268734,1,0,0:0:0:0:
460,192,268884,1,0,0:0:0:0:
153,192,269184,1,0,0:0:0:0:
256,192,269184,1,0,0:0:0:0:
358,192,269334,1,0,0:0:0:0:
51,192,269484,1,0,0:0:0:0:
256,192,269484,1,0,0:0:0:0:
153,192,269784,1,0,0:0:0:0:
256,192,269784,1,0,0:0:0:0:
358,192,269784,1,0,0:0:0:0:
256,192,270084,1,0,0:0:0:0:
51,192,270384,128,0,270909:0:0:0:0:
256,192,270384,128,0,270909:0:0:0:0:
358,192,270384,128,0,270909:0:0:0:0:
51,192,270984,1,0,0:0:0:0:
256,192,270984,1,0,0:0:0:0:
358,192,270984,1,0,0:0:0:0:
460,192,270984,1,0,0:0:0:0:
153,192,271584,128,0,272109:0:0:0:0:
358,192,271584,128,0,272109:0:0:0:0:
460,192,271584,128,0,272109:0:0:0:0:
460,192,272184,1,0,0:0:0:0:
358,192,272184,1,0,0:0:0:0:
153,192,272184,1,0,0:0:0:0:
51,192,272184,1,0,0:0:0:0:
153,192,272784,128,0,273984:0:0:0:0:
358,192,272784,128,0,273984:0:0:0:0:
256,192,272784,1,0,0:0:0:0:
51,192,273384,1,0,0:0:0:0:
460,192,273384,1,0,0:0:0:0:
51,192,273984,128,0,275184:0:0:0:0:
460,192,273984,128,0,275184:0:0:0:0:
256,192,273984,1,0,0:0:0:0:
153,192,274584,1,0,0:0:0:0:
358,192,274584,1,0,0:0:0:0:
256,192,274584,1,0,0:0:0:0:
256,192,275184,128,0,276384:0:0:0:0:
358,192,276384,128,0,277284:0:0:0:0:
460,192,277284,1,0,0:0:0:0:
256,192,277284,128,0,282384:0:0:0:0:
51,192,277359,1,0,0:0:0:0:
460,192,277434,1,0,0:0:0:0:
51,192,277509,1,0,0:0:0:0:
460,192,277584,1,0,0:0:0:0:
51,192,277659,1,0,0:0:0:0:
460,192,277734,1,0,0:0:0:0:
51,192,277809,1,0,0:0:0:0:
358,192,277884,1,0,0:0:0:0:
153,192,277959,1,0,0:0:0:0:
460,192,278034,1,0,0:0:0:0:
51,192,278109,1,0,0:0:0:0:
358,192,278184,1,0,0:0:0:0:
153,192,278259,1,0,0:0:0:0:
460,192,278334,1,0,0:0:0:0:
51,192,278409,1,0,0:0:0:0:
358,192,278484,1,0,0:0:0:0:
153,192,278559,1,0,0:0:0:0:
460,192,278634,1,0,0:0:0:0:
51,192,278709,1,0,0:0:0:0:
358,192,278784,1,0,0:0:0:0:
153,192,278859,1,0,0:0:0:0:
460,192,278934,1,0,0:0:0:0:
51,192,279009,1,0,0:0:0:0:
358,192,279084,1,0,0:0:0:0:
153,192,279159,1,0,0:0:0:0:
460,192,279234,1,0,0:0:0:0:
51,192,279309,1,0,0:0:0:0:
358,192,279384,1,0,0:0:0:0:
153,192,279496,1,0,0:0:0:0:
460,192,279571,1,0,0:0:0:0:
51,192,279684,128,0,279834:0:0:0:0:
460,192,279834,128,0,279984:0:0:0:0:
153,192,279984,128,0,280134:0:0:0:0:
358,192,280134,128,0,280284:0:0:0:0:
51,192,280284,128,0,280434:0:0:0:0:
460,192,280434,128,0,280584:0:0:0:0:
153,192,280584,128,0,280734:0:0:0:0:
358,192,280734,128,0,280884:0:0:0:0:
51,192,280884,128,0,281109:0:0:0:0:
460,192,281109,128,0,281334:0:0:0:0:
153,192,281334,128,0,281709:0:0:0:0:
358,192,281709,128,0,282084:0:0:0:0:
153,192,282084,128,0,282384:0:0:0:0:
256,192,283209,1,0,0:0:0:0:
51,192,283225,128,0,285625:0:0:0:0:
460,192,283825,128,0,283975:0:0:0:0:
358,192,283975,128,0,284275:0:0:0:0:
153,192,284275,128,0,285625:0:0:0:0:
153,192,285737,1,0,0:0:0:0:
358,192,285775,1,0,0:0:0:0:
256,192,285775,128,0,286900:0:0:0:0:
460,192,286375,128,0,286600:0:0:0:0:
358,192,286600,128,0,286900:0:0:0:0:
460,192,286900,128,0,288400:0:0:0:0:
51,192,287125,128,0,287800:0:0:0:0:
358,192,287800,128,0,288100:0:0:0:0:
256,192,288100,128,0,288400:0:0:0:0:
51,192,288400,1,0,0:0:0:0:
153,192,288437,1,0,0:0:0:0:
256,192,288475,1,0,0:0:0:0:
358,192,288475,128,0,290762:0:0:0:0:
51,192,289075,128,0,289262:0:0:0:0:
153,192,289262,128,0,289562:0:0:0:0:
256,192,289562,128,0,290762:0:0:0:0:
460,192,290762,1,0,0:0:0:0:
51,192,291025,1,0,0:0:0:0:
153,192,291062,1,0,0:0:0:0:
358,192,291100,128,0,292375:0:0:0:0:
460,192,291100,128,0,293912:0:0:0:0:
51,192,291325,1,0,0:0:0:0:
153,192,291550,1,0,0:0:0:0:
256,192,291775,1,0,0:0:0:0:
51,192,292016,1,0,0:0:0:0:
153,192,292241,1,0,0:0:0:0:
256,192,292375,1,0,0:0:0:0:
51,192,292653,1,0,0:0:0:0:
153,192,292878,1,0,0:0:0:0:
256,192,293066,128,0,293912:0:0:0:0:
51,192,293312,1,0,0:0:0:0:
51,192,293912,1,0,0:0:0:0:
358,192,293912,128,0,294512:0:0:0:0:
153,192,294212,1,0,0:0:0:0:
460,192,294512,1,0,0:0:0:0:
256,192,294512,1,0,0:0:0:0:
358,192,294662,1,0,0:0:0:0:
153,192,294887,1,0,0:0:0:0:
256,192,295112,128,0,296574:0:0:0:0:
51,192,295262,1,0,0:0:0:0:
153,192,295562,1,0,0:0:0:0:
460,192,295862,1,0,0:0:0:0:
358,192,295862,1,0,0:0:0:0:
51,192,296199,1,0,0:0:0:0:
153,192,296574,128,0,297198:0:0:0:0:
51,192,296574,1,0,0:0:0:0:
358,192,296898,1,0,0:0:0:0:
460,192,297198,128,0,297348:0:0:0:0:
358,192,297348,128,0,297648:0:0:0:0:
51,192,297498,1,0,0:0:0:0:
153,192,297648,1,0,0:0:0:0:
460,192,297648,128,0,298998:0:0:0:0:
256,192,297798,1,0,0:0:0:0:
51,192,297798,128,0,298998:0:0:0:0:
153,192,298435,1,0,0:0:0:0:
256,192,298473,128,0,298773:0:0:0:0:
358,192,298773,128,0,298998:0:0:0:0:
51,192,299110,1,0,0:0:0:0:
358,192,299148,1,0,0:0:0:0:
153,192,299148,128,0,299448:0:0:0:0:
460,192,299148,128,0,300273:0:0:0:0:
256,192,299448,128,0,299823:0:0:0:0:
51,192,299823,128,0,299973:0:0:0:0:
358,192,299823,128,0,300273:0:0:0:0:
153,192,299973,128,0,300273:0:0:0:0:
256,192,300273,128,0,301773:0:0:0:0:
51,192,300423,1,0,0:0:0:0:
153,192,300798,1,0,0:0:0:0:
51,192,301098,1,0,0:0:0:0:
153,192,301135,1,0,0:0:0:0:
358,192,301173,1,0,0:0:0:0:
460,192,301210,128,0,301435:0:0:0:0:
358,192,301435,128,0,301623:0:0:0:0:
51,192,301698,1,0,0:0:0:0:
153,192,301735,1,0,0:0:0:0:
358,192,301773,128,0,304585:0:0:0:0:
51,192,301960,1,0,0:0:0:0:
153,192,302185,1,0,0:0:0:0:
256,192,302410,1,0,0:0:0:0:
51,192,302635,1,0,0:0:0:0:
153,192,302860,1,0,0:0:0:0:
51,192,303235,128,0,303535:0:0:0:0:
153,192,303535,128,0,304585:0:0:0:0:
256,192,303910,128,0,304585:0:0:0:0:
460,192,304322,128,0,304585:0:0:0:0:
51,192,304660,1,0,0:0:0:0:
153,192,304697,1,0,0:0:0:0:
256,192,304735,128,0,306385:0:0:0:0:
358,192,304772,128,0,305710:0:0:0:0:
460,192,304810,128,0,305185:0:0:0:0:
153,192,305185,1,0,0:0:0:0:
460,192,305710,1,0,0:0:0:0:
51,192,306010,1,0,0:0:0:0:
153,192,306047,1,0,0:0:0:0:
358,192,306047,1,0,0:0:0:0:
460,192,306385,1,0,0:0:0:0:
358,192,306385,128,0,307285:0:0:0:0:
256,192,307322,1,0,0:0:0:0:
460,192,307360,128,0,307847:0:0:0:0:
153,192,307360,1,0,0:0:0:0:
51,192,307360,1,0,0:0:0:0:
358,192,307847,128,0,308334:0:0:0:0:
256,192,308334,128,0,309947:0:0:0:0:
460,192,308672,128,0,309947:0:0:0:0:
51,192,308672,128,0,309947:0:0:0:0:
358,192,308672,1,0,0:0:0:0:
51,192,310022,128,0,312647:0:0:0:0:
153,192,310022,128,0,311709:0:0:0:0:
256,192,310059,128,0,310997:0:0:0:0:
460,192,310097,128,0,310472:0:0:0:0:
358,192,310472,1,0,0:0:0:0:
460,192,310997,1,0,0:0:0:0:
358,192,311372,128,0,312047:0:0:0:0:
460,192,311709,128,0,312647:0:0:0:0:
256,192,312047,128,0,312197:0:0:0:0:
256,192,312347,128,0,312647:0:0:0:0:
153,192,312684,128,0,314034:0:0:0:0:
358,192,312722,128,0,314372:0:0:0:0:
460,192,313209,1,0,0:0:0:0:
256,192,313697,1,0,0:0:0:0:
51,192,314034,128,0,315272:0:0:0:0:
256,192,314372,128,0,314709:0:0:0:0:
153,192,314709,128,0,315272:0:0:0:0:
358,192,314709,128,0,315272:0:0:0:0:
460,192,315047,128,0,315272:0:0:0:0:
153,192,315347,128,0,321909:0:0:0:0:
51,192,315347,128,0,316697:0:0:0:0:
256,192,315347,1,0,0:0:0:0:
358,192,315347,1,0,0:0:0:0:
460,192,315347,1,0,0:0:0:0:
256,192,315497,1,0,0:0:0:0:
358,192,315572,1,0,0:0:0:0:
460,192,315722,1,0,0:0:0:0:
460,192,316022,128,0,316359:0:0:0:0:
358,192,316359,128,0,318009:0:0:0:0:
256,192,316697,128,0,317297:0:0:0:0:
51,192,316997,1,0,0:0:0:0:
460,192,317297,128,0,318009:0:0:0:0:
256,192,317672,1,0,0:0:0:0:
51,192,318009,128,0,320672:0:0:0:0:
358,192,318347,128,0,319847:0:0:0:0:
460,192,318684,1,0,0:0:0:0:
256,192,318984,1,0,0:0:0:0:
460,192,319172,1,0,0:0:0:0:
460,192,319697,1,0,0:0:0:0:
256,192,319847,128,0,321309:0:0:0:0:
358,192,320522,1,0,0:0:0:0:
358,192,320672,1,0,0:0:0:0:
460,192,321309,1,0,0:0:0:0:
358,192,321309,1,0,0:0:0:0:
358,192,321684,1,0,0:0:0:0:
51,192,321984,128,0,323297:0:0:0:0:
153,192,322059,128,0,322997:0:0:0:0:
358,192,322134,128,0,322997:0:0:0:0:
256,192,322622,1,0,0:0:0:0:
460,192,322997,1,0,0:0:0:0:
153,192,323297,128,0,325397:0:0:0:0:
256,192,323297,1,0,0:0:0:0:
358,192,325397,1,0,0:0:0:0:
460,192,325397,1,0,0:0:0:0:
51,192,325997,128,0,340847:0:0:0:0:
460,192,326672,128,0,326897:0:0:0:0:
358,192,326897,128,0,327234:0:0:0:0:
256,192,327234,128,0,338409:0:0:0:0:
