osu file format v14

[General]
AudioFilename: audio.mp3
AudioLeadIn: 0
PreviewTime: 88042
Countdown: 0
SampleSet: Soft
StackLeniency: 1
Mode: 0
LetterboxInBreaks: 0
WidescreenStoryboard: 1

[Editor]
Bookmarks: 52042,88042,126442,164842,203242,222442,277342,282442
DistanceSpacing: 0.5
BeatDivisor: 8
GridSize: 32
TimelineZoom: 2.9

[Metadata]
Title:Shelter
TitleUnicode:Shelter
Artist:Porter Robinson & Madeon
ArtistUnicode:Porter Robinson & Madeon
Creator:pishifat
Version:Hard
Source:Shelter
Tags:
BeatmapID:1139773
BeatmapSetID:527661

[Difficulty]
HPDrainRate:5
CircleSize:3.8
OverallDifficulty:6
ApproachRate:7.5
SliderMultiplier:1.99999990463257
SliderTickRate:1

[Events]
//Background and Video events
Video,0,"ripped.avi"
0,0,"jpg.jpg",0,0
//Break Periods
2,88242,91417
2,107442,116017
2,165042,183217
//Storyboard Layer 0 (Background)
//Storyboard Layer 1 (Fail)
//Storyboard Layer 2 (Pass)
//Storyboard Layer 3 (Foreground)
//Storyboard Sound Samples

[TimingPoints]
49642,600,4,2,2,25,1,0
49642,-133.333333333333,4,2,2,25,0,0
56842,-133.333333333333,4,2,2,25,0,0
59242,-111.111111111111,4,2,1,35,0,0
66442,-100,4,2,2,35,0,0
68242,-100,4,2,1,50,0,0
68842,-100,4,2,1,50,0,1
69817,-100,4,2,1,5,0,1
69892,-100,4,2,1,50,0,1
70642,-100,4,2,1,50,0,0
70942,-100,4,2,1,50,0,0
71167,-100,4,2,1,5,0,0
71242,-100,4,2,1,50,0,1
72217,-100,4,2,1,5,0,1
72292,-100,4,2,1,50,0,1
73042,-100,4,2,1,50,0,0
73342,-100,4,2,2,50,0,0
73642,-100,4,2,1,50,0,1
74617,-100,4,2,1,5,0,1
74692,-100,4,2,1,50,0,1
75442,-100,4,2,1,50,0,1
75667,-100,4,2,1,5,0,1
75742,-100,4,2,1,50,0,1
75967,-100,4,2,1,5,0,1
76042,-100,4,2,1,50,0,1
77242,-100,4,2,1,50,0,1
78292,-100,4,2,1,50,0,0
78442,-100,4,2,1,50,0,1
79417,-100,4,2,1,5,0,1
79492,-100,4,2,1,50,0,1
80242,-100,4,2,1,50,0,0
80542,-100,4,2,1,50,0,0
80767,-100,4,2,1,5,0,0
80842,-100,4,2,1,50,0,1
81817,-100,4,2,1,5,0,1
81892,-100,4,2,1,50,0,1
82642,-100,4,2,1,50,0,0
82942,-100,4,2,2,50,0,0
83242,-100,4,2,1,50,0,1
84217,-100,4,2,1,5,0,1
84292,-100,4,2,1,50,0,1
85042,-100,4,2,1,50,0,1
85267,-100,4,2,1,5,0,1
85342,-100,4,2,1,50,0,1
85567,-100,4,2,1,5,0,1
85642,-100,4,2,1,50,0,1
87442,-133.333333333333,4,2,2,25,0,0
88042,-100,4,2,1,20,0,0
92242,-100,4,2,2,50,0,0
92692,-100,4,2,2,5,0,0
92842,-133.333333333333,4,2,2,40,0,0
96742,-111.111111111111,4,2,2,20,0,0
97042,-111.111111111111,4,2,1,50,0,0
97642,-111.111111111111,4,2,1,50,0,0
106642,-100,4,2,1,50,0,0
116842,-133.333333333333,4,2,1,35,0,0
121642,-200,4,2,2,35,0,0
125242,-100,4,2,2,50,0,0
125842,-100,4,2,1,50,0,0
126442,-100,4,2,1,50,0,1
127417,-100,4,2,1,5,0,1
127492,-100,4,2,1,50,0,1
128242,-100,4,2,1,50,0,0
128542,-100,4,2,1,50,0,0
128767,-100,4,2,1,5,0,0
128842,-100,4,2,1,50,0,1
129817,-100,4,2,1,5,0,1
129892,-100,4,2,1,50,0,1
130642,-100,4,2,1,50,0,0
130942,-100,4,2,2,50,0,0
131242,-100,4,2,1,50,0,1
132217,-100,4,2,1,5,0,1
132292,-100,4,2,1,50,0,1
133267,-100,4,2,1,5,0,1
133342,-100,4,2,1,50,0,1
133567,-100,4,2,1,5,0,1
133642,-100,4,2,1,50,0,1
134842,-100,4,2,1,50,0,1
135892,-100,4,2,1,50,0,0
136042,-100,4,2,1,50,0,1
137017,-100,4,2,1,5,0,1
137092,-100,4,2,1,50,0,1
137842,-100,4,2,1,50,0,0
138142,-100,4,2,1,50,0,0
138367,-100,4,2,1,5,0,0
138442,-100,4,2,1,50,0,1
139417,-100,4,2,1,5,0,1
139492,-100,4,2,1,50,0,1
140242,-100,4,2,1,50,0,0
140542,-100,4,2,2,50,0,0
140842,-100,4,2,1,50,0,1
141817,-100,4,2,1,5,0,1
141892,-100,4,2,1,50,0,1
142867,-100,4,2,1,5,0,1
142942,-100,4,2,1,50,0,1
143167,-100,4,2,1,5,0,1
143242,-100,4,2,1,50,0,1
144442,-100,4,2,1,50,0,1
145042,-100,4,1,1,50,0,0
145642,-100,4,2,1,50,0,1
146617,-100,4,2,1,5,0,1
146692,-100,4,2,1,50,0,1
147742,-100,4,2,1,50,0,1
148042,-100,4,2,1,50,0,1
149017,-100,4,2,1,5,0,1
149092,-100,4,2,1,50,0,1
149842,-100,4,2,1,50,0,1
150142,-100,4,2,1,50,0,1
150442,-100,4,2,1,50,0,1
151417,-100,4,2,1,5,0,1
151492,-100,4,2,1,50,0,1
152467,-100,4,2,1,5,0,1
152542,-100,4,2,1,50,0,1
152767,-100,4,2,1,5,0,1
152842,-100,4,2,1,50,0,1
154042,-100,4,2,1,50,0,1
155092,-100,4,2,1,50,0,0
155242,-100,4,2,1,50,0,1
156217,-100,4,2,1,5,0,1
156292,-100,4,2,1,50,0,1
157042,-100,4,2,1,50,0,0
157342,-100,4,2,1,50,0,0
157567,-100,4,2,1,5,0,0
157642,-100,4,2,1,50,0,1
158617,-100,4,2,1,5,0,1
158692,-100,4,2,1,50,0,1
159442,-100,4,2,1,50,0,0
159742,-100,4,2,2,50,0,0
160042,-100,4,2,1,50,0,1
161017,-100,4,2,1,5,0,1
161092,-100,4,2,1,50,0,1
162142,-100,4,2,1,50,0,1
162367,-100,4,2,1,5,0,1
162442,-117.647058823529,4,2,2,40,0,0
163042,-100,4,2,2,40,0,0
163642,-142.857142857143,4,2,2,40,0,0
164242,-100,4,2,2,40,0,0
184042,-133.333333333333,4,2,2,35,0,0
186442,-133.333333333333,4,2,2,35,0,0
188842,-133.333333333333,4,2,2,35,0,0
191242,-133.333333333333,4,2,2,35,0,0
193642,-133.333333333333,4,2,2,35,0,0
196042,-133.333333333333,4,2,2,35,0,0
198442,-133.333333333333,4,2,2,35,0,0
200842,-133.333333333333,4,2,2,35,0,0
202192,-133.333333333333,4,2,1,35,0,0
202642,-133.333333333333,4,2,1,35,0,0
203242,-133.333333333333,4,2,1,35,0,0
220042,-133.333333333333,4,2,1,35,0,0
222442,-100,4,2,1,50,0,1
223417,-100,4,2,1,5,0,1
223492,-100,4,2,1,50,0,1
224542,-100,4,2,1,50,0,1
224842,-100,4,2,1,50,0,1
225817,-100,4,2,1,5,0,1
225892,-100,4,2,1,50,0,1
226642,-100,4,2,1,50,0,1
226942,-100,4,2,1,50,0,1
227242,-100,4,2,1,50,0,1
228217,-100,4,2,1,5,0,1
228292,-100,4,2,1,50,0,1
229267,-100,4,2,1,5,0,1
229342,-100,4,2,1,50,0,1
229567,-100,4,2,1,5,0,1
229642,-100,4,2,1,50,0,1
230992,-100,4,2,1,50,0,1
231892,-100,4,2,1,50,0,0
232042,-100,4,2,1,50,0,1
233017,-100,4,2,1,5,0,1
233092,-100,4,2,1,50,0,1
234142,-100,4,2,1,50,0,1
234442,-100,4,2,1,50,0,1
235417,-100,4,2,1,5,0,1
235492,-100,4,2,1,50,0,1
236542,-100,4,2,1,50,0,1
236842,-100,4,2,1,50,0,1
237817,-100,4,2,1,5,0,1
237892,-100,4,2,1,50,0,1
238867,-100,4,2,1,5,0,1
238942,-100,4,2,1,50,0,1
239167,-100,4,2,1,5,0,1
239242,-100,4,2,1,50,0,1
240442,-100,4,2,1,50,0,1
241042,-100,4,1,1,50,0,0
241642,-100,4,2,1,50,0,1
242617,-100,4,2,1,5,0,1
242692,-100,4,2,1,50,0,1
243742,-100,4,2,1,50,0,1
244042,-100,4,2,1,50,0,1
245017,-100,4,2,1,5,0,1
245092,-100,4,2,1,50,0,1
246142,-100,4,2,1,50,0,1
246442,-100,4,2,1,50,0,1
247417,-100,4,2,1,5,0,1
247492,-100,4,2,1,50,0,1
248467,-100,4,2,1,5,0,1
248542,-100,4,2,1,50,0,1
248767,-100,4,2,1,5,0,1
248842,-100,4,2,1,50,0,1
250042,-100,4,2,1,50,0,1
251092,-100,4,2,1,50,0,0
251242,-100,4,2,1,50,0,1
252217,-100,4,2,1,5,0,1
252292,-100,4,2,1,50,0,1
253342,-100,4,2,1,50,0,1
253642,-100,4,2,1,50,0,1
254617,-100,4,2,1,5,0,1
254692,-100,4,2,1,50,0,1
255742,-100,4,2,1,50,0,1
256042,-100,4,2,1,50,0,1
257017,-100,4,2,1,5,0,1
257092,-100,4,2,1,50,0,1
258067,-100,4,2,1,5,0,1
258142,-100,4,2,1,50,0,1
258367,-100,4,2,1,5,0,1
258442,-100,4,2,2,35,0,0
260242,-100,4,2,2,50,0,0
260842,-83.3333333333333,4,2,1,50,0,1
269842,-100,4,2,1,50,0,0
270142,-100,4,2,1,32,0,0
270442,-83.3333333333333,4,2,1,50,0,1
270967,-100,4,2,1,5,0,1
271042,-100,4,2,2,32,0,0
271642,-83.3333333333333,4,2,1,50,0,1
272167,-100,4,2,1,5,0,1
272242,-100,4,2,2,32,0,0
272842,-83.3333333333333,4,2,1,50,0,1
273367,-100,4,2,1,5,0,1
273442,-105.263157894737,4,2,2,50,0,1
274642,-105.263157894737,4,2,2,50,0,1
275242,-128.205128205128,4,2,2,37,0,0
277417,-100,4,2,2,55,0,0
282442,-100,4,2,2,5,0,0
283255,615.384615384615,4,2,1,50,1,0
283870,676.056338028169,4,2,1,50,1,0
284039,631.578947368421,4,2,1,50,1,0
285819,655.737704918033,4,2,1,50,1,0
286474,676.056338028169,4,2,1,50,1,0
286643,625,4,2,1,50,1,0
286955,800,4,2,1,50,1,0
287155,685.714285714286,4,2,1,50,1,0
287840,657.534246575342,4,2,1,50,1,0
288497,657.534246575342,4,2,1,50,1,0
289318,607.594936708861,4,2,1,50,1,0
290823,607.594936708861,4,2,1,50,1,0
291126,631.578947368421,4,2,1,50,1,0
293768,712.166172106825,4,2,1,50,1,0
294124,638.297872340426,4,2,1,50,1,0
294602,697.674418604651,4,2,1,50,1,0
295125,645.161290322581,4,2,1,50,1,0
295447,705.882352941176,4,2,1,50,1,0
295799,615.384615384615,4,2,1,50,1,0
296106,648.648648648649,4,2,1,50,1,0
296430,676.056338028169,4,2,1,50,1,0
296768,636.604774535809,4,2,1,50,1,0
297563,727.272727272727,4,2,1,50,1,0
297744,645.161290322581,4,2,1,50,1,0
298387,662.983425414365,4,2,1,50,1,0
298718,631.578947368421,4,2,1,50,1,0
299033,666.666666666667,4,2,1,50,1,0
299699,625,4,2,1,50,1,0
299855,676.056338028169,4,2,1,50,1,0
300362,666.666666666667,4,2,1,50,1,0
301028,612.244897959184,4,2,1,50,1,0
301334,600,4,2,1,50,1,0
301634,676.056338028169,4,2,1,50,1,0
302310,740.740740740741,4,2,1,50,1,0
303421,693.64161849711,4,2,1,50,1,0
303767,833.333333333333,4,2,1,50,1,0
304183,718.562874251497,4,2,1,50,1,0
304542,670.391061452514,4,2,1,50,1,0
305044,645.161290322581,4,2,1,50,1,0
305527,705.882352941176,4,2,1,50,1,0
305879,648.648648648649,4,2,1,50,1,0
306203,666.666666666667,4,2,1,50,1,0
307203,681.818181818182,4,2,1,50,1,0
307714,631.578947368421,4,2,1,50,1,0
308187,731.707317073171,4,2,1,50,1,0
308552,662.983425414365,4,2,1,50,1,0
309877,628.272251308901,4,2,1,50,1,0
310348,697.674418604651,4,2,1,50,1,0
310871,697.674418604651,4,2,1,50,1,0
311219,634.920634920635,4,2,1,50,1,0
311536,676.056338028169,4,2,1,50,1,0
312212,655.737704918033,4,2,1,50,1,0
312539,662.983425414365,4,2,1,50,1,0
313533,705.882352941176,4,2,1,50,1,0
313885,661.157024793388,4,2,1,50,1,0
315207,652.173913043478,4,2,1,50,1,0
315859,722.89156626506,4,2,1,50,1,0
316220,685.714285714286,4,2,1,50,1,0
316562,600,4,2,1,50,1,0
317162,718.562874251497,4,2,1,50,1,0
317880,655.737704918033,4,2,1,50,1,0
318535,600,4,2,1,50,1,0
318835,789.473684210526,4,2,1,50,1,0
319229,600,4,2,1,50,1,0
319529,705.882352941176,4,2,1,50,1,0
319705,674.157303370787,4,2,1,50,1,0
320547,645.161290322581,4,2,1,50,1,0
321192,693.64161849711,4,2,1,50,1,0
321885,618.556701030928,4,2,1,50,1,0
322503,710.059171597633,4,2,1,50,1,0
323213,681.818181818182,4,2,1,50,1,0
325258,662.983425414365,4,2,1,50,1,0
325886,710.059171597633,4,2,1,50,1,0
326773,731.707317073171,4,2,1,50,1,0

[Colours]
Combo1 : 255,160,55
Combo2 : 202,218,219
Combo3 : 183,213,191
Combo4 : 160,214,213
Combo5 : 188,189,231

[HitObjects]
0,19,49642,6,0,P|53:18|130:109,1,149.999992847443,0|0,0:0|0:0,0:0:0:0:
122,79,50392,2,0,P|155:64|199:69,1,74.9999992847443,0|0,0:0|0:0,0:0:0:0:
197,70,52042,6,0,P|144:69|67:160,1,149.999992847443,0|0,0:0|0:0,0:0:0:0:
75,130,52792,2,0,P|42:115|-2:120,1,74.9999992847443,0|0,0:0|0:0,0:0:0:0:
4,117,53842,2,0,P|41:114|74:129,1,74.9999992847443,0|0,0:0|0:0,0:0:0:0:
152,236,54442,6,0,P|205:237|282:146,1,149.999992847443,0|0,0:0|0:0,0:0:0:0:
274,176,55192,2,0,P|307:191|351:186,1,74.9999992847443,0|0,0:0|0:0,0:0:0:0:
344,188,56542,1,0,0:0:0:0:
193,249,56842,6,0,L|184:320,2,56.2499994635582,0|0|0,0:0|0:0|0:0,0:0:0:0:
279,267,57442,2,0,L|271:322,2,56.2499994635582,0|0|0,0:0|0:0|0:0,0:0:0:0:
363,287,58042,2,0,L|355:342,2,56.2499994635582,0|0|0,0:0|0:0|0:0,0:0:0:0:
440,362,58642,2,0,L|447:306,2,56.2499994635582,0|0|0,0:0|0:0|0:0,0:0:0:0:
426,224,59242,22,0,P|356:186|302:192,1,134.999989442826,4|0,0:3|0:0,0:0:0:0:
303,191,59842,2,0,P|291:167|290:147,1,44.9999964809419,2|0,0:3|0:0,0:0:0:0:
154,292,60292,1,0,0:0:0:0:
154,292,60442,2,0,P|192:149|185:106,1,179.999985923768,0|2,0:0|0:3,0:0:0:0:
420,49,61342,2,0,P|402:55|369:55,1,44.9999964809419,0|0,0:0|0:0,0:0:0:0:
301,24,61642,6,0,P|328:52|337:157,1,134.999989442826,4|0,0:3|0:0,0:0:0:0:
341,143,62242,2,0,P|363:143|384:150,1,44.9999964809419,2|0,0:3|0:0,0:0:0:0:
259,294,62692,1,0,0:0:0:0:
259,294,62842,2,0,P|319:245|385:239,1,134.999989442826,0|0,0:0|0:0,0:0:0:0:
463,261,63442,5,2,0:3:0:0:
341,143,63742,1,0,0:0:0:0:
259,294,64042,6,0,P|185:319|121:302,1,134.999989442826,4|0,0:3|0:0,0:0:0:0:
131,307,64642,2,0,P|94:314|72:331,1,44.9999964809419,2|0,0:3|0:0,0:0:0:0:
229,207,65092,1,0,0:0:0:0:
229,207,65242,2,0,P|170:193|95:87,1,179.999985923768,0|2,0:0|0:3,0:0:0:0:
249,29,66142,2,0,P|239:72|256:113,1,89.9999929618838
256,113,68242,5,2,1:3:0:0:
256,204,68392,1,8,1:3:0:0:
257,25,68842,6,0,P|200:16|105:74,1,149.999992847443,4|0,0:1|0:0,0:0:0:0:
95,138,69442,1,2,1:3:0:0:
119,55,69592,2,0,P|60:59|20:94,1,99.9999952316285,0|0,0:0|0:0,0:0:0:0:
49,217,70042,2,0,B|158:251|131:177|254:212,1,199.999990463257,4|2,0:3|1:3,0:0:0:0:
243,209,70942,1,0,0:0:0:0:
345,15,71242,6,0,L|367:166,1,149.999992847443,4|0,0:3|0:0,0:0:0:0:
327,240,71842,1,2,1:3:0:0:
366,163,71992,2,0,P|404:199|415:253,1,99.9999952316285,0|0,0:0|0:0,0:0:0:0:
352,320,72442,2,0,P|297:318|240:241,1,149.999992847443,4|0,0:3|0:0,0:0:0:0:
233,163,73042,1,2,1:3:0:0:
233,163,73342,1,0,0:0:0:0:
37,259,73642,6,0,P|138:284|166:328,1,149.999992847443,4|0,0:3|0:0,0:0:0:0:
99,382,74242,1,2,1:3:0:0:
161,317,74392,2,0,L|261:329,1,99.9999952316285,0|0,0:0|0:0,0:0:0:0:
351,338,74842,2,0,B|402:231|314:246|375:130,1,199.999990463257,4|2,0:3|1:3,0:0:0:0:
276,3,75742,2,0,P|250:18|219:21,1,49.9999976158143,0|0,0:0|0:0,0:0:0:0:
157,69,76042,6,0,B|232:59|232:59|308:102,1,149.999992847443,4|0,0:3|0:0,0:0:0:0:
281,185,76642,2,0,B|206:195|206:195|141:158,1,149.999992847443,2|0,1:3|0:0,0:0:0:0:
73,99,77242,1,4,0:3:0:0:
18,170,77392,2,0,L|7:276,1,99.9999952316285,2|0,1:3|0:0,0:0:0:0:
0,364,77842,1,4,1:3:0:0:
84,324,77992,2,0,P|140:326|192:357,1,99.9999952316285,4|0,0:3|0:0,0:0:0:0:
260,289,78442,22,0,P|260:222|326:155,1,149.999992847443,4|0,0:1|0:0,0:0:0:0:
397,190,79042,1,2,1:3:0:0:
311,161,79192,2,0,P|288:99|306:44,1,99.9999952316285,0|0,0:0|0:0,0:0:0:0:
392,15,79642,2,0,B|280:47|312:-18|182:27,1,199.999990463257,4|2,0:3|1:3,0:0:0:0:
195,22,80542,1,0,0:0:0:0:
196,320,80842,6,0,P|220:261|177:181,1,149.999992847443,4|0,0:3|0:0,0:0:0:0:
95,175,81442,1,2,1:3:0:0:
185,186,81592,2,0,P|165:115|129:91,1,99.9999952316285,0|0,0:0|0:0,0:0:0:0:
81,17,82042,2,0,P|128:51|234:35,1,149.999992847443,4|0,0:3|0:0,0:0:0:0:
296,5,82642,1,2,1:3:0:0:
296,5,82942,1,0,0:0:0:0:
454,196,83242,6,0,P|407:230|301:214,1,149.999992847443,4|0,0:3|0:0,0:0:0:0:
264,150,83842,1,2,1:3:0:0:
318,224,83992,2,0,L|328:338,1,99.9999952316285,0|0,0:0|0:0,0:0:0:0:
253,374,84442,2,0,B|130:398|185:335|39:367,1,199.999990463257,4|2,0:3|1:3,0:0:0:0:
57,363,85342,1,0,0:0:0:0:
232,284,85642,6,0,B|275:227|275:227|263:147,1,149.999992847443,4|0,0:3|0:0,0:0:0:0:
197,93,86242,2,0,B|126:84|126:84|62:134,1,149.999992847443,2|0,1:3|0:0,0:0:0:0:
44,220,86842,2,0,B|71:285|71:285|147:315,1,149.999992847443,4|0,0:3|0:0,0:0:0:0:
186,197,87442,6,0,P|137:212|183:208,1,149.999998569489,0|4,0:0|3:3,0:0:0:0:
250,70,92242,70,0,B|235:96|212:102|212:102|289:92|333:145,1,174.99999165535,2|0,0:3|0:0,0:0:0:0:
325,137,92842,6,0,P|327:218|311:243,1,112.499998927116,4|0,0:3|0:0,0:0:0:0:
290,332,93442,1,0,1:0:0:0:
290,332,93592,2,0,L|377:322,1,74.9999992847443,0|0,0:0|0:0,0:0:0:0:
439,365,94042,2,0,P|416:314|424:259,1,112.499998927116,4|0,0:3|0:0,0:0:0:0:
477,179,94642,1,0,1:0:0:0:
477,179,94792,2,0,L|394:171,1,74.9999992847443,0|0,0:0|0:0,0:0:0:0:
304,203,95242,6,0,P|233:231|155:222,2,149.999998569489,4|0|4,0:3|1:0|0:3,0:0:0:0:
213,82,96742,1,4,0:3:0:0:
213,82,97042,38,0,L|217:108,2,22.499998240471,2|0|0,1:3|1:3|1:3,0:0:0:0:
240,11,97342,1,0,1:0:0:0:
166,25,97492,1,0,1:0:0:0:
122,111,97642,6,0,P|66:139|-10:130,1,134.999989442826,4|0,0:0|0:0,0:0:0:0:
71,187,98242,1,0,1:3:0:0:
71,187,98392,2,0,L|81:289,1,89.9999929618838,0|0,0:0|0:0,0:0:0:0:
116,354,98842,2,0,P|178:380|216:371,1,89.9999929618838,4|0,0:3|0:0,0:0:0:0:
305,205,99442,2,0,P|260:205|222:228,1,89.9999929618838,0|0,1:0|0:0,0:0:0:0:
402,325,100042,6,0,L|416:181,1,134.999989442826,4|0,0:3|0:0,0:0:0:0:
425,101,100642,1,0,1:0:0:0:
251,28,100942,2,0,L|258:89,1,44.9999964809419,0|0,0:0|0:0,0:0:0:0:
302,150,101242,2,0,P|256:114|170:124,1,134.999989442826,4|0,0:3|0:0,0:0:0:0:
126,188,101842,2,0,L|117:293,1,89.9999929618838,0|0,1:0|0:0,0:0:0:0:
118,277,102292,1,0,0:0:0:0:
191,339,102442,6,0,B|269:354|247:310|333:329,1,134.999989442826,4|0,0:3|0:0,0:0:0:0:
414,371,103042,1,0,1:0:0:0:
414,371,103192,2,0,L|406:278,1,89.9999929618838,0|0,0:0|0:0,0:0:0:0:
365,204,103642,2,0,L|372:114,1,89.9999929618838,4|0,0:3|0:0,0:0:0:0:
372,114,104092,1,0,0:0:0:0:
285,148,104242,2,0,P|227:141|193:116,1,89.9999929618838,0|0,1:0|0:0,0:0:0:0:
70,250,104842,6,0,P|158:256|193:289,1,134.999989442826,4|0,0:3|0:0,0:0:0:0:
238,366,105442,1,0,1:0:0:0:
238,366,105592,2,0,P|289:340|331:344,1,89.9999929618838,0|0,0:0|0:0,0:0:0:0:
407,363,106042,1,4,0:3:0:0:
281,205,106342,1,0,0:0:0:0:
481,176,106642,6,0,L|513:179,2,24.9999988079071,2|0|0,1:3|1:0|1:0,0:0:0:0:
412,145,106942,1,0,1:0:0:0:
338,155,107092,1,0,1:0:0:0:
281,205,107242,1,4,1:3:0:0:
0,32,116842,6,0,P|53:70|100:76,1,112.499998927116,0|0,0:0|0:0,0:0:0:0:
98,76,117442,2,0,P|117:120|142:142,1,74.9999992847443,0|0,0:0|0:0,0:0:0:0:
233,33,118042,2,0,P|281:77|297:122,1,112.499998927116,0|0,0:0|0:0,0:0:0:0:
297,121,118642,2,0,P|344:130|371:151,1,74.9999992847443,0|0,0:0|0:0,0:0:0:0:
340,262,119242,6,0,P|393:300|440:306,1,112.499998927116,0|0,0:0|0:0,0:0:0:0:
438,305,119842,2,0,P|457:349|482:371,1,74.9999992847443,0|0,0:0|0:0,0:0:0:0:
476,367,120292,2,0,L|490:241,1,112.499998927116,0|0,0:0|0:0,0:0:0:0:
501,116,121042,2,0,P|465:96|417:93,1,74.9999992847443,0|0,0:0|0:0,0:0:0:0:
297,137,121642,5,0,0:0:0:0:
297,137,122242,2,0,L|239:131,1,49.9999976158143,0|0,0:0|0:0,0:0:0:0:
247,131,123442,2,0,L|189:125,1,49.9999976158143,0|0,0:0|0:0,0:0:0:0:
219,188,125242,22,0,L|250:185,2,24.9999988079071,0|0|0,1:0|1:0|1:0,0:0:0:0:
148,161,125542,1,0,1:0:0:0:
158,234,125692,1,0,1:0:0:0:
90,205,125842,2,0,L|40:209,2,49.9999976158143,8|0|4,1:3|1:0|1:3,0:0:0:0:
299,110,126442,6,0,P|371:118|418:174,1,149.999992847443,4|0,0:1|0:0,0:0:0:0:
375,248,127042,1,2,1:3:0:0:
418,174,127192,2,0,P|476:180|509:207,1,99.9999952316285,0|0,0:0|0:0,0:0:0:0:
492,295,127642,2,0,B|374:331|419:254|284:295,1,199.999990463257,4|2,0:3|1:3,0:0:0:0:
297,291,128542,1,0,0:0:0:0:
323,85,128842,6,0,P|258:81|191:140,1,149.999992847443,4|0,0:3|0:0,0:0:0:0:
227,218,129442,1,2,1:3:0:0:
195,133,129592,2,0,P|150:124|99:146,1,99.9999952316285,0|0,0:0|0:0,0:0:0:0:
69,225,130042,2,0,L|47:62,1,149.999992847443,4|0,0:3|0:0,0:0:0:0:
112,13,130642,1,2,1:3:0:0:
112,13,130942,1,0,0:0:0:0:
227,218,131242,6,0,P|307:219|375:166,1,149.999992847443,4|0,0:3|0:0,0:0:0:0:
400,102,131842,1,2,1:3:0:0:
363,181,131992,2,0,L|351:295,1,99.9999952316285,0|0,0:0|0:0,0:0:0:0:
433,361,132442,2,0,P|370:321|240:332,1,199.999990463257,4|2,0:3|1:3,0:0:0:0:
74,172,133342,2,0,P|107:188|121:205,1,49.9999976158143,0|0,0:0|0:0,0:0:0:0:
182,259,133642,6,0,B|145:195|145:195|167:114,1,149.999992847443,4|0,0:3|0:0,0:0:0:0:
258,111,134242,2,0,B|295:175|295:175|273:256,1,149.999992847443,2|0,1:3|0:0,0:0:0:0:
239,331,134842,1,4,0:3:0:0:
315,373,134992,2,0,L|422:367,1,99.9999952316285,2|0,1:3|0:0,0:0:0:0:
487,319,135442,1,2,1:3:0:0:
424,260,135592,2,0,P|424:202|454:156,1,99.9999952316285,4|0,0:3|0:0,0:0:0:0:
503,92,136042,22,0,P|429:129|353:115,1,149.999992847443,4|0,0:1|0:0,0:0:0:0:
318,45,136642,1,2,1:3:0:0:
364,120,136792,2,0,P|325:157|262:164,1,99.9999952316285,0|0,0:0|0:0,0:0:0:0:
197,129,137242,2,0,P|135:147|102:267,1,199.999990463257,4|2,0:3|1:3,0:0:0:0:
101,266,138142,1,0,0:0:0:0:
306,232,138442,6,0,B|330:146|278:170|301:79,1,149.999992847443,4|0,0:3|0:0,0:0:0:0:
384,118,139042,1,2,1:3:0:0:
299,85,139192,2,0,P|335:39|387:27,1,99.9999952316285,0|0,0:0|0:0,0:0:0:0:
476,76,139642,2,0,L|462:237,1,149.999992847443,4|0,0:3|0:0,0:0:0:0:
458,322,140242,1,2,1:3:0:0:
458,322,140542,1,0,0:0:0:0:
273,191,140842,6,0,P|215:207|161:288,1,149.999992847443,4|0,0:3|0:0,0:0:0:0:
193,359,141442,1,2,1:3:0:0:
163,276,141592,2,0,P|102:271|60:293,1,99.9999952316285,0|0,0:0|0:0,0:0:0:0:
0,345,142042,2,0,P|24:316|39:146,1,199.999990463257,4|2,0:3|1:3,0:0:0:0:
188,8,142942,2,0,P|178:49|183:79,1,49.9999976158143,0|0,0:0|0:0,0:0:0:0:
233,135,143242,6,0,B|296:94|296:94|384:103,1,149.999992847443,4|0,0:3|0:0,0:0:0:0:
391,194,143842,2,0,B|328:235|328:235|240:226,1,149.999992847443,2|0,1:3|0:0,0:0:0:0:
168,201,144442,1,4,0:3:0:0:
189,285,144592,2,0,L|204:394,1,99.9999952316285,2|0,1:3|0:0,0:0:0:0:
104,316,145042,6,0,L|100:291,2,24.9999988079071,0|0|0,0:0|0:0|0:0,0:0:0:0:
64,379,145342,1,0,0:0:0:0:
0,343,145492,1,0,0:0:0:0:
22,255,145642,6,0,B|40:166|-16:197|14:93,1,149.999992847443,4|0,0:1|0:0,0:0:0:0:
92,141,146242,1,2,1:3:0:0:
9,109,146392,2,0,L|0:1,1,99.9999952316285,0|0,0:0|0:0,0:0:0:0:
94,47,146842,2,0,P|183:55|286:8,1,199.999990463257,4|2,0:3|1:3,0:0:0:0:
445,129,147742,2,0,P|421:119|397:116,1,49.9999976158143,0|0,0:0|0:0,0:0:0:0:
304,140,148042,6,0,P|265:207|278:294,1,149.999992847443,4|0,0:3|0:0,0:0:0:0:
352,308,148642,1,2,1:3:0:0:
270,277,148792,2,0,P|221:311|203:355,1,99.9999952316285,0|0,0:0|0:0,0:0:0:0:
118,368,149242,2,0,P|102:296|38:234,1,149.999992847443,4|0,0:3|0:0,0:0:0:0:
26,152,149842,2,0,L|91:160,1,49.9999976158143,2|0,1:3|0:0,0:0:0:0:
151,110,150142,2,0,L|200:103,1,49.9999976158143,0|0,0:0|0:0,0:0:0:0:
296,117,150442,6,0,P|307:196|260:267,1,149.999992847443,4|0,0:3|0:0,0:0:0:0:
185,240,151042,1,2,1:3:0:0:
274,255,151192,2,0,P|303:307|292:361,1,99.9999952316285,0|0,0:0|0:0,0:0:0:0:
214,321,151642,2,0,L|428:294,1,199.999990463257,4|2,0:3|1:3,0:0:0:0:
306,66,152542,2,0,P|288:113|290:129,1,49.9999976158143,0|0,0:0|0:0,0:0:0:0:
333,193,152842,6,0,B|277:143|277:143|179:153,1,149.999992847443,4|0,0:3|0:0,0:0:0:0:
177,240,153442,2,0,B|233:290|233:290|331:280,1,149.999992847443,2|0,1:3|0:0,0:0:0:0:
394,256,154042,1,4,0:3:0:0:
471,326,154192,2,0,L|484:210,1,99.9999952316285,0|0,1:0|0:0,0:0:0:0:
450,142,154642,1,2,1:3:0:0:
365,170,154792,2,0,P|321:152|263:158,1,99.9999952316285,4|0,0:3|0:0,0:0:0:0:
184,205,155242,22,0,P|134:205|41:135,1,149.999992847443,4|0,0:1|0:0,0:0:0:0:
140,112,155842,1,2,1:3:0:0:
51,152,155992,2,0,L|38:43,1,99.9999952316285,0|0,0:0|0:0,0:0:0:0:
117,0,156442,2,0,B|235:-25|187:47|329:17,1,199.999990463257,4|2,0:3|1:3,0:0:0:0:
310,20,157342,1,0,0:0:0:0:
196,229,157642,6,0,P|270:269|340:255,1,149.999992847443,4|0,0:3|0:0,0:0:0:0:
366,176,158242,1,2,1:3:0:0:
333,259,158392,2,0,P|386:294|430:295,1,99.9999952316285,0|0,0:0|0:0,0:0:0:0:
500,246,158842,2,0,P|490:141|448:105,1,149.999992847443,4|0,0:3|0:0,0:0:0:0:
377,87,159442,1,2,1:3:0:0:
377,87,159742,1,0,0:0:0:0:
250,231,160042,6,0,P|162:238|104:199,1,149.999992847443,4|0,0:3|0:0,0:0:0:0:
89,120,160642,1,2,1:3:0:0:
111,207,160792,2,0,P|57:205|9:167,1,99.9999952316285,0|0,0:0|0:0,0:0:0:0:
27,52,161242,2,0,P|81:29|133:40,2,99.9999952316285,4|0|0,0:3|0:0|1:0,0:0:0:0:
194,172,162142,1,0,0:0:0:0:
194,172,162442,6,0,P|148:221|152:334,1,169.999995136261,4|0,0:3|1:0,0:0:0:0:
352,368,163642,2,0,P|380:327|385:229,1,139.999989051819,4|2,0:3|0:3,0:0:0:0:
257,272,164842,1,4,0:3:0:0:
345,307,184042,22,0,P|412:277|450:213,1,149.999998569489,0|0,0:0|0:0,0:0:0:0:
399,111,184942,2,0,P|326:96|259:126,1,149.999998569489,0|0,0:0|0:0,0:0:0:0:
343,207,185842,1,0,0:0:0:0:
343,207,186442,6,0,L|351:363,1,149.999992847443,0|0,0:0|0:0,0:0:0:0:
227,362,187342,2,0,L|219:212,1,149.999992847443,0|0,0:0|0:0,0:0:0:0:
276,102,188242,1,0,0:0:0:0:
276,102,188842,6,0,P|187:47|131:55,1,149.999998569489,0|0,0:0|0:0,0:0:0:0:
105,158,189742,2,0,P|194:213|250:205,1,149.999998569489,0|0,0:0|0:0,0:0:0:0:
347,189,190642,2,0,P|396:198|424:222,1,74.9999992847443,0|0,0:0|0:0,0:0:0:0:
454,320,191242,6,0,L|299:329,1,149.999998569489,0|0,0:0|0:0,0:0:0:0:
216,261,192142,2,0,L|66:252,1,149.999998569489,0|0,0:0|0:0,0:0:0:0:
5,160,193042,2,0,P|14:106|35:82,1,74.9999992847443,0|0,0:0|0:0,0:0:0:0:
123,31,193642,21,0,0:0:0:0:
123,31,194242,1,0,0:0:0:0:
226,71,194542,1,0,0:0:0:0:
317,3,194842,1,0,0:0:0:0:
317,3,195442,1,0,0:0:0:0:
404,64,195742,1,0,0:0:0:0:
371,165,196042,5,0,0:0:0:0:
371,165,196642,2,0,L|353:328,2,149.999998569489,0|0|0,0:0|0:0|0:0,0:0:0:0:
213,216,198442,5,0,0:0:0:0:
280,284,199642,1,0,0:0:0:0:
256,374,200842,1,0,0:0:0:0:
117,117,202492,5,0,0:0:0:0:
117,117,202642,2,0,L|160:112,1,37.4999996423721,0|0,0:0|0:0,0:0:0:0:
232,130,202942,2,0,L|275:125,1,37.4999996423721,0|0,0:0|0:0,0:0:0:0:
349,137,203242,22,0,P|378:192|372:285,1,149.999998569489,4|2,0:3|0:3,0:0:0:0:
374,277,203992,2,0,P|388:314|384:364,1,74.9999992847443,0|0,0:0|0:0,0:0:0:0:
387,350,205642,6,0,P|304:308|250:317,1,149.999998569489,4|2,0:3|0:3,0:0:0:0:
250,316,206392,2,0,P|218:299|177:297,1,74.9999992847443,0|0,0:0|0:0,0:0:0:0:
180,296,207442,2,0,P|217:298|250:316,1,74.9999992847443,2|0,0:3|0:0,0:0:0:0:
124,372,208042,6,0,P|87:311|105:230,1,149.999998569489,4|2,0:3|0:3,0:0:0:0:
100,236,208792,2,0,P|81:193|87:152,1,74.9999992847443,0|0,0:0|0:0,0:0:0:0:
82,166,210142,1,0,0:0:0:0:
159,116,210442,6,0,L|228:107,2,56.2499994635582,4|0|0,0:3|0:0|0:0,0:0:0:0:
191,198,211042,2,0,L|260:189,2,56.2499994635582,2|0|0,0:3|0:0|0:0,0:0:0:0:
220,284,211642,2,0,L|289:275,2,56.2499994635582,0|0|0,0:0|0:0|0:0,0:0:0:0:
306,361,212242,2,0,L|250:368,2,56.2499994635582,2|0|0,0:3|0:0|0:0,0:0:0:0:
415,294,212842,22,0,P|417:241|356:167,1,149.999998569489,4|2,0:3|0:3,0:0:0:0:
358,168,213592,2,0,P|374:122|367:86,1,74.9999992847443,0|0,0:0|0:0,0:0:0:0:
370,96,215242,6,0,P|306:149|237:141,1,149.999998569489,4|2,0:3|0:3,0:0:0:0:
243,143,215992,2,0,P|199:171|144:169,1,74.9999992847443,0|0,0:0|0:0,0:0:0:0:
176,174,217042,2,0,P|213:165|243:143,1,74.9999992847443,2|0,0:3|0:0,0:0:0:0:
139,95,217642,6,0,P|103:124|103:228,1,149.999998569489,4|2,0:3|0:3,0:0:0:0:
98,221,218392,2,0,P|75:274|85:313,1,74.9999992847443,0|0,0:0|0:0,0:0:0:0:
76,289,220042,5,4,0:3:0:0:
76,289,221842,5,0,1:0:0:0:
71,217,221992,1,0,1:0:0:0:
108,153,222142,1,0,1:0:0:0:
176,127,222292,1,0,1:0:0:0:
233,206,222442,6,0,P|300:209|371:151,1,149.999992847443,4|0,0:1|0:0,0:0:0:0:
334,77,223042,1,2,1:3:0:0:
364,161,223192,2,0,P|437:143|457:114,1,99.9999952316285,0|0,0:0|0:0,0:0:0:0:
475,38,223642,2,0,P|426:-1|312:-4,1,149.999992847443,4|0,0:3|0:0,0:0:0:0:
261,23,224242,1,2,1:3:0:0:
364,161,224542,2,0,P|335:168|300:197,1,49.9999976158143,0|0,0:0|0:0,0:0:0:0:
246,236,224842,6,0,P|168:238|104:178,1,149.999992847443,4|0,0:3|0:0,0:0:0:0:
90,109,225442,1,2,1:3:0:0:
113,195,225592,2,0,P|59:193|16:156,1,99.9999952316285,0|0,0:0|0:0,0:0:0:0:
9,67,226042,2,0,P|56:26|156:43,1,149.999992847443,4|0,0:3|0:0,0:0:0:0:
203,95,226642,2,0,P|254:108|272:106,1,49.9999976158143,2|0,1:3|0:0,0:0:0:0:
334,74,226942,2,0,P|358:77|381:87,1,49.9999976158143,0|0,0:0|0:0,0:0:0:0:
436,168,227242,6,0,P|388:242|304:252,1,149.999992847443,4|0,0:3|0:0,0:0:0:0:
248,227,227842,1,2,1:3:0:0:
332,257,227992,2,0,P|363:316|354:370,1,99.9999952316285,0|0,0:0|0:0,0:0:0:0:
281,380,228442,2,0,B|160:395|216:333|78:361,1,199.999990463257,4|2,0:3|1:3,0:0:0:0:
133,118,229342,2,0,P|153:176|150:204,1,49.9999976158143,0|0,0:0|0:0,0:0:0:0:
132,256,229642,6,0,B|59:268|59:268|-23:204,1,149.999992847443,4|0,0:3|0:0,0:0:0:0:
18,129,230242,2,0,B|91:117|91:117|173:181,1,149.999992847443,2|0,1:3|0:0,0:0:0:0:
218,227,230842,1,4,0:3:0:0:
299,192,230992,2,0,L|309:70,1,99.9999952316285,2|0,1:3|0:0,0:0:0:0:
316,3,231442,1,2,1:3:0:0:
390,56,231592,2,0,P|449:55|498:93,1,99.9999952316285,4|0,0:3|0:0,0:0:0:0:
505,170,232042,22,0,P|459:222|359:228,1,149.999992847443,4|0,0:1|0:0,0:0:0:0:
299,192,232642,1,2,1:3:0:0:
382,235,232792,2,0,L|391:358,1,99.9999952316285,0|0,0:0|0:0,0:0:0:0:
313,384,233242,2,0,P|223:368|158:277,1,199.999990463257,4|2,0:3|1:3,0:0:0:0:
358,107,234142,2,0,P|339:165|324:181,1,49.9999976158143,0|0,0:0|0:0,0:0:0:0:
265,199,234442,6,0,B|186:214|212:159|102:195,1,149.999992847443,4|0,0:3|0:0,0:0:0:0:
156,274,235042,1,2,1:3:0:0:
118,190,235192,2,0,P|74:227|62:287,1,99.9999952316285,0|0,0:0|0:0,0:0:0:0:
106,349,235642,2,0,P|166:364|246:289,1,149.999992847443,4|0,0:3|0:0,0:0:0:0:
276,233,236242,2,0,L|270:168,1,49.9999976158143,2|0,1:3|0:0,0:0:0:0:
224,105,236542,2,0,L|230:40,1,49.9999976158143,0|0,0:0|0:0,0:0:0:0:
307,5,236842,6,0,P|390:21|433:110,1,149.999992847443,4|0,0:3|0:0,0:0:0:0:
377,143,237442,1,2,1:3:0:0:
427,70,237592,2,0,P|493:76|528:114,1,99.9999952316285,0|0,0:0|0:0,0:0:0:0:
500,197,238042,2,0,B|378:224|439:148|275:199,1,199.999990463257,4|2,0:3|1:3,0:0:0:0:
120,335,238942,2,0,P|170:329|188:319,1,49.9999976158143,0|0,0:0|0:0,0:0:0:0:
227,255,239242,6,0,B|266:189|266:189|239:97,1,149.999992847443,4|0,0:3|0:0,0:0:0:0:
150,107,239842,2,0,B|110:172|110:172|137:264,1,149.999992847443,2|0,1:3|0:0,0:0:0:0:
169,330,240442,1,4,0:3:0:0:
227,255,240592,2,0,L|355:245,1,99.9999952316285,2|0,1:3|0:0,0:0:0:0:
452,265,241042,6,0,L|495:273,2,24.9999988079071,0|0|0,0:0|0:0|0:0,0:0:0:0:
395,217,241342,1,0,0:0:0:0:
409,144,241492,1,0,0:0:0:0:
334,61,241642,6,0,P|278:64|205:134,1,149.999992847443,4|0,0:1|0:0,0:0:0:0:
197,210,242242,1,2,1:3:0:0:
209,123,242392,2,0,P|142:101|104:109,1,99.9999952316285,0|0,0:0|0:0,0:0:0:0:
43,165,242842,2,0,P|43:271|83:313,1,149.999992847443,4|0,0:3|0:0,0:0:0:0:
153,334,243442,1,2,1:3:0:0:
281,178,243742,2,0,L|345:171,1,49.9999976158143,0|0,0:0|0:0,0:0:0:0:
297,275,244042,6,0,P|241:271|185:191,1,149.999992847443,4|0,0:3|0:0,0:0:0:0:
212,114,244642,1,2,1:3:0:0:
186,201,244792,2,0,P|148:178|121:113,1,99.9999952316285,0|0,0:0|0:0,0:0:0:0:
158,26,245242,2,0,B|309:40,1,149.999992847443,4|0,0:3|0:0,0:0:0:0:
391,74,245842,2,0,P|408:108|411:142,1,49.9999976158143,2|0,1:3|0:0,0:0:0:0:
348,187,246142,2,0,P|331:221|328:255,1,49.9999976158143,0|0,0:0|0:0,0:0:0:0:
373,322,246442,6,0,P|324:280|224:283,1,149.999992847443,4|0,0:3|0:0,0:0:0:0:
171,331,247042,1,2,1:3:0:0:
241,275,247192,2,0,L|226:173,1,99.9999952316285,0|0,0:0|0:0,0:0:0:0:
168,105,247642,2,0,P|180:55|269:8,1,149.999992847443,4|0,0:3|0:0,0:0:0:0:
349,27,248242,1,2,1:3:0:0:
226,176,248542,2,0,P|257:181|286:196,1,49.9999976158143,0|0,0:0|0:0,0:0:0:0:
341,247,248842,6,0,B|301:186|301:186|315:87,1,149.999992847443,4|0,0:3|0:0,0:0:0:0:
407,90,249442,2,0,B|447:151|447:151|433:250,1,149.999992847443,2|0,1:3|0:0,0:0:0:0:
404,314,250042,1,4,0:3:0:0:
341,247,250192,2,0,L|233:239,1,99.9999952316285,2|0,1:3|0:0,0:0:0:0:
154,232,250642,1,2,1:3:0:0:
192,311,250792,2,0,P|143:317|96:348,1,99.9999952316285,4|0,0:3|0:0,0:0:0:0:
14,384,251242,22,0,L|0:234,1,149.999992847443,4|0,0:1|0:0,0:0:0:0:
88,207,251842,1,2,1:3:0:0:
0,234,251992,2,0,P|10:157|38:130,1,99.9999952316285,0|0,0:0|0:0,0:0:0:0:
111,118,252442,2,0,L|271:107,1,149.999992847443,4|0,0:3|0:0,0:0:0:0:
345,63,253042,1,2,1:3:0:0:
190,200,253342,2,0,P|178:225|179:268,1,49.9999976158143,0|0,0:0|0:0,0:0:0:0:
251,300,253642,6,0,P|304:259|391:264,1,149.999992847443,4|0,0:3|0:0,0:0:0:0:
412,342,254242,1,2,1:3:0:0:
384,260,254392,2,0,L|375:161,1,99.9999952316285,0|0,0:0|0:0,0:0:0:0:
458,124,254842,2,0,P|387:127|315:65,1,149.999992847443,4|0,0:3|0:0,0:0:0:0:
258,17,255442,2,0,P|223:32|197:56,1,49.9999976158143,2|0,1:3|0:0,0:0:0:0:
173,122,255742,2,0,P|131:135|109:135,1,49.9999976158143,0|0,0:0|0:0,0:0:0:0:
37,160,256042,6,0,P|103:169|161:247,1,149.999992847443,4|0,0:3|0:0,0:0:0:0:
125,311,256642,1,2,1:3:0:0:
156,228,256792,2,0,P|212:211|262:227,1,99.9999952316285,0|0,0:0|0:0,0:0:0:0:
324,276,257242,2,0,P|411:274|462:218,1,149.999992847443,4|0,0:3|0:0,0:0:0:0:
482,145,257842,1,2,1:3:0:0:
221,71,258142,2,0,P|209:112|211:135,1,49.9999976158143,0|0,0:0|0:0,0:0:0:0:
256,192,258442,5,4,0:3:0:0:
256,192,258517,12,0,260242,0:0:0:0:
30,198,260842,22,0,P|134:177|152:156,1,119.999990615845,4|0,0:1|0:0,0:0:0:0:
187,95,261292,1,0,0:0:0:0:
140,170,261442,2,0,P|174:183|214:181,1,59.9999953079226,2|0,1:3|0:0,0:0:0:0:
270,132,261742,2,0,P|342:134|386:169,2,119.999990615845,0|4|0,0:0|0:3|0:0,0:0:0:0:
197,183,262492,1,0,0:0:0:0:
234,263,262642,2,0,B|343:281|300:227|416:257,1,179.999985923768,2|0,1:3|0:0,0:0:0:0:
501,225,263242,6,0,P|464:159|474:94,1,119.999990615845,4|0,0:3|0:0,0:0:0:0:
512,41,263692,1,0,0:0:0:0:
465,116,263842,2,0,P|427:107|394:87,1,59.9999953079226,2|0,1:3|0:0,0:0:0:0:
352,29,264142,2,0,P|311:11|214:18,2,119.999990615845,0|4|0,0:0|0:3|0:0,0:0:0:0:
408,98,264892,1,0,0:0:0:0:
321,114,265042,2,0,P|277:155|260:230,1,119.999990615845,2|0,1:3|0:0,0:0:0:0:
297,297,265492,1,0,0:0:0:0:
297,297,265642,6,0,P|197:281|172:248,1,119.999990615845,4|0,0:3|0:0,0:0:0:0:
156,188,266092,1,0,0:0:0:0:
187,271,266242,2,0,P|163:333|153:343,1,59.9999953079226,2|0,1:3|0:0,0:0:0:0:
82,353,266542,2,0,P|31:327|3:246,2,119.999990615845,0|4|0,0:0|0:3|0:0,0:0:0:0:
167,326,267292,1,0,0:0:0:0:
245,367,267442,2,0,L|380:346,1,119.999990615845,2|0,1:3|0:0,0:0:0:0:
454,384,267892,1,0,0:0:0:0:
454,384,268042,6,0,P|483:322|468:247,1,119.999990615845,4|0,0:3|0:0,0:0:0:0:
407,214,268492,1,0,0:0:0:0:
478,272,268642,2,0,P|498:216|493:190,1,59.9999953079226,2|0,1:3|0:0,0:0:0:0:
441,131,268942,2,0,P|382:127|330:161,1,119.999990615845,0|4,0:0|0:3,0:0:0:0:
262,217,269392,2,0,P|212:199|175:136,1,119.999990615845,2|0,1:3|0:0,0:0:0:0:
187,46,269842,6,0,L|175:158,1,99.9999952316285,2|0,1:3|1:0,0:0:0:0:
277,2,270442,2,0,P|213:60|174:151,1,179.999985923768,4|0,1:0|0:0,0:0:0:0:
257,204,271042,6,0,L|165:137,1,99.9999952316285,2|0,1:3|0:0,0:0:0:0:
249,303,271642,2,0,P|230:218|170:139,1,179.999985923768,4|0,1:0|0:0,0:0:0:0:
86,185,272242,54,0,L|187:138,1,99.9999952316285,2|0,1:3|0:0,0:0:0:0:
2,129,272842,2,0,P|83:154|182:142,1,179.999985923768,4|0,1:0|0:0,0:0:0:0:
267,98,273442,6,0,P|311:112|351:163,1,94.9999929332736,2|0,1:3|0:0,0:0:0:0:
173,235,274042,2,0,P|162:188|176:143,1,94.9999929332736,4|0,0:3|0:0,0:0:0:0:
336,245,274642,2,0,P|300:275|254:286,1,94.9999929332736,2|0,1:3|0:0,0:0:0:0:
267,98,275242,54,0,P|233:284|228:102,1,545.999992293549,4|0,0:3|0:0,0:0:0:0:
256,192,277417,12,0,282442,0:0:0:0:
