osu file format v14

[General]
AudioFilename: audio2.mp3
AudioLeadIn: 0
PreviewTime: 38403
Countdown: 0
SampleSet: Normal
StackLeniency: 0.7
Mode: 0
LetterboxInBreaks: 1
WidescreenStoryboard: 1

[Editor]
DistanceSpacing: 1.4
BeatDivisor: 2
GridSize: 8
TimelineZoom: 1

[Metadata]
Title:Shelter (happy30 Remix)
TitleUnicode:Shelter (happy30 Remix)
Artist:Porter Robinson & Madeon
ArtistUnicode:Porter Robinson & Madeon
Creator:happy30
Version:Easy
Source:Shelter
Tags:happythirsty
BeatmapID:1121777
BeatmapSetID:527621

[Difficulty]
HPDrainRate:2
CircleSize:3
OverallDifficulty:2
ApproachRate:3
SliderMultiplier:0.599999999999999
SliderTickRate:1

[Events]
//Background and Video events
0,0,"thumb-1920-753125.jpg",0,0
//Break Periods
//Storyboard Layer 0 (Background)
//Storyboard Layer 1 (Fail)
//Storyboard Layer 2 (Pass)
//Storyboard Layer 3 (Foreground)
//Storyboard Sound Samples

[TimingPoints]
3,600,4,2,1,70,1,0
38403,300,4,1,1,80,1,1
38403,-133.333333333333,4,1,1,80,0,1
57528,-100,4,1,1,80,0,0
57603,-133.333333333333,4,1,1,80,0,1
96003,-133.333333333333,4,1,1,80,0,0
105603,600,4,2,1,80,1,0

[Colours]
Combo1 : 255,255,128
Combo2 : 128,255,128
Combo3 : 255,128,128
Combo4 : 0,128,255

[HitObjects]
40,176,19203,6,0,P|97:188|143:184,1,105,4|0,1:2|1:2,0:0:0:0:
232,132,21003,1,2,1:2:0:0:
304,174,21603,2,0,P|336:214|360:270,1,105,0|0,1:2|1:2,0:0:0:0:
398,359,23403,1,2,1:2:0:0:
462,305,24003,6,0,L|470:193,1,105,0|0,1:2|1:2,0:0:0:0:
406,116,25803,1,2,1:2:0:0:
353,181,26403,2,0,P|305:213|225:133,1,180,0|0,1:2|1:2,0:0:0:0:
183,70,28803,6,0,P|136:57|79:62,1,105,4|0,1:2|1:2,0:0:0:0:
32,160,30603,1,2,1:2:0:0:
112,192,31203,2,0,P|144:232|168:288,1,105,0|0,1:2|1:2,0:0:0:0:
264,320,33003,1,2,1:2:0:0:
312,256,33603,6,0,L|320:144,1,105,0|0,1:2|1:2,0:0:0:0:
232,88,35403,1,2,1:2:0:0:
168,137,36003,2,0,B|144:184|168:208|136:264,1,120,0|0,1:2|1:2,0:0:0:0:
64,296,37803,1,0,1:0:0:0:
16,224,38403,6,0,P|0:160|47:83,1,157.500006008148,4|0,1:0|0:0,0:0:0:0:
120,56,39903,1,8,0:0:0:0:
148,160,40503,1,8,0:0:0:0:
168,209,40803,2,0,P|229:228|325:204,1,157.500006008148,4|0,1:0|0:0,0:0:0:0:
397,188,42303,2,0,P|405:241|405:324,1,135.000005149841,8|4,0:0|0:0,0:0:0:0:
335,364,43653,5,2,0:0:0:0:
262,328,44103,1,2,0:0:0:0:
300,170,45003,1,2,1:0:0:0:
259,69,45603,2,0,P|137:42|88:157,1,270.000010299683,4|4,1:0|1:0,0:0:0:0:
174,223,48003,6,0,P|248:249|313:292,1,157.500006008148,4|0,1:0|0:0,0:0:0:0:
375,345,49503,1,8,0:0:0:0:
450,268,50103,1,8,0:0:0:0:
406,236,50403,2,0,P|387:175|411:79,1,157.500006008148,4|0,1:0|0:0,0:0:0:0:
343,34,51903,2,0,P|290:26|207:26,1,135.000005149841,0|4,0:0|0:0,0:0:0:0:
151,83,53253,5,2,0:0:0:0:
170,161,53703,1,2,0:0:0:0:
331,144,54603,1,6,1:0:0:0:
368,245,55203,2,0,P|350:304|171:314,1,270.000010299683,4|4,1:0|0:0,0:0:0:0:
258,250,57603,5,4,0:0:0:0:
306,153,58203,1,0,0:0:0:0:
225,166,58653,2,0,L|105:182,1,112.500004291534
9,150,60003,2,0,P|1:86|9:14,2,135.000005149841,4|0|0,0:0|0:0|0:0,0:0:0:0:
61,244,62403,5,4,0:0:0:0:
164,213,63003,2,0,P|220:205|300:213,1,135.000005149841,0|8,0:0|0:0,0:0:0:0:
331,254,64203,1,0,0:0:0:0:
425,202,64803,2,0,L|436:84,2,112.500004291534,4|10|10,0:0|0:0|0:0,0:0:0:0:
451,249,66603,1,0,0:0:0:0:
408,348,67203,5,4,0:0:0:0:
339,264,67803,1,0,0:0:0:0:
259,249,68253,2,0,L|139:233,1,112.500004291534
39,223,69603,2,0,P|31:287|39:359,2,135.000005149841,4|0|0,0:0|0:0|0:0,0:0:0:0:
103,136,72003,5,4,0:0:0:0:
200,192,72603,2,0,P|256:184|336:192,1,135.000005149841,0|8,0:0|0:0,0:0:0:0:
355,141,73803,1,0,0:0:0:0:
460,117,74403,2,0,L|449:235,2,112.500004291534,4|10|10,0:0|0:0|0:0,0:0:0:0:
416,85,76203,1,0,0:0:0:0:
362,78,76503,1,10,0:0:0:0:
311,98,76803,6,0,P|287:138|271:234,1,135.000005149841,4|0,0:0|0:0,0:0:0:0:
211,314,78303,1,10,0:0:0:0:
123,255,78903,1,0,1:0:0:0:
88,216,79203,2,0,L|80:144,2,67.5000025749206,4|0|2,0:0|0:0|0:0,0:0:0:0:
232,56,81303,5,8,0:0:0:0:
280,80,81603,2,0,P|304:120|320:216,1,135.000005149841,4|2,0:0|0:0,0:0:0:0:
357,307,83103,1,10,0:0:0:0:
405,282,83403,2,0,L|415:231,1,45.0000017166138,8|8,0:0|0:0,0:0:0:0:
456,205,84003,2,0,L|472:129,2,67.5000025749206,4|10|10,0:0|0:0|0:0,0:0:0:0:
350,179,85503,5,10,0:0:0:0:
297,165,85803,1,10,0:0:0:0:
244,176,86103,2,0,L|233:232,1,45.0000017166138
151,288,87003,2,0,P|79:280|15:288,1,135.000005149841,2|10,0:0|0:0,0:0:0:0:
69,192,88503,2,0,P|77:120|77:56,1,135.000005149841,10|0,0:0|0:0,0:0:0:0:
152,27,89853,1,0,0:0:0:0:
193,127,90453,1,0,0:0:0:0:
167,203,90903,5,8,0:0:0:0:
187,252,91203,2,0,P|222:297|302:297,1,135.000005149841,4|2,0:0|0:0,0:0:0:0:
384,239,92703,1,10,0:0:0:0:
376,131,93303,1,10,0:0:0:0:
256,192,93603,12,4,96003,1:0:0:0:
256,288,97503,5,8,0:0:0:0:
352,240,98103,1,8,0:0:0:0:
397,269,98403,2,0,P|417:193|392:112,1,157.500006008148,4|0,1:0|0:0,0:0:0:0:
319,93,99903,6,0,L|175:109,1,135.000005149841,10|4,0:0|0:0,0:0:0:0:
105,124,101253,1,2,0:0:0:0:
26,143,101703,1,2,0:0:0:0:
119,275,102603,1,2,1:0:0:0:
216,320,103203,5,4,1:0:0:0:
280,232,103803,1,4,1:0:0:0:
264,128,104403,1,4,1:0:0:0:
184,56,105003,1,4,0:0:0:0:
80,56,105603,6,0,P|64:96|48:166,1,105,0|0,1:0|0:0,0:0:0:0:
232,192,108003,2,0,P|248:232|264:302,1,105,0|0,1:0|0:0,0:0:0:0:
360,336,109803,1,0,1:0:0:0:
368,256,110403,6,0,P|408:232|472:224,1,105,0|0,1:0|0:0,0:0:0:0:
487,120,112203,1,0,1:0:0:0:
407,147,112803,1,0,1:0:0:0:
329,115,113403,1,0,1:0:0:0:
249,143,114003,1,0,1:0:0:0:
225,223,114603,1,0,1:0:0:0:
248,303,115203,5,0,2:0:0:0:
