osu file format v14

[General]
AudioFilename: audio.mp3
AudioLeadIn: 0
PreviewTime: 38703
Countdown: 0
SampleSet: Normal
StackLeniency: 0.7
Mode: 1
LetterboxInBreaks: 0
WidescreenStoryboard: 0

[Editor]
DistanceSpacing: 1
BeatDivisor: 4
GridSize: 32
TimelineZoom: 3

[Metadata]
Title:Shelter (happy30 Remix)
TitleUnicode:Shelter (happy30 Remix)
Artist:Porter Robinson & Madeon
ArtistUnicode:Porter Robinson & Madeon
Creator:Hivie
Version:Together
Source:Shelter
Tags:happythirsty instrumental a-1 pictures edm electronic dance music anime
BeatmapID:3591713
BeatmapSetID:1755118

[Difficulty]
HPDrainRate:5.5
CircleSize:2
OverallDifficulty:5.5
ApproachRate:9
SliderMultiplier:1.4
SliderTickRate:1

[Events]
//Background and Video events
0,0,"thumb-1920-753125.jpg",0,60
//Break Periods
//Storyboard Layer 0 (Background)
//Storyboard Layer 1 (Fail)
//Storyboard Layer 2 (Pass)
//Storyboard Layer 3 (Foreground)
//Storyboard Layer 4 (Overlay)
//Storyboard Sound Samples

[TimingPoints]
303,600,4,1,0,70,1,0
19353,-66.6666666666667,4,1,0,70,0,0
38703,300,4,1,0,80,1,1
38703,-100,4,1,0,80,0,1
45828,-83.3333333333333,4,1,0,80,0,1
48453,-100,4,1,0,80,0,1
55353,-83.3333333333333,4,1,0,80,0,1
58053,-100,4,1,0,80,0,1
103353,-83.3333333333333,4,1,0,80,0,1
105903,600,4,1,0,80,1,0
105903,-41.6666666666667,4,1,0,80,0,0
106053,-66.6666666666667,4,1,0,70,0,0
115803,-100,4,1,0,70,0,0

[HitObjects]
256,192,303,5,0,0:0:0:0:
256,192,903,1,8,0:0:0:0:
256,192,1053,1,8,0:0:0:0:
256,192,1353,1,0,0:0:0:0:
256,192,2703,5,0,0:0:0:0:
256,192,3303,1,8,0:0:0:0:
256,192,3453,1,8,0:0:0:0:
256,192,3753,1,0,0:0:0:0:
256,192,4503,1,8,0:0:0:0:
256,192,4803,1,0,0:0:0:0:
256,192,5103,5,0,0:0:0:0:
256,192,5703,1,8,0:0:0:0:
256,192,5853,1,8,0:0:0:0:
256,192,6153,1,0,0:0:0:0:
256,192,6903,1,8,0:0:0:0:
256,192,7503,1,8,0:0:0:0:
256,192,7703,1,0,0:0:0:0:
256,192,7903,1,0,0:0:0:0:
256,192,8103,1,8,0:0:0:0:
256,192,8303,1,0,0:0:0:0:
256,192,8503,1,0,0:0:0:0:
256,192,8703,1,8,0:0:0:0:
256,192,8903,1,0,0:0:0:0:
256,192,9103,1,0,0:0:0:0:
256,192,9303,1,8,0:0:0:0:
256,192,9603,1,0,0:0:0:0:
256,192,9903,5,0,0:0:0:0:
256,192,10503,1,8,0:0:0:0:
256,192,10653,1,8,0:0:0:0:
256,192,10953,1,0,0:0:0:0:
256,192,12303,5,0,0:0:0:0:
256,192,12903,1,8,0:0:0:0:
256,192,13053,1,8,0:0:0:0:
256,192,13353,1,0,0:0:0:0:
256,192,14103,1,8,0:0:0:0:
256,192,14403,1,0,0:0:0:0:
256,192,14703,5,0,0:0:0:0:
256,192,15303,1,8,0:0:0:0:
256,192,15453,1,8,0:0:0:0:
256,192,15753,1,0,0:0:0:0:
256,192,16503,1,8,0:0:0:0:
256,192,17103,1,8,0:0:0:0:
256,192,17303,1,0,0:0:0:0:
256,192,17503,1,0,0:0:0:0:
256,192,17703,1,8,0:0:0:0:
256,192,17903,1,0,0:0:0:0:
256,192,18103,1,0,0:0:0:0:
256,192,18303,1,8,0:0:0:0:
256,192,18503,1,0,0:0:0:0:
256,192,18703,1,0,0:0:0:0:
256,192,18903,1,8,0:0:0:0:
256,192,19203,1,0,0:0:0:0:
256,96,19503,5,4,0:0:0:0:
256,192,19953,1,0,0:0:0:0:
256,192,20103,1,8,0:0:0:0:
256,192,20253,1,8,0:0:0:0:
256,192,20553,1,0,0:0:0:0:
256,192,21003,1,0,0:0:0:0:
256,192,21303,1,8,0:0:0:0:
256,192,21903,5,0,0:0:0:0:
256,192,22353,1,0,0:0:0:0:
256,192,22503,1,8,0:0:0:0:
256,192,22653,1,8,0:0:0:0:
256,192,22953,1,0,0:0:0:0:
256,192,23403,1,0,0:0:0:0:
256,192,23703,1,8,0:0:0:0:
256,192,24003,1,0,0:0:0:0:
256,192,24303,5,0,0:0:0:0:
256,192,24753,1,0,0:0:0:0:
256,192,24903,1,8,0:0:0:0:
256,192,25053,1,8,0:0:0:0:
256,192,25353,1,0,0:0:0:0:
256,192,25803,1,0,0:0:0:0:
256,192,26103,1,8,0:0:0:0:
256,192,26703,1,8,0:0:0:0:
256,192,26903,1,0,0:0:0:0:
256,192,27103,1,0,0:0:0:0:
256,192,27303,1,8,0:0:0:0:
256,192,27503,1,0,0:0:0:0:
256,192,27703,1,0,0:0:0:0:
256,192,27903,1,8,0:0:0:0:
256,192,28103,1,0,0:0:0:0:
256,192,28303,1,0,0:0:0:0:
256,192,28503,1,8,0:0:0:0:
256,192,28803,1,0,0:0:0:0:
256,96,29103,5,12,0:0:0:0:
256,192,29553,1,0,0:0:0:0:
256,192,29703,1,8,0:0:0:0:
256,192,29853,1,8,0:0:0:0:
256,192,30153,1,0,0:0:0:0:
256,192,30603,1,0,0:0:0:0:
256,192,30903,1,8,0:0:0:0:
256,192,31503,5,0,0:0:0:0:
256,192,31953,1,0,0:0:0:0:
256,192,32103,1,8,0:0:0:0:
256,192,32253,1,8,0:0:0:0:
256,192,32553,1,0,0:0:0:0:
256,192,33003,1,0,0:0:0:0:
256,192,33303,1,8,0:0:0:0:
256,192,33603,1,0,0:0:0:0:
256,192,33903,5,0,0:0:0:0:
256,192,34353,1,0,0:0:0:0:
256,192,34503,1,8,0:0:0:0:
256,192,34653,1,8,0:0:0:0:
256,192,34953,1,0,0:0:0:0:
256,192,35403,1,0,0:0:0:0:
256,192,35703,1,8,0:0:0:0:
256,192,36303,1,8,0:0:0:0:
256,192,36503,1,0,0:0:0:0:
256,192,36703,1,0,0:0:0:0:
256,192,36903,1,8,0:0:0:0:
256,192,37103,1,0,0:0:0:0:
256,192,37303,1,0,0:0:0:0:
256,192,37503,1,8,0:0:0:0:
256,192,37703,1,0,0:0:0:0:
256,192,37903,1,0,0:0:0:0:
256,192,38103,1,8,0:0:0:0:
256,192,38253,1,8,0:0:0:0:
256,192,38328,1,8,0:0:0:0:
256,192,38403,1,8,0:0:0:0:
256,192,38553,1,8,0:0:0:0:
256,96,38703,1,4,0:0:0:0:
256,192,38928,1,0,0:0:0:0:
256,192,39003,1,8,0:0:0:0:
256,192,39153,1,0,0:0:0:0:
256,192,39303,1,8,0:0:0:0:
256,192,39378,1,0,0:0:0:0:
256,192,39453,1,8,0:0:0:0:
256,192,39528,1,8,0:0:0:0:
256,192,39603,1,0,0:0:0:0:
256,192,39753,1,8,0:0:0:0:
256,192,40053,1,0,0:0:0:0:
256,192,40203,1,8,0:0:0:0:
256,192,40278,1,8,0:0:0:0:
256,192,40353,1,8,0:0:0:0:
256,192,40503,1,0,0:0:0:0:
256,192,40653,1,0,0:0:0:0:
256,192,40803,1,8,0:0:0:0:
256,192,40878,1,8,0:0:0:0:
256,192,40953,1,0,0:0:0:0:
256,192,41028,1,0,0:0:0:0:
256,192,41103,1,8,0:0:0:0:
256,192,41253,1,0,0:0:0:0:
256,192,41403,1,8,0:0:0:0:
256,192,41553,1,0,0:0:0:0:
256,192,41703,1,8,0:0:0:0:
256,192,41778,1,8,0:0:0:0:
256,192,41853,1,0,0:0:0:0:
256,192,41928,1,8,0:0:0:0:
256,192,42003,1,0,0:0:0:0:
256,192,42153,1,8,0:0:0:0:
256,192,42453,1,0,0:0:0:0:
256,192,42603,1,8,0:0:0:0:
256,192,42678,1,8,0:0:0:0:
256,192,42753,1,0,0:0:0:0:
256,192,42903,1,8,0:0:0:0:
256,192,43053,1,0,0:0:0:0:
256,192,43128,1,0,0:0:0:0:
256,192,43203,1,8,0:0:0:0:
256,192,43353,1,8,0:0:0:0:
256,96,43503,1,4,0:0:0:0:
256,192,43803,1,0,0:0:0:0:
256,192,43953,1,8,0:0:0:0:
256,192,44028,1,0,0:0:0:0:
256,192,44103,1,8,0:0:0:0:
256,192,44178,1,8,0:0:0:0:
256,192,44253,1,0,0:0:0:0:
256,192,44328,1,0,0:0:0:0:
256,192,44403,1,8,0:0:0:0:
256,192,44478,1,0,0:0:0:0:
256,192,44553,1,8,0:0:0:0:
256,192,44853,1,0,0:0:0:0:
256,192,45003,1,8,0:0:0:0:
256,192,45153,1,0,0:0:0:0:
256,192,45228,1,0,0:0:0:0:
256,192,45303,1,8,0:0:0:0:
256,192,45378,1,8,0:0:0:0:
256,192,45453,1,0,0:0:0:0:
256,192,45603,1,8,0:0:0:0:
256,96,45903,1,12,0:0:0:0:
256,96,46103,1,4,0:0:0:0:
256,96,46303,1,4,0:0:0:0:
256,96,46503,1,12,0:0:0:0:
256,96,46703,1,4,0:0:0:0:
256,96,46903,1,4,0:0:0:0:
256,96,47103,1,12,0:0:0:0:
256,96,47303,1,4,0:0:0:0:
256,96,47503,1,4,0:0:0:0:
256,96,47703,1,12,0:0:0:0:
256,96,48003,1,4,0:0:0:0:
256,96,48303,1,4,0:0:0:0:
256,192,48528,1,0,0:0:0:0:
256,192,48603,1,8,0:0:0:0:
256,192,48753,1,0,0:0:0:0:
256,192,48903,1,8,0:0:0:0:
256,192,48978,1,0,0:0:0:0:
256,192,49053,1,8,0:0:0:0:
256,192,49128,1,8,0:0:0:0:
256,192,49203,1,0,0:0:0:0:
256,192,49353,1,8,0:0:0:0:
256,192,49653,1,0,0:0:0:0:
256,192,49803,1,8,0:0:0:0:
256,192,49878,1,8,0:0:0:0:
256,192,49953,1,0,0:0:0:0:
256,192,50103,1,8,0:0:0:0:
256,192,50253,1,0,0:0:0:0:
256,192,50403,1,8,0:0:0:0:
256,192,50478,1,8,0:0:0:0:
256,192,50553,1,0,0:0:0:0:
256,192,50628,1,0,0:0:0:0:
256,192,50703,1,8,0:0:0:0:
256,192,50853,1,0,0:0:0:0:
256,192,51003,1,8,0:0:0:0:
256,192,51153,1,0,0:0:0:0:
256,192,51303,1,8,0:0:0:0:
256,192,51378,1,8,0:0:0:0:
256,192,51453,1,0,0:0:0:0:
256,192,51528,1,8,0:0:0:0:
256,192,51603,1,0,0:0:0:0:
256,192,51753,1,8,0:0:0:0:
256,192,52053,1,0,0:0:0:0:
256,192,52203,1,8,0:0:0:0:
256,192,52278,1,8,0:0:0:0:
256,192,52353,1,0,0:0:0:0:
256,192,52503,1,8,0:0:0:0:
256,192,52653,1,0,0:0:0:0:
256,192,52728,1,0,0:0:0:0:
256,192,52803,1,8,0:0:0:0:
256,192,52878,1,0,0:0:0:0:
256,192,52953,1,0,0:0:0:0:
256,96,53103,1,12,0:0:0:0:
256,192,53403,1,0,0:0:0:0:
256,192,53553,1,8,0:0:0:0:
256,192,53628,1,0,0:0:0:0:
256,192,53703,1,8,0:0:0:0:
256,192,53778,1,8,0:0:0:0:
256,192,53853,1,0,0:0:0:0:
256,192,53928,1,0,0:0:0:0:
256,192,54003,1,8,0:0:0:0:
256,192,54078,1,0,0:0:0:0:
256,192,54153,1,8,0:0:0:0:
256,192,54453,1,0,0:0:0:0:
256,192,54603,1,8,0:0:0:0:
256,192,54753,1,0,0:0:0:0:
256,192,54903,1,8,0:0:0:0:
256,192,54978,1,8,0:0:0:0:
256,192,55053,1,0,0:0:0:0:
256,192,55128,1,0,0:0:0:0:
256,192,55203,1,8,0:0:0:0:
256,96,55503,1,12,0:0:0:0:
256,96,55703,1,4,0:0:0:0:
256,96,55903,1,4,0:0:0:0:
256,96,56103,1,12,0:0:0:0:
256,96,56303,1,4,0:0:0:0:
256,96,56503,1,4,0:0:0:0:
256,96,56703,1,12,0:0:0:0:
256,96,56903,1,4,0:0:0:0:
256,96,57103,1,4,0:0:0:0:
256,96,57303,1,12,0:0:0:0:
256,96,57603,1,4,0:0:0:0:
256,96,57903,1,12,0:0:0:0:
256,192,58203,1,0,0:0:0:0:
256,192,58353,1,8,0:0:0:0:
256,192,58503,1,0,0:0:0:0:
256,192,58653,1,8,0:0:0:0:
256,192,58728,1,8,0:0:0:0:
256,192,58803,1,0,0:0:0:0:
256,192,58953,1,8,0:0:0:0:
256,192,59253,1,0,0:0:0:0:
256,192,59403,1,8,0:0:0:0:
256,192,59478,1,8,0:0:0:0:
256,192,59553,1,0,0:0:0:0:
256,192,59703,1,8,0:0:0:0:
256,192,59853,1,0,0:0:0:0:
256,192,60003,1,8,0:0:0:0:
256,192,60078,1,0,0:0:0:0:
256,192,60153,1,0,0:0:0:0:
256,192,60303,1,8,0:0:0:0:
256,192,60603,1,0,0:0:0:0:
256,192,60753,1,8,0:0:0:0:
256,192,60828,1,0,0:0:0:0:
256,192,60903,1,8,0:0:0:0:
256,192,60978,1,8,0:0:0:0:
256,192,61053,1,0,0:0:0:0:
256,192,61203,1,8,0:0:0:0:
256,192,61353,1,0,0:0:0:0:
256,192,61503,1,8,0:0:0:0:
256,192,61578,1,8,0:0:0:0:
256,192,61653,1,0,0:0:0:0:
256,192,61803,1,8,0:0:0:0:
256,192,61953,1,0,0:0:0:0:
256,192,62028,1,0,0:0:0:0:
256,192,62103,1,8,0:0:0:0:
256,192,62178,1,8,0:0:0:0:
256,192,62253,1,0,0:0:0:0:
256,192,62403,1,8,0:0:0:0:
256,96,62703,1,4,0:0:0:0:
256,192,63003,1,8,0:0:0:0:
256,192,63153,1,0,0:0:0:0:
256,192,63303,1,8,0:0:0:0:
256,192,63378,1,0,0:0:0:0:
256,192,63453,1,8,0:0:0:0:
256,192,63528,1,8,0:0:0:0:
256,192,63603,1,0,0:0:0:0:
256,192,63678,1,0,0:0:0:0:
256,192,63753,1,8,0:0:0:0:
256,192,64053,1,0,0:0:0:0:
256,192,64203,1,8,0:0:0:0:
256,192,64278,5,8,0:0:0:0:
256,192,64353,1,0,0:0:0:0:
256,192,64503,1,8,0:0:0:0:
256,192,64653,1,8,0:0:0:0:
256,192,64803,1,0,0:0:0:0:
256,192,64878,1,0,0:0:0:0:
256,192,64953,1,8,0:0:0:0:
256,192,65028,1,0,0:0:0:0:
256,192,65103,1,8,0:0:0:0:
256,192,65403,1,8,0:0:0:0:
256,192,65553,1,0,0:0:0:0:
256,192,65703,1,0,0:0:0:0:
256,192,65853,1,8,0:0:0:0:
256,192,65928,1,0,0:0:0:0:
256,192,66003,1,0,0:0:0:0:
256,192,66153,1,8,0:0:0:0:
256,192,66453,1,0,0:0:0:0:
256,192,66603,1,8,0:0:0:0:
256,192,66753,1,0,0:0:0:0:
256,192,66903,1,8,0:0:0:0:
256,192,67053,1,8,0:0:0:0:
256,192,67128,1,8,0:0:0:0:
256,192,67203,1,8,0:0:0:0:
256,192,67353,1,8,0:0:0:0:
256,96,67503,1,4,0:0:0:0:
256,192,67803,1,0,0:0:0:0:
256,192,67953,1,8,0:0:0:0:
256,192,68103,1,0,0:0:0:0:
256,192,68178,1,0,0:0:0:0:
256,192,68253,1,8,0:0:0:0:
256,192,68328,1,8,0:0:0:0:
256,192,68403,1,0,0:0:0:0:
256,192,68553,1,8,0:0:0:0:
256,192,68853,1,0,0:0:0:0:
256,192,69003,1,8,0:0:0:0:
256,192,69078,1,8,0:0:0:0:
256,192,69153,1,0,0:0:0:0:
256,192,69228,1,0,0:0:0:0:
256,192,69303,1,8,0:0:0:0:
256,192,69453,1,0,0:0:0:0:
256,192,69603,1,8,0:0:0:0:
256,192,69678,1,0,0:0:0:0:
256,192,69753,1,0,0:0:0:0:
256,192,69903,1,8,0:0:0:0:
256,192,70203,1,0,0:0:0:0:
256,192,70353,1,8,0:0:0:0:
256,192,70428,1,0,0:0:0:0:
256,192,70503,1,8,0:0:0:0:
256,192,70578,1,8,0:0:0:0:
256,192,70653,1,0,0:0:0:0:
256,192,70803,1,8,0:0:0:0:
256,192,70953,1,0,0:0:0:0:
256,192,71028,1,0,0:0:0:0:
256,192,71103,1,8,0:0:0:0:
256,192,71178,1,8,0:0:0:0:
256,192,71253,1,0,0:0:0:0:
256,192,71403,1,8,0:0:0:0:
256,192,71553,1,0,0:0:0:0:
256,192,71628,1,0,0:0:0:0:
256,192,71703,1,8,0:0:0:0:
256,192,71853,1,0,0:0:0:0:
256,192,72003,1,8,0:0:0:0:
256,96,72303,1,4,0:0:0:0:
256,192,72603,1,8,0:0:0:0:
256,192,72753,1,0,0:0:0:0:
256,192,72903,1,8,0:0:0:0:
256,192,72978,1,0,0:0:0:0:
256,192,73053,1,8,0:0:0:0:
256,192,73128,1,8,0:0:0:0:
256,192,73203,1,0,0:0:0:0:
256,192,73278,1,0,0:0:0:0:
256,192,73353,1,8,0:0:0:0:
256,192,73653,1,0,0:0:0:0:
256,192,73803,1,8,0:0:0:0:
256,192,73878,5,8,0:0:0:0:
256,192,73953,1,0,0:0:0:0:
256,192,74103,1,8,0:0:0:0:
256,192,74253,1,8,0:0:0:0:
256,192,74403,1,0,0:0:0:0:
256,192,74478,1,0,0:0:0:0:
256,192,74553,1,8,0:0:0:0:
256,192,74628,1,0,0:0:0:0:
256,192,74703,1,8,0:0:0:0:
256,192,75003,1,8,0:0:0:0:
256,192,75153,1,0,0:0:0:0:
256,192,75303,1,0,0:0:0:0:
256,192,75453,1,8,0:0:0:0:
256,192,75528,1,8,0:0:0:0:
256,192,75603,1,8,0:0:0:0:
256,192,75753,1,0,0:0:0:0:
256,192,75903,1,8,0:0:0:0:
256,192,76053,1,0,0:0:0:0:
256,192,76203,1,8,0:0:0:0:
256,192,76353,1,8,0:0:0:0:
256,192,76503,1,8,0:0:0:0:
256,192,76653,1,8,0:0:0:0:
256,192,76728,1,8,0:0:0:0:
256,192,76803,1,8,0:0:0:0:
256,192,76953,1,8,0:0:0:0:
256,96,77103,1,4,0:0:0:0:
256,192,77328,1,8,0:0:0:0:
256,192,77403,1,8,0:0:0:0:
256,192,77553,1,0,0:0:0:0:
256,192,77703,1,8,0:0:0:0:
256,192,77778,1,8,0:0:0:0:
256,192,77853,1,0,0:0:0:0:
256,192,78003,1,0,0:0:0:0:
256,192,78153,1,8,0:0:0:0:
256,192,78453,1,8,0:0:0:0:
256,192,78603,1,0,0:0:0:0:
256,192,78678,1,8,0:0:0:0:
256,192,78753,1,0,0:0:0:0:
256,192,78903,1,8,0:0:0:0:
256,192,79053,1,8,0:0:0:0:
256,192,79128,1,8,0:0:0:0:
256,192,79203,1,8,0:0:0:0:
256,192,79353,1,8,0:0:0:0:
256,96,79503,1,4,0:0:0:0:
256,192,79728,1,8,0:0:0:0:
256,192,79803,1,8,0:0:0:0:
256,192,79953,1,0,0:0:0:0:
256,192,80103,1,8,0:0:0:0:
256,192,80178,1,0,0:0:0:0:
256,192,80253,1,8,0:0:0:0:
256,192,80403,1,0,0:0:0:0:
256,192,80553,1,8,0:0:0:0:
256,192,80853,1,8,0:0:0:0:
256,192,81003,1,0,0:0:0:0:
256,192,81078,1,0,0:0:0:0:
256,192,81153,1,0,0:0:0:0:
256,192,81303,1,8,0:0:0:0:
256,192,81453,1,8,0:0:0:0:
256,192,81528,1,8,0:0:0:0:
256,192,81603,1,8,0:0:0:0:
256,192,81753,1,8,0:0:0:0:
256,96,81903,1,4,0:0:0:0:
256,192,82128,1,8,0:0:0:0:
256,192,82203,1,8,0:0:0:0:
256,192,82353,1,0,0:0:0:0:
256,192,82503,1,8,0:0:0:0:
256,192,82578,1,8,0:0:0:0:
256,192,82653,1,0,0:0:0:0:
256,192,82803,1,0,0:0:0:0:
256,192,82953,1,8,0:0:0:0:
256,192,83253,1,8,0:0:0:0:
256,192,83403,1,0,0:0:0:0:
256,192,83478,1,8,0:0:0:0:
256,192,83553,1,0,0:0:0:0:
256,192,83703,1,8,0:0:0:0:
256,192,83853,1,8,0:0:0:0:
256,192,83928,1,8,0:0:0:0:
256,192,84003,1,8,0:0:0:0:
256,192,84153,1,8,0:0:0:0:
256,96,84303,1,4,0:0:0:0:
256,192,84528,1,8,0:0:0:0:
256,192,84603,1,8,0:0:0:0:
256,192,84753,1,0,0:0:0:0:
256,192,84903,1,8,0:0:0:0:
256,192,84978,1,0,0:0:0:0:
256,192,85053,1,8,0:0:0:0:
256,192,85203,1,0,0:0:0:0:
256,192,85353,1,8,0:0:0:0:
256,192,85653,1,0,0:0:0:0:
256,192,85803,1,8,0:0:0:0:
256,192,85878,1,8,0:0:0:0:
256,192,85953,1,0,0:0:0:0:
256,192,86028,1,0,0:0:0:0:
256,192,86103,1,8,0:0:0:0:
256,192,86253,1,8,0:0:0:0:
256,192,86328,1,8,0:0:0:0:
256,192,86403,1,8,0:0:0:0:
256,192,86553,1,8,0:0:0:0:
256,96,86703,1,4,0:0:0:0:
256,192,86928,1,8,0:0:0:0:
256,192,87003,1,8,0:0:0:0:
256,192,87153,1,0,0:0:0:0:
256,192,87303,1,8,0:0:0:0:
256,192,87378,1,8,0:0:0:0:
256,192,87453,1,0,0:0:0:0:
256,192,87528,1,0,0:0:0:0:
256,192,87603,1,8,0:0:0:0:
256,192,87753,1,8,0:0:0:0:
256,192,88053,1,0,0:0:0:0:
256,192,88203,1,8,0:0:0:0:
256,192,88278,1,8,0:0:0:0:
256,192,88353,1,0,0:0:0:0:
256,192,88503,1,8,0:0:0:0:
256,192,88653,1,8,0:0:0:0:
256,192,88728,1,8,0:0:0:0:
256,192,88803,1,8,0:0:0:0:
256,192,88953,1,8,0:0:0:0:
256,96,89103,1,4,0:0:0:0:
256,192,89328,1,8,0:0:0:0:
256,192,89403,1,8,0:0:0:0:
256,192,89553,1,0,0:0:0:0:
256,192,89703,1,8,0:0:0:0:
256,192,89853,1,0,0:0:0:0:
256,192,89928,1,0,0:0:0:0:
256,192,90003,1,8,0:0:0:0:
256,192,90078,1,0,0:0:0:0:
256,192,90153,1,8,0:0:0:0:
256,192,90453,1,8,0:0:0:0:
256,192,90603,1,0,0:0:0:0:
256,192,90678,1,8,0:0:0:0:
256,192,90753,1,0,0:0:0:0:
256,192,90903,1,8,0:0:0:0:
256,192,91053,1,8,0:0:0:0:
256,192,91128,1,8,0:0:0:0:
256,192,91203,1,8,0:0:0:0:
256,192,91353,1,8,0:0:0:0:
256,96,91503,1,4,0:0:0:0:
256,192,91728,1,8,0:0:0:0:
256,192,91803,1,8,0:0:0:0:
256,192,91953,1,0,0:0:0:0:
256,192,92103,1,8,0:0:0:0:
256,192,92178,1,8,0:0:0:0:
256,192,92253,1,0,0:0:0:0:
256,192,92328,1,0,0:0:0:0:
256,192,92403,1,8,0:0:0:0:
256,192,92553,1,8,0:0:0:0:
256,192,92853,1,0,0:0:0:0:
256,192,93003,1,8,0:0:0:0:
256,192,93078,1,8,0:0:0:0:
256,192,93153,1,0,0:0:0:0:
256,192,93303,1,8,0:0:0:0:
256,192,93453,1,8,0:0:0:0:
256,192,93528,1,8,0:0:0:0:
256,192,93603,1,8,0:0:0:0:
256,192,93753,1,8,0:0:0:0:
256,96,93903,1,4,0:0:0:0:
256,192,94128,1,8,0:0:0:0:
256,192,94203,1,8,0:0:0:0:
256,192,94353,1,0,0:0:0:0:
256,192,94503,1,0,0:0:0:0:
256,192,94653,1,8,0:0:0:0:
256,192,94803,1,0,0:0:0:0:
256,192,94953,1,8,0:0:0:0:
256,192,95103,1,0,0:0:0:0:
256,192,95253,1,8,0:0:0:0:
256,192,95328,1,0,0:0:0:0:
256,192,95403,1,8,0:0:0:0:
256,192,95553,1,0,0:0:0:0:
256,192,95703,1,8,0:0:0:0:
256,192,95853,1,8,0:0:0:0:
256,192,95928,1,8,0:0:0:0:
256,192,96003,1,8,0:0:0:0:
256,192,96153,1,8,0:0:0:0:
256,96,96303,1,4,0:0:0:0:
256,192,96528,1,0,0:0:0:0:
256,192,96603,1,8,0:0:0:0:
256,192,96753,1,0,0:0:0:0:
256,192,96903,1,8,0:0:0:0:
256,192,96978,1,0,0:0:0:0:
256,192,97053,1,8,0:0:0:0:
256,192,97128,1,8,0:0:0:0:
256,192,97203,1,0,0:0:0:0:
256,192,97353,1,8,0:0:0:0:
256,192,97653,1,0,0:0:0:0:
256,192,97803,1,8,0:0:0:0:
256,192,97878,1,8,0:0:0:0:
256,192,97953,1,8,0:0:0:0:
256,192,98103,1,0,0:0:0:0:
256,192,98253,1,0,0:0:0:0:
256,192,98403,1,8,0:0:0:0:
256,192,98478,1,8,0:0:0:0:
256,192,98553,1,0,0:0:0:0:
256,192,98628,1,0,0:0:0:0:
256,192,98703,1,8,0:0:0:0:
256,192,98853,1,0,0:0:0:0:
256,192,99003,1,8,0:0:0:0:
256,192,99153,1,0,0:0:0:0:
256,192,99303,1,8,0:0:0:0:
256,192,99378,1,8,0:0:0:0:
256,192,99453,1,0,0:0:0:0:
256,192,99528,1,8,0:0:0:0:
256,192,99603,1,0,0:0:0:0:
256,192,99753,1,8,0:0:0:0:
256,192,100053,1,0,0:0:0:0:
256,192,100203,1,8,0:0:0:0:
256,192,100278,1,8,0:0:0:0:
256,192,100353,1,0,0:0:0:0:
256,192,100503,1,8,0:0:0:0:
256,192,100653,1,0,0:0:0:0:
256,192,100728,1,0,0:0:0:0:
256,192,100803,1,8,0:0:0:0:
256,192,100953,1,8,0:0:0:0:
256,96,101103,1,4,0:0:0:0:
256,192,101403,1,0,0:0:0:0:
256,192,101553,1,8,0:0:0:0:
256,192,101628,1,0,0:0:0:0:
256,192,101703,1,8,0:0:0:0:
256,192,101778,1,8,0:0:0:0:
256,192,101853,1,0,0:0:0:0:
256,192,101928,1,0,0:0:0:0:
256,192,102003,1,8,0:0:0:0:
256,192,102078,1,0,0:0:0:0:
256,192,102153,1,8,0:0:0:0:
256,192,102453,1,0,0:0:0:0:
256,192,102603,1,8,0:0:0:0:
256,192,102753,1,0,0:0:0:0:
256,192,102903,1,8,0:0:0:0:
256,192,102978,1,8,0:0:0:0:
256,192,103053,1,0,0:0:0:0:
256,192,103128,1,0,0:0:0:0:
256,192,103203,1,8,0:0:0:0:
256,96,103503,1,12,0:0:0:0:
256,96,103703,1,4,0:0:0:0:
256,96,103903,1,4,0:0:0:0:
256,96,104103,1,12,0:0:0:0:
256,96,104303,1,4,0:0:0:0:
256,96,104503,1,4,0:0:0:0:
256,96,104703,1,12,0:0:0:0:
256,96,104903,1,4,0:0:0:0:
256,96,105103,1,4,0:0:0:0:
256,96,105303,1,12,0:0:0:0:
256,96,105603,1,4,0:0:0:0:
256,96,105903,1,4,0:0:0:0:
256,192,106353,1,0,0:0:0:0:
256,192,106503,1,8,0:0:0:0:
256,192,106653,1,8,0:0:0:0:
256,192,106953,1,0,0:0:0:0:
256,192,107403,1,0,0:0:0:0:
256,192,107703,1,8,0:0:0:0:
256,192,108303,5,0,0:0:0:0:
256,192,108753,1,0,0:0:0:0:
256,192,108903,1,8,0:0:0:0:
256,192,109053,1,8,0:0:0:0:
256,192,109353,1,0,0:0:0:0:
256,192,109803,1,0,0:0:0:0:
256,192,110103,1,8,0:0:0:0:
256,192,110403,1,0,0:0:0:0:
256,192,110703,5,0,0:0:0:0:
256,192,111153,1,0,0:0:0:0:
256,192,111303,1,8,0:0:0:0:
256,192,111453,1,8,0:0:0:0:
256,192,111753,1,0,0:0:0:0:
256,192,112203,1,0,0:0:0:0:
256,192,112503,1,8,0:0:0:0:
256,192,113103,1,8,0:0:0:0:
256,192,113303,1,0,0:0:0:0:
256,192,113503,1,0,0:0:0:0:
256,192,113703,1,8,0:0:0:0:
256,192,113903,1,0,0:0:0:0:
256,192,114103,1,0,0:0:0:0:
256,192,114303,1,8,0:0:0:0:
256,192,114503,1,0,0:0:0:0:
256,192,114703,1,0,0:0:0:0:
256,192,114903,1,8,0:0:0:0:
256,192,115203,1,0,0:0:0:0:
256,192,115503,1,0,0:0:0:0:
256,192,116103,1,8,0:0:0:0:
256,192,116253,1,8,0:0:0:0:
256,192,116553,1,0,0:0:0:0:
256,192,117903,5,0,0:0:0:0:
256,192,118503,1,8,0:0:0:0:
256,192,118653,1,8,0:0:0:0:
256,192,118953,1,0,0:0:0:0:
256,192,119703,1,8,0:0:0:0:
256,192,120003,1,0,0:0:0:0:
256,192,120303,5,0,0:0:0:0:
256,192,120903,1,8,0:0:0:0:
256,192,121053,1,8,0:0:0:0:
256,192,121353,1,0,0:0:0:0:
256,192,122103,1,8,0:0:0:0:
256,192,122703,1,8,0:0:0:0:
256,192,122903,1,0,0:0:0:0:
256,192,123103,1,0,0:0:0:0:
256,192,123303,1,8,0:0:0:0:
256,192,123503,1,0,0:0:0:0:
256,192,123703,1,0,0:0:0:0:
256,192,123903,1,8,0:0:0:0:
256,192,124103,1,0,0:0:0:0:
256,192,124303,1,0,0:0:0:0:
256,192,124503,1,8,0:0:0:0:
256,192,124803,1,0,0:0:0:0:
