osu file format v14

[General]
AudioFilename: audio2.mp3
AudioLeadIn: 0
PreviewTime: 38403
Countdown: 0
SampleSet: None
StackLeniency: 0.7
Mode: 2
LetterboxInBreaks: 1
WidescreenStoryboard: 1

[Editor]
DistanceSpacing: 1
BeatDivisor: 4
GridSize: 8
TimelineZoom: 1

[Metadata]
Title:Shelter (happy30 Remix)
TitleUnicode:Shelter (happy30 Remix)
Artist:Porter Robinson & Madeon
ArtistUnicode:Porter Robinson & Madeon
Creator:Benita
Version:owo
Source:Shelter
Tags:happythirsty
BeatmapID:2014131
BeatmapSetID:961905

[Difficulty]
HPDrainRate:7
CircleSize:4.5
OverallDifficulty:9
ApproachRate:9
SliderMultiplier:3
SliderTickRate:2

[Events]
//Background and Video events
0,0,"thumb-1920-753125.jpg",0,0
//Break Periods
//Storyboard Layer 0 (Background)
//Storyboard Layer 1 (Fail)
//Storyboard Layer 2 (Pass)
//Storyboard Layer 3 (Foreground)
//Storyboard Sound Samples

[TimingPoints]
3,600,4,2,1,30,1,0
9603,-100,4,2,1,40,0,0
19203,-100,4,2,1,60,0,0
36003,-100,4,2,1,70,0,0
38403,-100,4,2,1,80,0,0
57603,-100,4,1,1,80,0,1
75903,-100,4,1,1,80,0,0
76803,-100,4,1,1,80,0,1
96003,-100,4,1,1,80,0,0
105603,-100,4,1,1,40,0,0
115203,-100,4,1,1,30,0,0

[Colours]
Combo1 : 255,255,128
Combo2 : 128,255,128
Combo3 : 255,128,128
Combo4 : 0,128,255

[HitObjects]
128,312,19203,5,0,0:0:0:0:
312,232,19653,1,0,0:0:0:0:
161,206,19803,2,0,P|146:141|161:112,1,75
361,117,20253,2,0,L|131:100,1,225
413,237,21003,1,0,0:0:0:0:
150,323,21603,5,0,0:0:0:0:
362,270,22053,1,0,0:0:0:0:
206,212,22203,2,0,L|307:207,1,75
87,214,22653,2,0,P|31:163|107:42,1,225
321,41,23403,2,0,L|476:36,1,150
108,333,24003,5,0,0:0:0:0:
320,314,24453,1,0,0:0:0:0:
170,287,24603,2,0,P|160:236|179:190,1,75
380,153,25053,2,0,L|147:144,1,225
430,79,25803,1,0,0:0:0:0:
211,209,26403,6,0,P|200:151|222:113,1,100
319,105,26803,1,0,0:0:0:0:
480,180,27003,2,0,P|491:238|469:276,1,100
362,284,27403,1,0,0:0:0:0:
206,257,27603,2,0,L|79:261,2,100
341,227,28203,2,0,P|375:160|312:103,1,150
128,312,28803,5,0,0:0:0:0:
312,232,29253,1,0,0:0:0:0:
161,206,29403,2,0,P|146:141|161:112,1,75
361,117,29853,2,0,L|131:100,1,225
413,237,30603,1,0,0:0:0:0:
95,326,31203,5,0,0:0:0:0:
307,273,31653,1,0,0:0:0:0:
151,215,31803,2,0,L|252:210,1,75
61,146,32253,2,0,L|296:135,1,225
41,158,33003,2,0,L|46:313,1,150
317,323,33603,5,0,0:0:0:0:
130,258,34053,1,0,0:0:0:0:
280,231,34203,2,0,P|290:180|271:134,1,75
93,138,34653,2,0,L|326:129,1,225
105,70,35403,1,0,0:0:0:0:
256,322,36003,5,0,0:0:0:0:
414,280,36203,1,0,0:0:0:0:
415,201,36403,1,0,0:0:0:0:
60,151,36603,1,0,0:0:0:0:
217,104,36803,1,0,0:0:0:0:
57,66,37003,1,0,0:0:0:0:
313,242,37203,1,0,0:0:0:0:
151,183,37403,1,0,0:0:0:0:
148,83,37603,1,0,0:0:0:0:
469,84,37803,1,0,0:0:0:0:
203,161,37953,1,0,0:0:0:0:
203,161,38028,1,0,0:0:0:0:
204,161,38103,1,0,0:0:0:0:
295,186,38253,1,0,0:0:0:0:
39,280,38403,6,0,P|12:257|54:153,1,150
124,155,38853,1,0,0:0:0:0:
328,300,39003,1,0,0:0:0:0:
179,260,39153,2,0,L|334:248,1,150
225,197,39603,2,0,L|219:108,1,75
492,173,39903,2,0,L|491:81,1,75
360,81,40203,1,0,0:0:0:0:
140,116,40503,2,0,L|145:192,1,75
444,275,40803,6,0,L|282:261,1,150
365,160,41253,1,0,0:0:0:0:
157,305,41403,1,0,0:0:0:0:
17,286,41553,2,0,L|29:131,1,150
136,113,42003,1,0,0:0:0:0:
24,89,42153,1,0,0:0:0:0:
301,102,42303,2,0,L|403:101,1,75
58,131,42603,2,0,L|41:214,1,75
297,56,42903,2,0,L|388:59,1,75
66,272,43203,6,0,L|228:263,1,150
59,178,43653,1,0,0:0:0:0:
300,169,43803,1,0,0:0:0:0:
171,116,43953,1,0,0:0:0:0:
300,169,44103,1,0,0:0:0:0:
59,178,44253,2,0,P|30:237|61:310,1,150
220,316,44703,2,0,L|236:222,1,75
81,221,45003,2,0,L|256:210,1,150
163,139,45453,1,0,0:0:0:0:
466,199,45603,5,0,0:0:0:0:
295,166,45803,1,0,0:0:0:0:
466,199,46003,1,0,0:0:0:0:
160,272,46203,1,0,0:0:0:0:
337,243,46403,1,0,0:0:0:0:
338,136,46603,1,0,0:0:0:0:
55,133,46803,1,0,0:0:0:0:
52,232,47003,1,0,0:0:0:0:
166,291,47203,1,0,0:0:0:0:
492,292,47403,2,0,L|499:134,1,150
22,113,48003,6,0,L|207:108,1,150
272,105,48453,1,0,0:0:0:0:
41,217,48603,1,0,0:0:0:0:
191,211,48753,2,0,P|236:159|201:87,1,150
107,86,49203,1,0,0:0:0:0:
25,141,49353,1,0,0:0:0:0:
320,162,49503,2,0,L|435:162,2,75
130,164,50103,2,0,L|36:159,1,75
290,307,50403,6,0,P|337:248|271:191,1,150
207,184,50853,1,0,0:0:0:0:
451,168,51003,1,0,0:0:0:0:
307,148,51153,2,0,L|471:133,1,150
364,87,51603,1,0,0:0:0:0:
484,44,51753,1,0,0:0:0:0:
215,55,51903,2,0,L|104:56,1,75
400,163,52203,2,0,L|491:162,1,75
238,264,52503,2,0,L|343:277,1,75
32,283,52803,6,0,L|231:263,1,150
338,256,53253,1,0,0:0:0:0:
111,206,53403,1,0,0:0:0:0:
257,168,53553,1,0,0:0:0:0:
111,206,53703,1,0,0:0:0:0:
338,256,53853,2,0,L|146:243,1,150
342,215,54303,2,0,L|344:125,1,75
190,128,54603,2,0,L|354:105,1,150
416,94,55053,1,0,0:0:0:0:
47,279,55203,5,0,0:0:0:0:
13,188,55403,1,0,0:0:0:0:
123,134,55603,1,0,0:0:0:0:
473,264,55803,1,0,0:0:0:0:
296,235,56003,1,0,0:0:0:0:
469,257,56203,1,0,0:0:0:0:
140,300,56403,1,0,0:0:0:0:
307,289,56603,1,0,0:0:0:0:
309,166,56803,1,0,0:0:0:0:
31,298,57003,2,0,L|27:139,1,150
479,135,57603,6,0,L|341:197,1,150
428,112,58053,1,0,0:0:0:0:
216,125,58203,1,0,0:0:0:0:
64,204,58353,2,0,L|66:301,1,75
334,282,58653,2,0,L|179:281,1,150
355,238,59103,2,0,L|362:150,1,75
209,168,59403,2,0,L|114:165,1,75
284,102,59703,2,0,L|202:98,1,75
483,158,60003,6,0,P|485:231|427:273,1,150
203,287,60453,2,0,L|28:241,1,150
175,184,60903,1,0,0:0:0:0:
41,142,61053,1,0,0:0:0:0:
306,141,61203,2,0,L|160:194,1,150
392,250,61653,2,0,L|399:328,1,75
124,301,62103,2,0,L|127:221,1,75
359,248,62403,6,0,P|408:185|314:155,1,150
286,139,62853,1,0,0:0:0:0:
496,120,63003,1,0,0:0:0:0:
377,236,63153,2,0,L|389:322,1,75
156,330,63453,2,0,L|319:329,1,150
135,287,63903,2,0,L|132:190,1,75
298,216,64203,2,0,L|479:207,1,150
385,145,64653,1,0,0:0:0:0:
159,146,64803,6,0,L|-8:177,1,150
86,240,65253,1,0,0:0:0:0:
205,231,65403,1,0,0:0:0:0:
48,196,65553,2,0,P|31:156|106:65,1,150
307,80,66003,1,0,0:0:0:0:
370,114,66153,1,0,0:0:0:0:
379,185,66303,1,0,0:0:0:0:
326,235,66453,1,0,0:0:0:0:
102,242,66603,1,0,0:0:0:0:
198,203,66753,1,0,0:0:0:0:
206,187,66828,1,0,0:0:0:0:
199,172,66903,1,0,0:0:0:0:
102,242,67053,1,0,0:0:0:0:
479,135,67203,6,0,L|317:127,1,150
226,123,67653,1,0,0:0:0:0:
399,67,67803,1,0,0:0:0:0:
79,191,67953,2,0,L|76:282,1,75
334,282,68253,2,0,P|379:229|327:182,1,150
161,280,68703,2,0,L|154:192,1,75
326,195,69003,2,0,L|333:99,1,75
204,117,69303,1,0,0:0:0:0:
331,69,69453,1,0,0:0:0:0:
28,159,69603,6,0,P|21:217|108:273,1,150
332,269,70053,2,0,L|157:223,1,150
407,185,70503,2,0,L|418:101,1,75
141,111,70803,2,0,P|88:175|157:224,1,150
405,235,71253,2,0,L|417:322,1,75
192,275,71703,2,0,L|105:272,1,75
359,248,72003,6,0,L|202:231,1,150
283,165,72453,1,0,0:0:0:0:
118,167,72603,1,0,0:0:0:0:
377,236,72753,2,0,L|389:322,1,75
156,330,73053,2,0,L|319:329,1,150
135,287,73503,2,0,L|132:190,1,75
298,216,73803,2,0,L|479:207,1,150
385,145,74253,1,0,0:0:0:0:
159,146,74403,6,0,L|-8:177,1,150
86,240,74853,1,0,0:0:0:0:
205,231,75003,1,0,0:0:0:0:
48,196,75153,2,0,P|31:156|106:65,1,150
326,95,75603,2,0,L|343:200,1,75
84,188,75903,2,0,L|83:282,1,75
342,308,76203,2,0,L|445:302,1,75
426,262,76428,1,0,0:0:0:0:
241,262,76503,2,0,L|130:255,1,75
468,175,76803,6,0,L|345:148,1,112.5
317,141,77103,1,0,0:0:0:0:
106,160,77253,2,0,L|21:157,2,75
347,197,77703,1,0,0:0:0:0:
250,184,77853,2,0,L|261:32,1,150
415,34,78303,2,0,L|419:142,1,75
265,166,78603,2,0,L|140:162,1,75
145,142,78828,1,0,0:0:0:0:
289,93,78903,1,0,0:0:0:0:
162,55,79053,1,0,0:0:0:0:
403,77,79203,6,0,P|423:142|414:192,1,112.5
358,207,79503,1,0,0:0:0:0:
136,210,79653,2,0,L|139:297,1,75
242,299,79953,1,0,0:0:0:0:
33,303,80103,1,0,0:0:0:0:
125,286,80253,2,0,P|153:240|93:158,1,150
258,157,80703,2,0,L|351:153,1,75
186,109,81003,2,0,L|94:104,1,75
69,69,81228,1,0,0:0:0:0:
218,57,81303,1,0,0:0:0:0:
91,156,81453,1,0,0:0:0:0:
309,227,81603,6,0,L|443:221,1,112.5
467,182,81903,1,0,0:0:0:0:
254,178,82053,2,0,P|250:124|269:95,1,75
365,95,82353,1,0,0:0:0:0:
146,148,82503,1,0,0:0:0:0:
51,168,82653,2,0,P|31:228|67:308,1,150
218,314,83103,2,0,L|311:312,1,75
143,249,83403,2,0,L|249:237,1,75
255,235,83628,1,0,0:0:0:0:
115,181,83703,1,0,0:0:0:0:
262,126,83853,1,0,0:0:0:0:
49,131,84003,6,0,L|171:121,1,112.5
211,116,84303,1,0,0:0:0:0:
439,159,84453,2,0,P|450:212|439:252,1,75
358,248,84753,1,0,0:0:0:0:
143,276,84903,1,0,0:0:0:0:
232,264,85053,2,0,L|388:256,1,150
237,214,85503,2,0,L|221:126,1,75
449,139,85803,2,0,L|455:54,1,75
406,48,86028,1,0,0:0:0:0:
258,113,86103,1,0,0:0:0:0:
399,177,86253,1,0,0:0:0:0:
163,237,86403,6,0,L|35:229,1,112.5
20,180,86703,2,0,L|111:184,1,75
330,197,87003,2,0,L|342:282,1,75
126,292,87303,1,0,0:0:0:0:
222,290,87453,2,0,L|208:131,1,150
56,138,87903,2,0,L|48:225,1,75
204,256,88203,2,0,L|302:249,1,75
249,202,88428,1,0,0:0:0:0:
98,200,88503,1,0,0:0:0:0:
225,146,88653,1,0,0:0:0:0:
454,154,88803,6,0,P|480:214|455:263,1,112.5
408,272,89103,2,0,L|314:273,1,75
123,273,89403,2,0,L|115:193,1,75
334,186,89703,1,0,0:0:0:0:
182,193,89853,2,0,P|151:235|189:322,1,150
281,321,90303,1,0,0:0:0:0:
125,327,90453,1,0,0:0:0:0:
289,330,90603,2,0,L|299:226,1,75
244,245,90828,1,0,0:0:0:0:
86,237,90903,1,0,0:0:0:0:
241,192,91053,1,0,0:0:0:0:
22,187,91203,6,0,L|157:171,1,112.5
170,168,91503,2,0,L|262:158,1,75
456,197,91803,2,0,L|465:280,1,75
237,329,92103,1,0,0:0:0:0:
325,327,92253,2,0,P|355:279|307:184,1,150
173,201,92703,2,0,L|75:187,2,75
327,236,93153,2,0,L|330:304,1,37.5
177,288,93303,1,0,0:0:0:0:
327,302,93453,1,0,0:0:0:0:
113,331,93603,6,0,P|76:297|107:234,1,112.5
143,234,93903,2,0,L|221:226,2,75
295,254,94353,2,0,L|302:329,1,75
147,337,94653,2,0,L|60:332,1,75
226,255,94953,1,0,0:0:0:0:
69,210,95103,2,0,L|63:131,1,75
219,132,95403,2,0,L|309:130,1,75
254,83,95628,1,0,0:0:0:0:
116,76,95703,1,0,0:0:0:0:
249,57,95853,1,0,0:0:0:0:
473,280,96003,6,0,P|500:257|458:153,1,150
388,155,96453,1,0,0:0:0:0:
131,309,96603,1,0,0:0:0:0:
285,255,96753,2,0,L|130:243,1,150
219,178,97203,2,0,L|301:149,1,75
20,173,97503,2,0,L|21:81,1,75
116,86,97803,1,0,0:0:0:0:
372,116,98103,2,0,L|367:192,1,75
68,275,98403,6,0,L|230:261,1,150
147,160,98853,1,0,0:0:0:0:
409,299,99003,1,0,0:0:0:0:
254,278,99153,2,0,L|268:126,1,150
376,113,99603,1,0,0:0:0:0:
488,89,99753,1,0,0:0:0:0:
211,102,99903,2,0,L|109:101,1,75
454,131,100203,2,0,L|471:214,1,75
215,56,100503,2,0,L|124:59,1,75
446,272,100803,6,0,L|284:263,1,150
453,178,101253,1,0,0:0:0:0:
212,169,101403,1,0,0:0:0:0:
341,116,101553,1,0,0:0:0:0:
212,169,101703,1,0,0:0:0:0:
453,178,101853,2,0,P|482:237|451:310,1,150
292,316,102303,2,0,L|276:222,1,75
431,221,102603,2,0,L|256:210,1,150
349,139,103053,1,0,0:0:0:0:
46,199,103203,5,0,0:0:0:0:
217,166,103403,1,0,0:0:0:0:
46,199,103603,1,0,0:0:0:0:
352,272,103803,1,0,0:0:0:0:
175,243,104003,1,0,0:0:0:0:
174,136,104203,1,0,0:0:0:0:
457,133,104403,1,0,0:0:0:0:
460,232,104603,1,0,0:0:0:0:
346,291,104803,1,0,0:0:0:0:
20,292,105003,2,0,L|13:134,1,150
479,261,105603,5,0,0:0:0:0:
251,260,106053,1,0,0:0:0:0:
403,226,106203,1,0,0:0:0:0:
254,254,106353,1,0,0:0:0:0:
442,319,106653,2,0,L|217:335,1,225
48,345,107403,1,0,0:0:0:0:
362,323,108003,5,0,0:0:0:0:
150,270,108453,1,0,0:0:0:0:
306,212,108603,1,0,0:0:0:0:
150,270,108753,1,0,0:0:0:0:
354,274,109053,2,0,P|410:223|334:102,1,225
76,281,109803,2,0,P|42:218|81:126,1,150
296,235,110403,5,0,0:0:0:0:
76,250,110853,1,0,0:0:0:0:
226,223,111003,1,0,0:0:0:0:
76,250,111153,1,0,0:0:0:0:
308,157,111453,2,0,L|83:165,1,225
334,91,112203,1,0,0:0:0:0:
211,209,112803,6,0,P|200:151|222:113,1,100
319,105,113203,1,0,0:0:0:0:
480,180,113403,2,0,P|491:238|469:276,1,100
362,284,113803,1,0,0:0:0:0:
206,257,114003,2,0,L|79:261,2,100
341,227,114603,2,0,P|375:160|312:103,1,150
128,312,115203,5,0,0:0:0:0:
