osu file format v14

[General]
AudioFilename: sheltered.mp3
AudioLeadIn: 0
PreviewTime: 126367
Countdown: 0
SampleSet: Soft
StackLeniency: 0.9
Mode: 0
LetterboxInBreaks: 0
WidescreenStoryboard: 1

[Editor]
DistanceSpacing: 1.4
BeatDivisor: 8
GridSize: 8
TimelineZoom: 1

[Metadata]
Title:Shelter
TitleUnicode:Shelter
Artist:Porter Robinson & Madeon
ArtistUnicode:Porter Robinson & Madeon
Creator:Viperial
Version:BlausIllusoryWorld
Source:Porter Robinson
Tags:
BeatmapID:1128035
BeatmapSetID:524372

[Difficulty]
HPDrainRate:6
CircleSize:4
OverallDifficulty:6
ApproachRate:9
SliderMultiplier:1.8
SliderTickRate:1

[Events]
//Background and Video events
0,0,"BGshelter.jpg",0,0
Video,0,"Shelter.avi"
//Break Periods
//Storyboard Layer 0 (Background)
//Storyboard Layer 1 (Fail)
//Storyboard Layer 2 (Pass)
//Storyboard Layer 3 (Foreground)
//Storyboard Sound Samples

[TimingPoints]
49674,600,4,2,2,40,1,0
59274,-80,4,2,2,50,0,0
68874,-80,4,1,2,50,0,1
88074,-133.333333333333,4,2,2,40,0,0
106074,-133.333333333333,4,2,3,40,0,0
117174,-133.333333333333,4,2,2,40,0,0
125274,-133.333333333333,4,3,2,25,0,0
126474,-100,4,1,2,40,0,1
164874,-133.333333333333,4,2,4,40,0,0
203274,-133.333333333333,4,2,2,40,0,0
209874,-133.333333333333,4,1,2,30,0,0
217074,-133.333333333333,4,1,2,35,0,0
220074,-133.333333333333,4,3,4,10,0,0
220674,-133.333333333333,4,3,3,40,0,0
221274,-133.333333333333,4,3,2,40,0,0
221874,-133.333333333333,4,3,3,40,0,0
222474,-66.6666666666667,4,1,4,25,0,1
259824,-66.6666666666667,4,1,4,20,0,1
275274,-100,4,2,2,70,0,0
282442,800,4,2,2,40,1,0
282442,-100,4,2,2,40,0,0
283255,615.384615384615,4,2,2,30,1,0
283870,676.056338028169,4,2,2,30,1,0
284039,631.578947368421,4,2,2,30,1,0
285819,655.737704918033,4,2,2,30,1,0
286474,676.056338028169,4,2,2,30,1,0
286643,625,4,2,2,30,1,0
286955,800,4,2,2,30,1,0
287155,685.714285714286,4,2,2,30,1,0
287840,657.534246575342,4,2,2,30,1,0
288497,657.534246575342,4,2,2,30,1,0
289318,607.594936708861,4,2,2,30,1,0
290823,607.594936708861,4,2,2,30,1,0
291126,631.578947368421,4,2,2,30,1,0
293768,712.166172106825,4,2,2,30,1,0
294124,638.297872340426,4,2,2,30,1,0
294602,697.674418604651,4,2,2,30,1,0
295125,645.161290322581,4,2,2,30,1,0
295447,705.882352941176,4,2,2,30,1,0
295799,615.384615384615,4,2,2,30,1,0
296106,648.648648648649,4,2,2,30,1,0
296430,676.056338028169,4,2,2,30,1,0
296768,636.604774535809,4,2,2,30,1,0
297563,727.272727272727,4,2,2,30,1,0
297744,645.161290322581,4,2,2,30,1,0
298387,662.983425414365,4,2,2,30,1,0
298718,631.578947368421,4,2,2,30,1,0
299033,666.666666666667,4,2,2,30,1,0
299699,625,4,2,2,30,1,0
299855,676.056338028169,4,2,2,30,1,0
300362,666.666666666667,4,2,2,30,1,0
301028,612.244897959184,4,2,2,30,1,0
301334,600,4,2,2,30,1,0
301634,676.056338028169,4,2,2,30,1,0
302310,740.740740740741,4,2,2,30,1,0
303421,693.64161849711,4,2,2,30,1,0
303767,833.333333333333,4,2,2,30,1,0
304183,718.562874251497,4,2,2,30,1,0
304542,670.391061452514,4,2,2,30,1,0
305044,645.161290322581,4,2,2,30,1,0
305527,705.882352941176,4,2,2,30,1,0
305879,648.648648648649,4,2,2,30,1,0
306203,666.666666666667,4,2,2,30,1,0
307203,681.818181818182,4,2,2,30,1,0
307714,631.578947368421,4,2,2,30,1,0
308187,731.707317073171,4,2,2,30,1,0
308552,662.983425414365,4,2,2,30,1,0
309877,628.272251308901,4,2,2,30,1,0
310348,697.674418604651,4,2,2,30,1,0
310871,697.674418604651,4,2,2,30,1,0
311219,634.920634920635,4,2,2,30,1,0
311536,676.056338028169,4,2,2,30,1,0
312212,655.737704918033,4,2,2,30,1,0
312539,662.983425414365,4,2,2,30,1,0
313533,705.882352941176,4,2,2,30,1,0
313885,661.157024793388,4,2,2,30,1,0
315207,652.173913043478,4,2,2,30,1,0
315859,722.89156626506,4,2,2,30,1,0
316220,685.714285714286,4,2,2,30,1,0
316562,600,4,2,2,30,1,0
317162,718.562874251497,4,2,2,30,1,0
317880,655.737704918033,4,2,2,30,1,0
318535,600,4,2,2,30,1,0
318835,789.473684210526,4,2,2,30,1,0
319229,600,4,2,2,30,1,0
319529,705.882352941176,4,2,2,30,1,0
319705,674.157303370787,4,2,2,30,1,0
320547,645.161290322581,4,2,2,30,1,0
321192,693.64161849711,4,2,2,30,1,0
321885,618.556701030928,4,2,2,30,1,0
322503,710.059171597633,4,2,2,30,1,0
323213,681.818181818182,4,2,2,30,1,0
325258,662.983425414365,4,2,2,30,1,0
325886,710.059171597633,4,2,2,30,1,0
326773,731.707317073171,4,2,2,30,1,0

[HitObjects]
119,92,49674,5,0,0:0:0:0:
379,226,50274,1,8,0:0:0:0:
144,186,50574,2,0,P|180:198|237:174,1,90
245,163,50949,1,0,0:0:0:0:
260,138,51024,1,0,0:0:0:0:
252,116,51099,1,0,0:0:0:0:
233,100,51174,1,0,0:0:0:0:
356,32,51474,6,0,P|425:87|400:174,1,180,0|2,0:0|0:0,0:0:0:0:
291,120,52374,2,0,P|275:157|295:205,1,90,0|8,0:0|0:0,0:0:0:0:
410,299,52974,1,0,0:0:0:0:
396,205,53274,2,0,P|335:232|320:341,1,180
60,309,54174,5,0,0:0:0:0:
175,197,54474,2,2,B|222:152|222:152|271:169|253:259,1,180,2|8,0:0|0:0,0:0:0:0:
278,349,55374,5,0,0:0:0:0:
379,255,55674,2,0,P|396:191|336:237,1,180
280,335,56574,5,0,0:0:0:0:
136,112,56874,1,8,0:0:0:0:
377,167,57099,1,0,0:0:0:0:
136,251,57324,1,0,0:0:0:0:
198,76,57474,5,8,0:0:0:0:
398,241,57699,1,0,0:0:0:0:
81,298,57924,1,0,0:0:0:0:
268,60,58074,5,8,0:0:0:0:
425,301,58299,1,0,0:0:0:0:
26,265,58524,1,0,0:0:0:0:
337,68,58674,5,8,0:0:0:0:
437,365,58899,1,0,0:0:0:0:
25,196,59124,1,0,0:0:0:0:
247,132,59274,6,0,P|214:200|235:248,2,112.5,0|0|8,0:0|0:0|0:0,0:0:0:0:
466,235,60174,1,2,0:0:0:0:
321,197,60324,1,2,0:0:0:0:
401,336,60474,2,0,P|351:338|295:303,1,112.5
207,184,61074,1,8,0:0:0:0:
56,243,61374,6,2,B|106:268|106:268|164:247,1,112.5,0|2,0:0|0:0,0:0:0:0:
360,90,62274,1,8,0:0:0:0:
54,78,62574,1,2,0:0:0:0:
115,227,62724,1,2,0:0:0:0:
235,106,62874,2,0,B|264:75|264:75|303:144,1,112.5
437,309,63474,5,8,0:0:0:0:
358,250,63774,5,0,0:0:0:0:
270,172,64074,6,2,P|220:224|273:185,1,225,2|8,0:0|0:0,0:0:0:0:
330,7,64974,5,2,0:0:0:0:
157,79,65124,1,2,0:0:0:0:
350,128,65274,2,0,P|330:157|338:237,1,112.5
384,346,65874,1,8,0:0:0:0:
239,195,66174,5,0,0:0:0:0:
103,5,66474,1,8,0:0:0:0:
63,163,66699,1,0,0:0:0:0:
243,70,66924,1,0,0:0:0:0:
146,60,67074,5,8,0:0:0:0:
137,230,67299,1,0,0:0:0:0:
318,129,67524,1,0,0:0:0:0:
209,146,67674,5,8,0:0:0:0:
270,302,67899,1,0,0:0:0:0:
391,190,68124,1,0,0:0:0:0:
292,217,68274,5,8,0:0:0:0:
319,368,68499,1,0,0:0:0:0:
459,258,68724,1,0,0:0:0:0:
368,264,68874,6,0,B|332:233|332:233|315:299|315:299|215:224,1,225,0|8,0:0|0:0,0:0:0:0:
85,125,69774,1,0,0:0:0:0:
49,282,69924,2,0,P|93:286|121:275,1,56.25
156,23,70374,5,0,0:0:0:0:
288,192,70674,1,8,0:0:0:0:
53,163,70974,1,0,0:0:0:0:
305,59,71274,2,0,P|272:51|195:82,1,112.5
159,212,71874,5,8,0:0:0:0:
385,127,72174,1,0,0:0:0:0:
254,108,72324,1,0,0:0:0:0:
334,226,72474,1,0,0:0:0:0:
309,38,72774,6,0,B|361:58|361:58|366:88|323:108,1,112.5,0|8,0:0|0:0,0:0:0:0:
170,189,73374,1,0,0:0:0:0:
239,11,73674,1,0,0:0:0:0:
43,114,73974,2,0,P|94:110|156:126,1,112.5,0|8,0:0|0:0,0:0:0:0:
335,215,74574,5,0,0:0:0:0:
248,113,74724,1,0,0:0:0:0:
222,279,74874,2,0,P|214:234|181:172,1,112.5
62,83,75474,2,0,P|60:140|99:202,1,112.5,8|0,0:0|0:0,0:0:0:0:
230,326,76074,5,0,0:0:0:0:
181,137,76299,1,0,0:0:0:0:
376,179,76524,1,0,0:0:0:0:
309,254,76674,6,0,P|285:228|275:162,1,84.375,8|0,0:0|0:0,0:0:0:0:
287,16,77124,1,0,0:0:0:0:
371,111,77274,5,0,0:0:0:0:
188,115,77499,1,0,0:0:0:0:
300,272,77724,1,0,0:0:0:0:
210,334,77874,6,0,B|212:303|206:279|175:244,1,84.375,8|0,0:0|0:0,0:0:0:0:
37,142,78324,1,0,0:0:0:0:
41,259,78474,6,0,P|87:242|140:177,1,112.5
170,34,79074,1,8,0:0:0:0:
347,220,79374,5,0,0:0:0:0:
271,88,79524,1,0,0:0:0:0:
196,217,79674,2,0,P|186:179|131:128,1,112.5
16,80,80274,5,8,0:0:0:0:
130,288,80574,1,0,0:0:0:0:
66,76,80874,2,0,P|118:70|180:80,1,112.5
401,114,81474,5,8,0:0:0:0:
209,224,81774,1,0,0:0:0:0:
306,89,81924,1,0,0:0:0:0:
127,116,82074,2,0,P|183:85|235:88,1,112.5
423,106,82674,5,8,0:0:0:0:
243,286,82974,1,0,0:0:0:0:
149,44,83274,1,0,0:0:0:0:
411,263,83874,6,0,P|350:273|297:249,1,112.5,8|0,0:0|0:0,0:0:0:0:
185,184,84324,1,0,0:0:0:0:
357,182,84474,2,0,P|306:163|256:123,1,112.5
169,14,85074,5,8,0:0:0:0:
410,177,85374,1,0,0:0:0:0:
141,74,85674,2,0,P|133:106|153:189,1,112.5
209,296,86124,1,0,0:0:0:0:
240,353,86274,6,0,P|260:318|266:243,1,112.5,8|0,0:0|0:0,0:0:0:0:
268,91,86724,1,0,0:0:0:0:
280,32,86874,6,0,P|287:77|310:143,1,112.5
369,303,87324,1,0,0:0:0:0:
422,331,87474,6,0,P|401:302|338:248,1,112.5,8|0,0:0|0:0,0:0:0:0:
188,78,87924,1,0,0:0:0:0:
128,64,88074,6,0,P|154:123|226:118,1,135.000005149842
336,41,88974,1,0,0:0:0:0:
246,219,89274,1,0,0:0:0:0:
259,229,89349,1,0,0:0:0:0:
275,237,89424,1,0,0:0:0:0:
291,242,89499,1,0,0:0:0:0:
309,244,89574,1,0,0:0:0:0:
485,227,89874,5,0,0:0:0:0:
310,108,90174,1,0,0:0:0:0:
469,257,90474,2,0,P|441:291|352:294,1,135.000005149842
361,50,91374,5,8,0:0:0:0:
448,234,91674,2,0,P|416:213|318:204,1,135.000005149842
161,238,92574,1,0,0:0:0:0:
352,306,92874,1,2,0:0:0:0:
437,342,93474,6,0,B|441:303|441:303|403:281,1,67.5000025749208
308,355,94074,1,0,0:0:0:0:
428,221,94374,1,0,0:0:0:0:
226,334,94674,1,0,0:0:0:0:
413,142,94974,1,0,0:0:0:0:
145,325,95274,1,0,0:0:0:0:
404,44,95574,1,0,0:0:0:0:
60,305,95874,1,0,0:0:0:0:
197,73,96174,5,0,0:0:0:0:
207,245,96324,1,0,0:0:0:0:
381,138,96474,2,0,P|341:117|309:109,1,67.5000025749208
113,63,97074,5,2,0:0:0:0:
142,244,97224,1,0,0:0:0:0:
177,72,97374,1,0,0:0:0:0:
211,244,97524,1,0,0:0:0:0:
240,64,97674,2,0,P|286:71|318:59,1,67.5000025749208
431,228,98274,6,0,P|396:215|355:230,1,67.5000025749208
201,332,98874,1,0,0:0:0:0:
391,314,99174,1,0,0:0:0:0:
147,179,99474,1,0,0:0:0:0:
406,252,99774,2,0,B|360:233|326:251,1,67.5000025749208
165,275,100674,5,8,0:0:0:0:
300,44,100974,1,0,0:0:0:0:
146,124,101124,2,0,P|173:120|191:126,1,33.7500012874604
362,233,101574,6,0,B|329:243|289:236,1,67.5000025749208,0|8,0:0|0:0,0:0:0:0:
139,198,102024,1,8,0:0:0:0:
328,166,102174,1,8,0:0:0:0:
174,280,102324,1,8,0:0:0:0:
245,105,102474,1,8,0:0:0:0:
376,48,103074,6,0,P|400:80|400:112,1,67.5000025749208
456,192,103674,6,0,P|416:216|384:216,1,67.5000025749208
355,307,104274,6,0,P|315:283|301:256,1,67.5000025749208
200,273,104874,6,0,P|213:230|229:208,1,67.5000025749208
327,84,105324,1,0,0:0:0:0:
440,202,105474,2,0,P|411:225|371:230,1,67.5000025749208
129,338,106074,6,0,B|153:295|153:295|206:314|247:283,1,135.000005149842
314,243,106974,1,2,0:0:0:0:
235,211,107274,2,0,B|187:182|187:182|258:125,1,135.000005149842
315,50,108174,2,0,P|331:89|361:115,1,67.5000025749208
435,151,108774,1,6,0:0:0:0:
415,284,109374,6,0,P|369:259|351:243,1,67.5000025749208,0|2,0:0|0:0,0:0:0:0:
264,155,110124,1,4,0:0:0:0:
220,242,110574,2,0,P|267:252|296:246,1,67.5000025749208
400,209,111474,5,0,0:0:0:0:
253,101,111774,1,0,0:0:0:0:
368,248,112074,2,0,P|343:274|241:296,1,135.000005149842
114,274,112974,5,0,0:0:0:0:
237,156,113274,1,0,0:0:0:0:
61,129,113574,1,4,0:0:0:0:
114,274,113874,2,0,P|154:304|181:304,1,67.5000025749208
366,298,114474,1,4,0:0:0:0:
207,63,114924,1,4,0:0:0:0:
93,284,115374,1,4,0:0:0:0:
128,273,115674,6,0,P|156:305|189:305,1,67.5000025749208
342,257,116274,1,0,0:0:0:0:
192,226,116574,1,0,0:0:0:0:
409,236,116874,2,0,P|371:201|281:179,1,135.000005149842,0|8,0:0|0:0,0:0:0:0:
125,182,117774,5,0,0:0:0:0:
310,294,118074,2,8,P|288:286|316:325,1,135.000005149842,0|8,0:0|0:0,0:0:0:0:
442,208,118974,5,0,0:0:0:0:
276,223,119274,2,0,P|297:201|309:162,1,67.5000025749208
296,17,119874,5,0,0:0:0:0:
175,156,120174,6,0,P|193:152|251:157,1,67.5000025749208
221,229,120774,6,0,P|268:235|294:251,1,67.5000025749208
236,303,121374,6,0,P|271:324|286:349,1,67.5000025749208,0|4,0:0|0:0,0:0:0:0:
399,322,122274,6,0,P|351:298|319:216,1,135.000005149842
371,60,123474,6,0,P|419:84|451:166,1,135.000005149842
141,324,124674,6,0,P|93:300|61:218,1,135.000005149842,0|8,0:0|0:0,0:0:0:0:
49,167,125349,2,0,P|73:169|76:169,1,16.8750006437302,4|0,0:0|0:0,0:0:0:0:
77,112,125499,2,0,L|96:120,1,16.8750006437302,4|0,0:0|0:0,0:0:0:0:
121,72,125649,2,0,L|135:87,1,16.8750006437302,4|0,0:0|0:0,0:0:0:0:
180,48,125799,2,0,L|184:77,1,16.8750006437302,4|0,0:0|0:0,0:0:0:0:
245,189,126024,6,4,P|265:179|283:166,1,33.7500012874604
428,40,126474,6,0,P|454:81|441:122,1,90,8|0,0:0|0:0,0:0:0:0:
399,286,127074,1,2,0:0:0:0:
310,216,127224,1,0,0:0:0:0:
303,98,127374,2,0,P|266:106|243:117,1,45
128,193,127674,1,0,0:0:0:0:
287,260,127824,1,0,0:0:0:0:
196,67,127974,1,0,0:0:0:0:
64,218,128124,1,0,0:0:0:0:
281,212,128274,1,0,0:0:0:0:
327,193,128349,1,0,0:0:0:0:
363,162,128424,2,0,B|381:137|381:137|396:161,1,45
481,274,128874,6,0,P|432:303|402:314,1,90,8|0,0:0|0:0,0:0:0:0:
215,335,129474,1,0,0:0:0:0:
377,240,129624,1,0,0:0:0:0:
248,133,129774,2,0,P|230:123|188:111,2,45
192,263,130374,5,0,0:0:0:0:
389,257,130674,1,0,0:0:0:0:
207,118,130974,2,0,P|206:162|231:210,1,90,0|8,0:0|0:0,0:0:0:0:
309,324,131574,1,0,0:0:0:0:
352,139,131874,5,2,0:0:0:0:
220,201,132024,1,0,0:0:0:0:
345,278,132174,1,0,0:0:0:0:
335,96,132324,1,0,0:0:0:0:
216,258,132474,2,0,P|256:270|389:225,1,180
438,135,133374,5,0,0:0:0:0:
280,182,133674,1,8,0:0:0:0:
375,46,133899,6,0,P|346:78|319:94,1,67.5
208,143,134274,1,8,0:0:0:0:
408,207,134499,1,0,0:0:0:0:
315,22,134724,1,0,0:0:0:0:
446,151,134874,6,0,P|425:177|390:189,1,67.5,8|0,0:0|0:0,0:0:0:0:
233,230,135324,1,0,0:0:0:0:
283,124,135474,5,8,0:0:0:0:
128,250,135699,1,0,0:0:0:0:
342,301,135924,1,0,0:0:0:0:
227,325,136074,6,0,P|281:298|233:207,1,180,0|8,0:0|0:0,0:0:0:0:
81,174,136974,1,0,0:0:0:0:
197,71,137124,2,0,P|185:103|191:130,1,45
365,81,137574,5,0,0:0:0:0:
219,265,137874,1,2,0:0:0:0:
113,36,138174,1,0,0:0:0:0:
266,269,138474,2,0,P|308:252|234:218,1,180,0|8,0:0|0:0,0:0:0:0:
143,331,139374,5,0,0:0:0:0:
72,184,139524,1,0,0:0:0:0:
221,310,139674,6,0,P|256:324|294:216,1,180
171,132,140424,1,0,0:0:0:0:
319,170,140574,1,0,0:0:0:0:
218,49,140724,1,0,0:0:0:0:
266,226,140874,2,0,B|282:280|282:280|207:252|156:231,1,180,0|8,0:0|0:0,0:0:0:0:
79,203,141624,5,0,0:0:0:0:
204,209,141774,1,0,0:0:0:0:
133,95,141924,1,0,0:0:0:0:
200,222,142074,2,0,P|240:253|286:245,1,90
468,155,142674,1,8,0:0:0:0:
439,284,142974,5,0,0:0:0:0:
261,82,143274,1,2,0:0:0:0:
208,290,143574,5,0,0:0:0:0:
110,127,143724,1,0,0:0:0:0:
324,133,143874,2,0,P|283:153|260:200,1,90,2|0,0:0|0:0,0:0:0:0:
432,248,144324,5,0,0:0:0:0:
222,338,144474,2,0,P|253:314|278:268,1,90,2|0,0:0|0:0,0:0:0:0:
318,84,144924,1,0,0:0:0:0:
177,215,145074,1,0,0:0:0:0:
193,170,145149,1,0,0:0:0:0:
230,137,145224,1,0,0:0:0:0:
273,128,145299,1,0,0:0:0:0:
316,145,145374,1,0,0:0:0:0:
472,268,145524,1,0,0:0:0:0:
254,349,145674,6,0,B|224:358|224:358|187:344|187:344|173:300|173:300|195:263|195:263|224:256|224:256,1,180,0|12,0:0|0:0,0:0:0:0:
358,329,146424,1,0,0:0:0:0:
414,211,146574,2,0,P|383:200|368:182,2,45
436,117,147024,2,0,P|429:82|421:55,3,45,0|0|0|8,0:0|0:0|0:0|0:0,0:0:0:0:
281,39,147774,6,0,P|242:63|215:114,1,90,0|4,0:0|0:0,0:0:0:0:
155,281,148674,6,0,P|136:238|145:192,1,90,8|0,0:0|0:0,0:0:0:0:
184,39,149124,2,0,P|188:55|196:63,1,22.5
259,133,149274,2,0,P|267:98|277:86,1,45
368,26,149574,1,0,0:0:0:0:
368,152,149724,1,0,0:0:0:0:
246,57,149874,1,8,0:0:0:0:
376,269,150174,2,0,P|322:243|275:234,1,90,0|4,0:0|0:0,0:0:0:0:
93,225,151074,5,8,0:0:0:0:
64,80,151224,1,0,0:0:0:0:
231,17,151374,1,0,0:0:0:0:
102,84,151524,1,0,0:0:0:0:
259,117,151674,2,0,P|294:127|336:168,1,90
410,267,152274,6,0,P|366:282|333:281,1,67.5,8|0,0:0|0:0,0:0:0:0:
295,276,152574,6,0,B|318:251|331:212|331:212,1,67.5,4|0,0:0|0:0,0:0:0:0:
335,176,152874,6,0,P|296:180|254:168,1,67.5
119,146,153324,1,0,0:0:0:0:
180,243,153474,2,0,P|212:229|242:186,1,67.5
314,71,153924,1,0,0:0:0:0:
335,192,154074,5,0,0:0:0:0:
136,239,154299,1,0,0:0:0:0:
199,57,154524,1,0,0:0:0:0:
320,104,154674,5,0,0:0:0:0:
123,215,154899,1,0,0:0:0:0:
142,15,155124,1,0,0:0:0:0:
89,81,155274,6,0,P|79:114|101:181,1,90
170,336,155874,1,12,0:0:0:0:
30,242,156024,1,0,0:0:0:0:
195,154,156174,1,0,0:0:0:0:
87,290,156324,1,0,0:0:0:0:
262,220,156474,2,0,P|305:196|329:144,1,90
152,96,157074,6,0,P|172:116|230:149,2,90,8|0|0,0:0|0:0|0:0,0:0:0:0:
405,196,158274,5,8,0:0:0:0:
267,75,158424,1,0,0:0:0:0:
247,237,158574,1,0,0:0:0:0:
366,148,158724,1,2,0:0:0:0:
323,126,158799,1,0,0:0:0:0:
274,127,158874,2,0,P|235:136|203:186,1,90
186,312,159324,1,0,0:0:0:0:
112,186,159474,2,0,P|157:170|187:132,1,90,8|0,0:0|0:0,0:0:0:0:
230,20,160074,5,0,0:0:0:0:
104,258,160374,1,0,0:0:0:0:
351,149,160674,2,0,P|316:151|298:160,1,45,8|0,0:0|0:0,0:0:0:0:
169,187,160974,1,0,0:0:0:0:
303,276,161124,1,0,0:0:0:0:
293,103,161274,2,0,B|273:116|260:137|259:137,1,45
209,269,161574,6,0,P|253:279|261:279,1,45
444,204,161874,1,8,0:0:0:0:
196,118,162174,1,0,0:0:0:0:
441,152,162474,2,0,P|425:174|365:201,1,90
220,223,162924,5,0,0:0:0:0:
348,116,163074,2,0,P|281:123|242:109,1,90
109,64,163524,5,0,0:0:0:0:
302,38,163674,2,0,P|263:28|211:48,1,90
92,127,164124,5,0,0:0:0:0:
274,133,164274,2,0,P|236:161|226:203,1,90
227,340,164724,1,0,0:0:0:0:
317,213,164874,1,0,0:0:0:0:
420,62,165474,6,0,P|446:83|423:175,1,135.000005149842
317,230,166674,1,0,0:0:0:0:
355,157,166974,1,0,0:0:0:0:
268,162,167274,6,0,P|239:165|277:116,1,135.000005149842,4|0,0:0|0:0,0:0:0:0:
372,141,168174,1,0,0:0:0:0:
265,105,168474,6,0,P|239:90|252:152,1,135.000005149842,4|0,0:0|0:0,0:0:0:0:
425,107,169674,5,0,0:0:0:0:
231,300,170274,5,0,0:0:0:0:
290,153,170574,1,0,0:0:0:0:
151,230,170874,1,0,0:0:0:0:
384,191,171174,1,0,0:0:0:0:
241,334,171474,1,0,0:0:0:0:
255,90,171774,1,0,0:0:0:0:
89,274,172074,1,0,0:0:0:0:
405,148,172374,2,0,P|391:156|359:210,1,67.5000025749208
150,322,172974,2,0,P|176:294|203:266,1,67.5000025749208
208,165,173424,5,0,0:0:0:0:
277,267,173574,1,0,0:0:0:0:
294,143,173724,1,0,0:0:0:0:
198,277,173874,1,0,0:0:0:0:
345,230,174024,1,0,0:0:0:0:
221,151,174174,1,0,0:0:0:0:
224,320,174324,1,0,0:0:0:0:
319,168,174474,1,0,0:0:0:0:
87,304,175074,6,0,B|76:272|93:218|183:215|190:291|190:291|253:273|233:223,1,270.000010299683,0|8,0:0|0:0,0:0:0:0:
209,122,176574,1,0,0:0:0:0:
314,158,176874,2,0,P|287:193|195:226,1,135.000005149842,0|8,0:0|0:0,0:0:0:0:
69,220,177624,1,0,0:0:0:0:
171,165,177774,1,0,0:0:0:0:
41,134,177924,1,0,0:0:0:0:
156,258,178074,2,0,P|192:285|283:268,1,135.000005149842,0|8,0:0|0:0,0:0:0:0:
402,207,179274,6,0,P|379:205|342:165,1,67.5000025749208
346,52,179874,6,0,P|313:66|290:96,1,67.5000025749208
250,248,180474,6,0,P|243:208|213:187,1,67.5000025749208
108,94,181074,1,0,0:0:0:0:
76,262,181374,5,0,0:0:0:0:
168,183,181524,2,0,P|192:191|214:185,1,33.7500012874604
436,122,181974,5,0,0:0:0:0:
251,78,182124,1,0,0:0:0:0:
317,187,182274,2,0,P|328:194|275:212,1,135.000005149842
185,59,183174,5,0,0:0:0:0:
98,164,183474,1,0,0:0:0:0:
295,82,183774,1,0,0:0:0:0:
221,244,184074,2,0,B|206:275|206:275|280:276|280:276|273:245,1,135.000005149842
246,108,184974,1,0,0:0:0:0:
369,165,185274,1,0,0:0:0:0:
227,216,185574,2,0,B|187:235|187:235|283:272,1,135.000005149842
407,310,186474,5,0,0:0:0:0:
413,103,186924,1,0,0:0:0:0:
326,298,187374,2,0,P|279:286|263:271,1,67.5000025749208
153,141,187974,5,0,0:0:0:0:
236,227,188124,1,0,0:0:0:0:
280,104,188274,1,0,0:0:0:0:
390,277,188574,6,0,P|361:287|316:276,1,67.5000025749208
201,183,189324,1,0,0:0:0:0:
199,318,189774,2,0,P|236:312|265:281,1,67.5000025749208
325,138,190374,2,0,L|336:208,1,67.5000025749208
347,332,190974,1,0,0:0:0:0:
223,328,191274,2,0,B|224:288|246:250|273:231,1,101.250003862381
404,118,192174,1,0,0:0:0:0:
195,170,192474,1,0,0:0:0:0:
355,269,192774,6,0,P|350:233|320:201,1,67.5000025749208,0|8,0:0|0:0,0:0:0:0:
225,113,193374,1,0,0:0:0:0:
138,202,193674,2,0,P|176:227|210:226,1,67.5000025749208
315,228,194274,6,0,P|347:222|374:202,1,67.5000025749208,8|0,0:0|0:0,0:0:0:0:
287,113,194874,1,0,0:0:0:0:
196,228,195474,6,0,P|164:222|130:195,1,67.5000025749208,8|0,0:0|0:0,0:0:0:0:
225,113,196074,1,0,0:0:0:0:
402,176,196674,6,0,P|379:197|336:208,1,67.5000025749208
199,214,197124,2,0,P|217:178|274:150,1,101.250003862381
370,73,197724,2,0,B|391:101|397:122|397:152|406:196|373:215|329:232|276:220,1,236.250009012223
101,198,199074,1,0,0:0:0:0:
198,126,199374,2,0,L|168:265,1,135.000005149842
145,369,200274,1,0,0:0:0:0:
275,260,200574,2,0,P|251:288|259:233,1,135.000005149842
389,166,201474,5,0,0:0:0:0:
244,71,202074,2,0,P|281:114|265:195,1,135.000005149842
179,133,203274,1,0,0:0:0:0:
258,255,203874,6,0,L|214:233,1,33.7500012874604
172,91,204174,2,0,L|216:112,1,33.7500012874604
62,186,204474,2,0,L|130:216,1,67.5000025749208
333,288,205074,1,0,0:0:0:0:
341,68,205674,5,0,0:0:0:0:
188,92,205974,2,0,P|210:105|214:125,2,33.7500012874604
275,210,206424,1,0,0:0:0:0:
158,175,206574,2,0,B|151:226|173:249,1,67.5000025749208
236,363,207474,6,0,P|245:313|248:301,1,50.6250019311906
298,291,207774,6,0,P|266:271|256:251,1,50.6250019311906
313,243,208074,6,0,P|297:223|286:176,1,67.5000025749208
280,42,208674,5,0,0:0:0:0:
232,147,208824,1,0,0:0:0:0:
356,124,208974,1,0,0:0:0:0:
223,57,209124,1,0,0:0:0:0:
318,201,209274,2,0,P|334:244|325:277,1,67.5000025749208
190,355,209874,5,0,0:0:0:0:
154,156,210174,2,0,P|190:182|202:210,1,67.5000025749208
223,341,210699,1,0,0:0:0:0:
359,211,210924,1,0,0:0:0:0:
284,229,211074,5,0,0:0:0:0:
195,79,211299,1,0,0:0:0:0:
380,59,211524,1,0,0:0:0:0:
319,105,211674,5,0,0:0:0:0:
157,186,211899,1,0,0:0:0:0:
338,229,212124,2,0,P|312:240|293:239,1,33.7500012874604
128,240,212499,2,0,P|164:222|180:204,1,50.6250019311906
262,98,212874,1,0,0:0:0:0:
348,31,213474,6,0,L|370:50,1,16.8750006437302
358,115,213624,2,0,L|340:102,1,16.8750006437302
268,111,213774,2,0,L|293:125,1,16.8750006437302
296,191,213924,2,0,L|261:172,1,33.7500012874604
109,160,214374,6,0,P|114:187|158:210,1,67.5000025749208
209,142,214974,1,0,0:0:0:0:
223,256,215274,2,0,L|311:141,1,135.000005149842
384,31,216024,1,0,0:0:0:0:
253,118,216174,1,0,0:0:0:0:
421,97,216324,1,0,0:0:0:0:
374,227,216474,2,0,L|346:152,1,67.5000025749208
304,27,217074,6,0,L|270:78,1,50.6250019311906
235,92,217374,6,0,L|241:144,1,50.6250019311906
293,160,217674,6,0,P|306:192|231:192,1,135.000005149842
142,84,218424,1,0,0:0:0:0:
138,229,218574,1,0,0:0:0:0:
237,99,218724,1,0,0:0:0:0:
72,160,218874,1,0,0:0:0:0:
299,213,219174,6,0,P|246:259|243:268,1,67.5000025749208
335,353,219774,2,0,P|363:336|383:309,1,67.5000025749208
435,281,220149,2,0,P|412:260|406:247,1,33.7500012874604
393,211,220374,5,0,0:0:0:0:
485,69,220524,1,0,0:0:0:0:
365,48,220674,5,0,0:0:0:0:
481,228,220899,1,0,0:0:0:0:
269,59,221124,1,0,0:0:0:0:
386,40,221274,5,0,0:0:0:0:
274,241,221499,1,0,0:0:0:0:
201,33,221724,1,0,0:0:0:0:
310,150,221874,1,4,0:0:0:0:
155,58,222024,1,4,0:0:0:0:
406,137,222174,1,4,0:0:0:0:
129,103,222324,1,4,0:0:0:0:
479,69,222474,1,4,0:0:0:0:
168,191,223074,5,2,0:0:0:0:
314,86,223224,1,2,0:0:0:0:
250,269,223374,1,2,0:0:0:0:
211,78,223524,1,2,0:0:0:0:
342,207,223674,1,2,0:0:0:0:
156,297,223974,6,0,P|137:240|161:165,1,135.000005149842
262,18,224574,1,0,0:0:0:0:
360,232,224874,2,0,B|305:215|251:143|251:143|219:216,1,202.500007724762,4|0,0:0|0:0,0:0:0:0:
158,340,225474,1,2,0:0:0:0:
292,224,225624,1,2,0:0:0:0:
91,285,225774,1,2,0:0:0:0:
287,329,225924,1,2,0:0:0:0:
148,182,226074,2,0,P|136:165|216:119,1,135.000005149842,2|0,0:0|0:0,0:0:0:0:
311,65,226674,6,2,P|331:94|331:151,1,67.5000025749208
365,206,226974,2,0,P|339:238|291:254,1,67.5000025749208
232,274,227274,1,4,0:0:0:0:
94,107,227874,6,0,B|124:143|161:136,1,67.5000025749208
215,42,228174,2,0,P|259:56|288:142,1,135.000005149842
203,290,228624,1,2,0:0:0:0:
385,212,228774,1,2,0:0:0:0:
204,174,228924,1,2,0:0:0:0:
366,250,229074,2,0,P|328:219|298:126,1,135.000005149842
290,12,229674,5,0,0:0:0:0:
148,193,229899,1,8,0:0:0:0:
385,153,230124,2,0,P|351:177|328:203,1,67.5000025749208
318,342,230499,2,0,P|265:339|233:284,1,101.250003862381,8|0,0:0|0:0,0:0:0:0:
307,245,230874,5,0,0:0:0:0:
238,81,231099,1,8,0:0:0:0:
442,113,231324,1,0,0:0:0:0:
355,166,231474,5,0,0:0:0:0:
120,205,231699,1,8,0:0:0:0:
299,351,231924,1,0,0:0:0:0:
318,264,232074,5,4,0:0:0:0:
209,81,232674,6,0,P|185:112|172:148,1,67.5000025749208
180,273,232974,1,2,0:0:0:0:
262,153,233124,1,2,0:0:0:0:
73,218,233274,2,2,P|79:280|128:333,1,135.000005149842,0|0,0:0|0:0,0:0:0:0:
327,353,233874,5,0,0:0:0:0:
186,160,234174,1,0,0:0:0:0:
342,343,234474,2,0,L|188:291,1,135.000005149842,4|0,0:0|0:0,0:0:0:0:
63,249,235074,5,0,0:0:0:0:
243,203,235224,1,0,0:0:0:0:
85,291,235374,1,0,0:0:0:0:
261,263,235524,1,0,0:0:0:0:
90,341,235674,2,0,P|131:352|227:348,1,135.000005149842
407,339,236274,6,0,L|349:277,1,67.5000025749208
376,115,236574,6,0,B|351:148|307:172|309:172,1,67.5000025749208
231,286,236874,6,0,P|253:202|232:202,1,135.000005149842,4|0,0:0|0:0,0:0:0:0:
64,156,237474,5,0,0:0:0:0:
182,60,237624,1,0,0:0:0:0:
113,198,237774,1,0,0:0:0:0:
76,39,237924,1,0,0:0:0:0:
285,83,238074,1,0,0:0:0:0:
257,294,238374,6,0,L|195:333,1,67.5000025749208
77,272,238674,6,0,L|202:204,1,135.000005149842
386,86,239274,1,6,0:0:0:0:
338,257,239499,1,2,0:0:0:0:
196,123,239724,1,2,0:0:0:0:
296,162,239874,5,2,0:0:0:0:
86,276,240099,1,2,0:0:0:0:
83,44,240324,1,2,0:0:0:0:
100,152,240474,5,6,0:0:0:0:
320,17,240699,1,2,0:0:0:0:
329,293,240924,1,2,0:0:0:0:
250,175,241224,1,2,0:0:0:0:
367,42,241374,1,2,0:0:0:0:
393,233,241524,1,2,0:0:0:0:
230,93,241674,2,0,P|248:129|249:233,1,135.000005149842,4|0,0:0|0:0,0:0:0:0:
218,364,242274,5,0,0:0:0:0:
148,229,242424,1,0,0:0:0:0:
285,296,242574,1,0,0:0:0:0:
115,317,242724,1,0,0:0:0:0:
257,197,242874,1,0,0:0:0:0:
447,286,243174,6,0,P|428:242|392:211,1,67.5000025749208
386,89,243474,2,0,P|329:101|296:125,1,67.5000025749208
224,227,243774,1,0,0:0:0:0:
443,162,244074,2,0,L|344:279,1,135.000005149842,4|0,0:0|0:0,0:0:0:0:
242,351,244674,6,0,L|210:337,1,33.7500012874604
106,233,244824,2,0,L|153:252,1,33.7500012874604
254,274,244974,2,0,L|277:216,1,33.7500012874604
205,130,245124,2,0,L|280:159,1,67.5000025749208
440,208,245574,5,0,0:0:0:0:
243,211,245874,1,2,0:0:0:0:
343,345,246174,2,0,P|319:308|223:297,1,135.000005149842,0|4,0:0|0:0,0:0:0:0:
125,317,246774,1,0,0:0:0:0:
275,345,247074,5,0,0:0:0:0:
225,250,247224,1,0,0:0:0:0:
251,345,247374,1,0,0:0:0:0:
330,250,247524,1,0,0:0:0:0:
230,342,247674,2,0,P|199:325|159:237,1,135.000005149842
165,81,248274,5,0,0:0:0:0:
359,190,248574,1,0,0:0:0:0:
149,287,248874,2,0,P|166:242|212:204,1,101.250003862381,4|0,0:0|0:0,0:0:0:0:
416,151,249324,1,0,0:0:0:0:
336,352,249474,6,0,P|291:296|296:250,1,101.250003862381,4|0,0:0|0:0,0:0:0:0:
323,93,249924,1,0,0:0:0:0:
164,248,250074,2,0,B|239:233|227:174,1,101.250003862381,4|0,0:0|0:0,0:0:0:0:
220,21,250524,1,0,0:0:0:0:
128,73,250674,5,4,0:0:0:0:
236,198,250899,1,0,0:0:0:0:
283,27,251124,1,0,0:0:0:0:
215,92,251274,6,0,P|274:102|317:164,1,135.000005149842,4|0,0:0|0:0,0:0:0:0:
310,332,251874,6,0,L|246:287,1,67.5000025749208
261,74,252174,2,0,L|326:122,1,67.5000025749208
157,233,252474,1,0,0:0:0:0:
410,170,252774,1,0,0:0:0:0:
103,197,253074,1,0,0:0:0:0:
449,215,253374,1,0,0:0:0:0:
102,140,253674,1,4,0:0:0:0:
373,75,254274,5,0,0:0:0:0:
268,145,254424,1,0,0:0:0:0:
405,187,254574,2,0,P|439:201|453:237,2,67.5000025749208
144,190,255174,1,0,0:0:0:0:
341,325,255474,1,0,0:0:0:0:
345,175,255624,1,0,0:0:0:0:
209,259,255774,1,0,0:0:0:0:
403,318,255924,2,0,B|398:261|385:227,1,67.5000025749208
353,75,256674,6,0,L|386:138,1,67.5000025749208
349,244,256974,2,0,P|299:233|271:208,1,67.5000025749208
202,121,257274,1,0,0:0:0:0:
448,47,257574,1,0,0:0:0:0:
436,261,257874,1,0,0:0:0:0:
217,77,258174,2,0,L|170:215,1,135.000005149842
107,351,258699,1,0,0:0:0:0:
251,291,258924,6,0,L|296:202,1,67.5000025749208
339,94,259299,1,0,0:0:0:0:
475,130,259524,6,0,L|422:201,1,67.5000025749208
351,291,259974,1,0,0:0:0:0:
311,79,260274,1,0,0:0:0:0:
231,287,260574,1,0,0:0:0:0:
158,32,260874,2,0,P|132:55|149:167,1,135.000005149842
226,324,261474,1,0,0:0:0:0:
249,118,261774,5,0,0:0:0:0:
183,240,261924,1,0,0:0:0:0:
341,222,262074,2,0,B|383:229|383:229|286:292,1,135.000005149842
145,344,262674,6,0,P|99:318|56:238,1,135.000005149842
69,90,263274,1,0,0:0:0:0:
230,278,263724,1,0,0:0:0:0:
294,42,264174,1,0,0:0:0:0:
148,110,264474,2,0,P|129:162|166:237,1,135.000005149842
222,358,265074,2,0,L|289:229,1,135.000005149842
342,89,265674,5,0,0:0:0:0:
167,172,266124,2,0,P|198:203|222:218,1,67.5000025749208
431,272,266574,1,0,0:0:0:0:
269,144,266874,1,0,0:0:0:0:
366,180,267174,1,0,0:0:0:0:
145,132,267474,2,0,L|229:260,1,135.000005149842
32,332,268074,2,0,L|238:329,1,202.500007724762
342,327,268674,5,0,0:0:0:0:
220,148,268974,1,0,0:0:0:0:
291,351,269274,2,0,B|238:373|159:326,1,135.000005149842
44,202,269874,6,0,L|104:162,4,67.5000025749208
257,162,271074,2,0,L|192:209,4,67.5000025749208
311,324,272274,2,0,P|327:271|317:236,4,67.5000025749208
313,73,273474,5,0,0:0:0:0:
167,160,273774,2,0,P|203:191|232:198,1,67.5000025749208
178,28,274374,1,0,0:0:0:0:
382,66,274524,1,0,0:0:0:0:
133,216,274974,6,0,P|199:226|225:214,1,67.5000025749208
343,95,275274,1,0,0:0:0:0:
398,264,275874,6,0,P|354:282|293:282,2,90
256,192,276774,12,0,282474,0:0:0:0:
70,304,283255,6,0,P|129:314|172:295,1,90
252,136,283870,2,0,B|243:167|258:194,1,45
295,303,284354,1,0,0:0:0:0:
391,141,285819,6,0,P|356:177|301:176,1,90
129,155,286474,1,0,0:0:0:0:
237,96,286643,2,0,P|225:137|231:194,1,90
256,326,287840,5,0,0:0:0:0:
117,196,288168,1,0,0:0:0:0:
278,305,288497,1,0,0:0:0:0:
201,93,289154,6,0,P|211:123|228:143,1,45
323,235,289621,1,0,0:0:0:0:
408,73,290823,6,0,B|397:92|387:105|322:126,1,90
147,130,291362,1,0,0:0:0:0:
307,268,291599,1,0,0:0:0:0:
218,111,291757,1,0,0:0:0:0:
112,247,291994,1,0,0:0:0:0:
301,178,292231,1,0,0:0:0:0:
163,321,292468,1,0,0:0:0:0:
337,320,292704,2,0,P|383:318|411:303,2,67.5
165,311,293415,1,0,0:0:0:0:
264,153,293652,1,0,0:0:0:0:
263,335,293946,6,0,P|330:303|339:278,1,90
387,128,294602,1,0,0:0:0:0:
215,166,294776,2,0,P|257:171|291:211,1,90
128,267,296599,5,0,0:0:0:0:
214,104,296927,1,0,0:0:0:0:
216,259,297245,1,0,0:0:0:0:
292,157,297404,2,0,P|316:127|382:116,1,90
442,226,298552,5,0,0:0:0:0:
323,109,298875,1,0,0:0:0:0:
309,260,299199,2,0,P|260:257|224:228,1,90
129,103,299855,5,0,0:0:0:0:
120,266,300024,2,0,P|171:221|201:196,1,90
323,57,301181,6,0,P|291:82|271:136,1,90
273,274,301803,2,0,L|208:231,1,67.5
115,168,302310,1,0,0:0:0:0:
315,176,302495,2,0,L|162:172,1,135
87,63,303594,6,0,P|96:88|156:120,1,90
301,132,304362,2,0,L|218:205,1,90
132,277,305205,1,0,0:0:0:0:
290,252,305703,6,0,P|317:230|349:162,1,90
224,158,306369,1,0,0:0:0:0:
434,97,307373,6,0,B|385:96|385:96|436:161|436:161|286:143,1,270
131,99,310034,6,0,P|140:155|214:206,1,135
414,201,311045,1,0,0:0:0:0:
228,288,311377,1,0,0:0:0:0:
310,114,311705,1,0,0:0:0:0:
146,292,312043,2,0,P|171:248|184:204,1,90
363,277,312704,2,0,P|307:219|260:121,1,180
242,18,313709,1,0,0:0:0:0:
105,102,314380,6,0,B|110:136|138:167|168:175,1,90
187,286,315042,1,0,0:0:0:0:
316,99,315777,6,0,P|259:119|255:137,1,67.5
159,245,316391,1,0,0:0:0:0:
60,330,317087,6,0,P|118:317|136:299,1,67.5
47,186,317700,1,0,0:0:0:0:
161,67,318685,5,0,0:0:0:0:
60,164,319032,2,0,P|88:192|107:194,1,45
281,219,319705,2,0,L|239:244,1,45
121,163,320547,1,0,0:0:0:0:
351,90,321365,6,0,P|312:82|250:98,1,90
91,161,322680,1,0,0:0:0:0:
310,175,323035,1,0,0:0:0:0:
106,308,325423,5,0,0:0:0:0:
167,99,326063,1,0,0:0:0:0:
208,271,326773,1,0,0:0:0:0:
263,127,326955,2,0,P|252:182|261:232,1,90
