osu file format v14

[General]
AudioFilename: Porter Robinson & Madeon - Shelter (Pure 100% Remix).mp3
AudioLeadIn: 0
PreviewTime: 110401
Countdown: 0
SampleSet: Soft
StackLeniency: 0.2
Mode: 0
LetterboxInBreaks: 0
WidescreenStoryboard: 1

[Editor]
Bookmarks: 52801,72001,91201,110401,120001,129601,139201,148801,151201,170401,189601,208801,230401,240001,249601,259201,268801,289646,300940,312234,334822,357410,379998,402587
DistanceSpacing: 1
BeatDivisor: 8
GridSize: 4
TimelineZoom: 2.100001

[Metadata]
Title:Shelter (Pure 100% Remix)
TitleUnicode:Shelter (Pure 100% Remix)
Artist:Porter Robinson & Madeon
ArtistUnicode:Porter Robinson & Madeon
Creator:- AzRaeL -
Version:Psychic Sublimation
Source:Shelter
Tags:Rin EDM Electronic Dance Music A-1 Pictures Collaboration Collab 840 Japanese English
BeatmapID:2131480
BeatmapSetID:729292

[Difficulty]
HPDrainRate:5.5
CircleSize:3.8
OverallDifficulty:7.5
ApproachRate:9.2
SliderMultiplier:3.6
SliderTickRate:1

[Events]
//Background and Video events
0,0,"BG.jpg",0,0
//Break Periods
2,189801,198331
2,357918,368134
2,369212,379428
//Storyboard Layer 0 (Background)
//Storyboard Layer 1 (Fail)
//Storyboard Layer 2 (Pass)
//Storyboard Layer 3 (Foreground)
//Storyboard Layer 4 (Overlay)
//Storyboard Sound Samples

[TimingPoints]
52801,600,4,2,1,70,1,0
52801,-125,4,2,1,70,0,0
60001,-200,4,2,1,70,0,0
62401,-125,4,2,1,70,0,0
69601,-200,4,2,1,70,0,0
72601,-133.333333333333,4,2,1,70,0,0
74101,-100,4,2,1,70,0,0
74401,-133.333333333333,4,2,1,70,0,0
78301,-100,4,2,1,70,0,0
78901,-76.9230769230769,4,2,1,70,0,0
80101,-133.333333333333,4,2,1,70,0,0
80901,-133.333333333333,4,2,99,70,0,0
81001,-133.333333333333,4,2,1,70,0,0
81301,-133.333333333333,4,2,99,70,0,0
81601,-133.333333333333,4,2,1,70,0,0
87001,-125,4,2,1,70,0,0
90601,-100,4,2,1,70,0,0
100801,-100,4,3,1,70,0,0
105601,-100,4,1,1,70,0,0
109201,-200,4,2,1,50,0,0
110401,-55.5555555555556,4,2,1,80,0,1
111151,-66.6666666666667,4,2,1,80,0,1
112801,-55.5555555555556,4,2,1,80,0,1
113401,-66.6666666666667,4,2,1,80,0,1
113551,-66.6666666666667,4,2,2,80,0,1
114001,-66.6666666666667,4,2,1,80,0,1
117001,-66.6666666666667,4,2,2,80,0,1
117601,-66.6666666666667,4,2,1,80,0,1
117901,-66.6666666666667,4,2,1,80,0,1
120001,-500,4,2,2,80,0,1
120601,-500,4,2,1,80,0,1
120751,-66.6666666666667,4,2,1,80,0,1
121801,-55.5555555555556,4,2,1,80,0,1
122401,-66.6666666666667,4,2,1,80,0,1
123151,-66.6666666666667,4,2,2,80,0,1
123601,-66.6666666666667,4,2,1,80,0,1
124201,-55.5555555555556,4,2,1,80,0,1
124801,-66.6666666666667,4,2,1,80,0,1
126601,-55.5555555555556,4,2,2,80,0,1
127201,-50,4,2,1,80,0,1
127501,-55.5555555555556,4,2,1,80,0,1
127651,-62.5,4,2,1,80,0,1
127801,-50,4,2,1,80,0,1
128101,-55.5555555555556,4,2,1,80,0,1
128251,-62.5,4,2,1,80,0,1
128401,-50,4,2,1,80,0,1
128701,-55.5555555555556,4,2,1,80,0,1
128851,-62.5,4,2,1,80,0,1
129001,-66.6666666666667,4,2,2,80,0,1
129301,-100,4,2,2,80,0,1
129601,-66.6666666666667,4,2,3,80,0,1
129901,-66.6666666666667,4,2,1,80,0,1
132751,-66.6666666666667,4,2,2,80,0,1
133201,-66.6666666666667,4,2,1,80,0,1
134251,-50,4,2,1,80,0,1
134401,-66.6666666666667,4,2,1,80,0,1
136201,-66.6666666666667,4,2,2,80,0,1
136801,-66.6666666666667,4,2,1,80,0,1
139201,-100,4,2,2,80,0,1
139801,-100,4,2,1,80,0,1
139951,-66.6666666666667,4,2,1,80,0,1
141001,-55.5555555555556,4,2,1,80,0,1
141601,-66.6666666666667,4,2,1,80,0,1
142351,-66.6666666666667,4,2,2,80,0,1
142801,-66.6666666666667,4,2,1,80,0,1
143401,-55.5555555555556,4,2,1,80,0,1
144001,-66.6666666666667,4,2,1,80,0,1
145801,-55.5555555555556,4,2,2,80,0,1
146401,-50,4,2,1,80,0,1
146701,-55.5555555555556,4,2,1,80,0,1
146851,-62.5,4,2,1,80,0,1
147001,-55.5555555555556,4,2,1,70,0,1
147301,-62.5,4,2,1,70,0,1
147451,-71.4285714285714,4,2,1,70,0,1
147601,-62.5,4,2,1,60,0,1
147901,-71.4285714285714,4,2,1,60,0,1
148051,-83.3333333333333,4,2,1,60,0,1
148201,-71.4285714285714,4,2,1,50,0,1
148501,-83.3333333333333,4,2,1,50,0,1
148651,-100,4,2,1,50,0,1
148801,-100,4,2,1,40,0,0
150601,-100,4,2,1,70,0,0
151951,-133.333333333333,4,2,1,70,0,0
152251,-100,4,2,1,70,0,0
158401,-133.333333333333,4,2,1,70,0,0
160501,-100,4,2,1,70,0,0
160801,-133.333333333333,4,2,1,70,0,0
161301,-100,4,2,1,70,0,0
164101,-133.333333333333,4,2,1,70,0,0
165301,-66.6666666666667,4,2,1,70,0,0
165601,-133.333333333333,4,2,1,70,0,0
170101,-66.6666666666667,4,2,1,70,0,0
170401,-83.3333333333333,4,2,1,70,0,0
170901,-100,4,2,1,70,0,0
171901,-83.3333333333333,4,2,1,70,0,0
173301,-100,4,2,1,70,0,0
174301,-83.3333333333333,4,2,1,70,0,0
175701,-100,4,2,1,70,0,0
176701,-83.3333333333333,4,2,1,70,0,0
178101,-100,4,2,1,70,0,0
179101,-83.3333333333333,4,2,1,70,0,0
180501,-100,4,2,1,70,0,0
181501,-83.3333333333333,4,2,1,70,0,0
182901,-100,4,2,1,70,0,0
183901,-83.3333333333333,4,2,1,70,0,0
185301,-100,4,2,1,70,0,0
186301,-83.3333333333333,4,2,1,70,0,0
187801,-100,4,2,1,70,0,0
188551,-100,4,2,2,70,0,0
188901,-100,4,2,1,70,0,0
189151,-100,4,2,2,70,0,0
189501,-100,4,2,1,70,0,0
198901,-100,4,2,1,50,0,0
199201,-133.333333333333,4,2,1,50,0,0
208801,-200,4,2,1,70,0,0
223201,-100,4,2,1,70,0,0
223801,-83.3333333333333,4,2,1,70,0,0
225601,-83.3333333333333,4,2,4,70,0,0
228601,-83.3333333333333,4,2,1,70,0,0
230401,-83.3333333333333,4,2,10,70,0,0
230701,-55.5555555555556,4,2,10,70,0,1
231601,-100,4,2,1,70,0,0
232801,-100,4,2,10,70,0,0
233101,-55.5555555555556,4,2,10,70,0,1
234001,-100,4,2,1,70,0,0
235201,-50,4,2,10,70,0,0
235501,-66.6666666666667,4,2,10,70,0,1
236401,-100,4,2,1,70,0,0
237601,-100,4,2,10,70,0,0
237901,-66.6666666666667,4,2,10,70,0,1
238801,-100,4,2,1,70,0,0
239401,-100,4,2,2,70,0,0
240001,-100,4,2,10,70,0,0
240301,-50,4,2,10,70,0,1
241201,-125,4,2,1,70,0,0
242401,-125,4,2,10,70,0,0
242701,-50,4,2,10,70,0,1
243601,-125,4,2,1,70,0,0
244801,-125,4,2,10,70,0,0
245101,-50,4,2,10,70,0,1
246001,-125,4,2,1,70,0,0
247201,-125,4,2,10,70,0,0
247501,-50,4,2,10,70,0,1
248401,-125,4,2,4,70,0,0
249001,-125,4,2,4,20,0,0
249076,-125,4,2,4,30,0,0
249151,-125,4,2,4,40,0,0
249226,-125,4,2,4,50,0,0
249301,-125,4,2,4,60,0,0
249376,-125,4,2,4,70,0,0
249451,-125,4,2,4,80,0,0
249526,-125,4,2,4,90,0,0
249601,-250,4,2,10,80,0,0
249901,-50,4,2,10,80,0,1
250801,-100,4,2,1,80,0,0
252001,-133.333333333333,4,2,10,80,0,0
252301,-55.5555555555556,4,2,10,80,0,1
253201,-100,4,2,1,80,0,0
254401,-50,4,2,10,80,0,0
254701,-50,4,2,10,80,0,1
255151,-40,4,2,10,80,0,1
255601,-100,4,2,1,80,0,0
256201,-1000,4,2,1,80,0,0
256801,-125,4,2,10,80,0,0
257101,-45.4545454545455,4,2,10,80,0,1
258001,-100,4,2,1,80,0,0
258601,-100,4,2,2,80,0,0
258676,-100,4,2,2,80,0,0
258751,-100,4,2,2,80,0,0
258826,-100,4,2,2,80,0,0
258901,-100,4,2,2,80,0,0
258976,-100,4,2,2,80,0,0
259051,-100,4,2,2,80,0,0
259126,-100,4,2,2,80,0,0
259201,-100,4,2,10,80,0,0
259501,-50,4,2,10,80,0,1
260401,-125,4,2,1,80,0,0
261601,-125,4,2,10,80,0,0
261901,-50,4,2,10,80,0,1
262801,-62.5,4,2,1,80,0,0
264001,-125,4,2,10,80,0,0
264301,-50,4,2,10,80,0,1
265201,-62.5,4,2,1,80,0,0
266401,-62.5,4,2,1,100,0,0
268801,612.244897959184,4,2,1,70,1,0
271247,625,4,2,1,70,1,0
273747,638.297872340426,4,2,1,70,1,0
276300,652.173913043478,4,2,1,70,1,0
278908,666.666666666667,4,2,1,30,1,0
280241,-100,4,2,1,40,0,0
281574,-100,4,2,1,50,0,0
282908,-100,4,2,1,60,0,0
284241,-100,4,2,1,70,0,0
286908,-125,4,2,1,70,0,0
288235,705.882352941176,4,2,1,70,1,0
288235,-50,4,2,1,70,0,0
288940,-100,4,2,1,70,0,0
289646,352.941176470588,4,2,1,70,1,0
289646,-125,4,2,1,70,0,0
289998,-166.666666666667,4,2,1,70,0,0
300234,-200,4,2,1,70,0,0
300587,-250,4,2,1,70,0,0
300940,-133.333333333333,4,2,1,70,0,0
304469,-200,4,2,1,70,0,0
311528,-200,4,2,2,70,0,0
312234,-100,4,2,1,80,0,1
313646,-125,4,2,1,80,0,1
314351,-83.3333333333333,4,2,1,80,0,1
315057,-100,4,2,1,80,0,1
316469,-125,4,2,1,80,0,1
316822,-71.4285714285714,4,2,1,80,0,1
316998,-142.857142857143,4,2,1,80,0,1
317175,-83.3333333333333,4,2,1,80,0,1
317351,-166.666666666667,4,2,1,80,0,1
317528,-100,4,2,1,80,0,1
319293,-125,4,2,1,80,0,1
319998,-83.3333333333333,4,2,1,80,0,1
320704,-100,4,2,1,80,0,1
322116,-125,4,2,1,80,0,1
322469,-71.4285714285714,4,2,1,80,0,1
322822,-83.3333333333333,4,2,1,80,0,1
323175,-100,4,2,99,80,0,1
323528,-100,4,2,1,80,0,1
324940,-125,4,2,1,80,0,1
325646,-83.3333333333333,4,2,1,80,0,1
326351,-100,4,2,1,80,0,1
327763,-125,4,2,1,80,0,1
328116,-71.4285714285714,4,2,1,80,0,1
328293,-142.857142857143,4,2,1,80,0,1
328469,-83.3333333333333,4,2,1,80,0,1
328646,-166.666666666667,4,2,1,80,0,1
328822,-100,4,2,1,80,0,1
329175,-100,4,2,99,80,0,1
330587,-125,4,2,99,80,0,1
331293,-83.3333333333333,4,2,99,80,0,1
331998,-62.5,4,2,99,80,0,1
333587,-62.5,4,3,1,80,0,1
333763,-100,4,3,1,80,0,0
334822,-100,4,2,99,80,0,1
334998,-133.333333333333,4,2,99,80,0,1
335175,-100,4,2,99,80,0,1
335704,-133.333333333333,4,2,99,80,0,1
336057,-200,4,2,99,80,0,1
336234,-100,4,2,99,80,0,1
336940,-133.333333333333,4,2,99,80,0,1
337116,-100,4,2,99,80,0,1
337293,-66.6666666666667,4,2,99,80,0,1
337469,-200,4,2,99,80,0,1
337822,-100,4,2,99,80,0,1
338175,-200,4,2,99,80,0,1
338528,-100,4,2,99,80,0,1
338881,-100,4,2,99,80,0,1
339057,-133.333333333333,4,2,99,80,0,1
340116,-100,4,2,99,80,0,1
340293,-200,4,2,99,80,0,1
340645,-133.333333333333,4,2,99,80,0,1
340998,-100,4,2,99,80,0,1
341881,-133.333333333333,4,2,99,80,0,1
342587,-100,4,2,99,80,0,1
343116,-200,4,2,99,80,0,1
343469,-133.333333333333,4,2,99,80,0,1
344704,-100,4,2,99,80,0,1
345234,-76.9230769230769,4,2,99,80,0,1
345410,-133.333333333333,4,2,99,80,0,1
345763,-66.6666666666667,4,2,99,80,0,1
346293,-100,4,2,99,80,0,1
346645,-200,4,2,99,80,0,1
346998,-100,4,2,99,80,0,1
348763,-133.333333333333,4,2,99,80,0,1
349116,-100,4,2,99,80,0,1
349469,-133.333333333333,4,2,99,80,0,1
349822,-100,4,2,99,80,0,1
351763,-100,4,2,99,80,0,1
357410,-100,4,2,99,30,0,0
379998,-166.666666666667,4,2,1,70,0,0
398528,-200,4,2,1,65,0,0
399940,-250.000000000001,4,2,1,60,0,0
401351,-250.000000000001,4,2,1,50,0,0
406822,-250.000000000001,4,2,1,5,0,0

[Colours]
Combo1 : 0,192,64
Combo2 : 0,128,255
Combo3 : 20,255,176
Combo4 : 20,192,255
SliderBorder : 70,150,190
SliderTrackOverride : 70,70,70

[HitObjects]
168,268,52801,6,0,P|112:240|88:184,1,96,2|2,1:2|0:0,0:0:0:0:
270,135,53101,2,0,P|273:197|237:246,1,96,2|2,0:0|0:0,0:0:0:0:
104,114,53401,2,0,B|140:72|201:70|201:70|176:94|176:144,1,144,0|0,0:0|0:0,0:0:0:0:
251,325,54001,6,0,L|368:320,1,96,0|0,0:0|0:0,0:0:0:0:
503,252,54301,2,0,L|386:247,1,96,0|0,0:0|0:0,0:0:0:0:
313,230,54601,1,0,0:0:0:0:
440,337,54901,1,0,0:0:0:0:
364,44,55201,6,0,P|404:36|484:88,1,96,2|2,1:2|0:0,0:0:0:0:
308,141,55501,2,0,P|354:148|399:131,1,96,2|2,0:0|0:0,0:0:0:0:
248,68,55801,2,0,P|212:132|252:216,1,144,0|0,0:0|0:0,0:0:0:0:
280,349,56401,6,0,P|300:309|284:221,1,96,0|0,0:0|0:0,0:0:0:0:
207,285,56701,2,0,P|183:326|143:353,1,96,0|0,0:0|0:0,0:0:0:0:
49,192,57001,2,0,P|72:233|112:260,1,96,0|0,0:0|0:0,0:0:0:0:
230,196,57301,2,0,P|182:192|141:168,1,96,0|0,0:0|0:0,0:0:0:0:
88,88,57601,6,0,B|132:68|132:68|216:88,1,96,2|2,1:2|0:0,0:0:0:0:
268,70,57901,2,0,B|224:90|224:90|140:70,1,96,2|2,0:0|0:0,0:0:0:0:
141,168,58201,1,0,0:0:0:0:
278,170,58401,2,0,B|233:190|233:190|139:167,1,144,0|0,0:0|0:0,0:0:0:0:
50,176,58801,6,0,B|94:156|94:156|178:176,1,96,0|0,0:0|0:0,0:0:0:0:
36,316,59101,2,0,B|58:272|58:272|101:254,1,96,0|0,0:0|0:0,0:0:0:0:
289,252,59401,2,0,B|242:263|242:263|198:243,1,96,0|0,0:0|0:0,0:0:0:0:
339,114,59701,1,0,0:0:0:0:
148,143,59851,1,0,0:0:0:0:
148,143,59926,1,0,0:0:0:0:
148,143,60001,6,0,B|188:107|244:115|244:115|243:54|293:-15|384:-16|444:29|466:112|434:170|387:197|387:197|448:155|509:197,1,630,0|0,1:0|0:0,0:0:0:0:
456,368,62401,6,0,L|444:244,1,96,2|2,1:2|0:0,0:0:0:0:
322,268,62701,2,0,L|312:363,1,96,2|2,0:0|0:0,0:0:0:0:
387,197,63001,1,8,0:0:0:0:
387,197,63151,2,0,P|320:172|232:236,1,144,0|0,0:0|0:0,0:0:0:0:
167,222,63601,6,0,P|214:221|255:198,1,96,0|0,0:0|0:0,0:0:0:0:
253,63,63901,2,0,P|228:103|187:127,1,96,0|0,0:0|0:0,0:0:0:0:
161,36,64201,1,8,0:0:0:0:
256,198,64501,1,0,0:0:0:0:
95,294,64801,6,0,P|135:326|215:322,1,96,2|2,1:2|0:0,0:0:0:0:
256,198,65101,2,0,P|209:206|172:236,1,96,2|2,0:0|0:0,0:0:0:0:
95,371,65401,2,0,P|141:362|178:332,1,96,8|0,0:0|0:0,0:0:0:0:
197,148,65701,2,0,P|173:189|173:236,1,96,0|0,0:0|0:0,0:0:0:0:
353,285,66001,6,0,L|240:279,1,96,0|0,0:0|0:0,0:0:0:0:
279,109,66301,2,0,L|330:209,1,96,0|0,0:0|0:0,0:0:0:0:
417,214,66601,2,0,L|530:208,1,96,8|0,0:0|0:0,0:0:0:0:
430,37,66901,2,0,L|378:137,1,96,0|0,0:0|0:0,0:0:0:0:
353,285,67201,6,0,P|288:304|236:280,1,96,2|2,1:2|0:0,0:0:0:0:
111,235,67501,2,0,P|176:216|228:240,1,96,2|2,0:0|0:0,0:0:0:0:
167,312,67801,1,8,0:0:0:0:
296,208,68001,2,0,L|280:48,1,144,0|0,0:0|0:0,0:0:0:0:
118,52,68401,6,0,P|166:16|242:24,1,96,0|0,0:0|0:0,0:0:0:0:
142,184,68701,2,0,P|165:128|235:97,1,96,0|0,0:0|0:0,0:0:0:0:
364,105,69001,2,0,P|316:69|240:77,1,96,8|0,0:0|0:0,0:0:0:0:
244,199,69301,1,0,0:0:0:0:
371,297,69451,1,0,0:0:0:0:
371,297,69526,1,0,0:0:0:0:
371,297,69601,6,0,B|343:238|336:180|344:118|370:66|440:58|522:87|548:149|531:232|482:279|407:291|352:223|374:205|313:139|220:213,1,630,0|0,1:2|0:0,0:0:0:0:
103,36,72001,6,0,P|156:100|140:175,1,150,6|2,3:2|0:0,0:0:0:0:
123,241,72601,6,0,P|136:298|210:348,1,135.000005149842,8|0,3:2|0:0,0:0:0:0:
276,191,73101,1,0,0:0:0:0:
276,191,73201,2,0,P|227:191|186:222,1,90.0000034332277,0|0,3:0|0:0,0:0:0:0:
254,277,73501,2,0,P|237:323|252:372,1,90.0000034332277,8|0,0:3|0:0,0:0:0:0:
341,308,73801,2,0,P|388:319|435:298,1,90.0000034332277,8|8,3:2|0:3,0:0:0:0:
497,189,74101,6,0,B|421:158|379:186,1,120,0|8,0:0|0:3,0:0:0:0:
349,200,74401,2,0,P|316:133|345:73,1,135.000005149842,2|2,3:2|0:0,0:0:0:0:
341,213,74901,2,0,P|296:252|216:231,1,135.000005149842,2|0,0:0|0:0,0:0:0:0:
105,118,75301,2,0,B|40:93|0:160|22:217|80:234|116:222|129:183|159:171|199:174|232:209|231:237|213:284|167:308|120:261,1,405.000015449525,0|8,0:0|3:2,0:0:0:0:
276,224,76401,1,0,0:0:0:0:
309,254,76501,5,8,0:3:0:0:
459,45,76701,1,0,3:2:0:0:
423,73,76801,2,0,L|401:208,1,135.000005149842,2|2,3:2|0:0,0:0:0:0:
369,356,77301,1,2,0:0:0:0:
333,328,77401,2,0,L|315:237,1,90.0000034332277,8|0,3:2|0:0,0:0:0:0:
294,174,77701,2,0,B|253:155|195:223|257:310|187:336|140:320,1,225.000008583069,8|0,0:3|0:0,0:0:0:0:
139,235,78301,2,0,P|98:220|70:282,1,120,0|0,0:0|0:0,0:0:0:0:
180,236,78601,6,0,P|164:146|189:99,1,120,8|8,3:2|0:3,0:0:0:0:
274,62,78901,2,0,P|187:28|123:51,1,155.999992858887,0|8,0:0|0:3,0:0:0:0:
190,167,79201,2,0,B|196:251|185:302|224:343|315:336|330:273|301:223|256:255,1,233.999989288331,2|0,3:2|0:0,0:0:0:0:
340,186,79701,2,0,P|421:171|471:313,1,233.999989288331,2|0,0:0|0:0,0:0:0:0:
381,347,80101,6,0,P|324:318|246:329,1,135.000005149842,2|0,0:0|0:0,0:0:0:0:
36,246,80701,6,0,L|139:276,1,90.0000034332277,2|10,0:0|0:0,0:0:0:0:
267,161,81001,2,0,L|164:191,1,90.0000034332277,10|0,3:2|0:0,0:0:0:0:
30,84,81301,1,10,0:0:0:0:
160,118,81501,1,10,0:0:0:0:
185,155,81601,2,0,P|253:176|310:127,1,135.000005149842,2|2,3:2|0:0,0:0:0:0:
383,54,82101,5,2,0:0:0:0:
424,70,82201,2,0,L|407:175,1,90.0000034332277,8|0,3:2|0:0,0:0:0:0:
489,177,82501,2,0,L|507:270,1,90.0000034332277,0|0,0:0|0:0,0:0:0:0:
373,221,82801,2,0,L|385:131,1,90.0000034332277,0|0,3:0|0:0,0:0:0:0:
367,90,83101,1,8,0:3:0:0:
108,105,83401,2,0,L|201:90,1,90.0000034332277,8|8,3:2|0:3,0:0:0:0:
199,39,83701,1,0,0:0:0:0:
368,32,83901,1,8,0:3:0:0:
411,66,84001,2,0,L|394:212,1,135.000005149842,2|2,3:2|0:0,0:0:0:0:
368,249,84601,6,0,P|345:320|319:346,1,90.0000034332277,8|0,3:2|0:0,0:0:0:0:
297,353,84901,1,0,0:0:0:0:
205,265,85101,2,0,P|150:285|101:366,1,135.000005149842,0|8,0:0|0:3,0:0:0:0:
22,246,85501,1,0,0:0:0:0:
122,119,85701,2,0,P|181:167|204:267,1,180.000006866455,8|8,0:3|0:3,0:0:0:0:
315,248,86401,2,0,B|322:266|300:346|300:346|371:333|440:344,1,225.000008583069,2|2,3:2|0:0,0:0:0:0:
477,262,87001,6,0,P|449:207|446:162,1,96,8|0,3:2|0:0,0:0:0:0:
330,201,87301,2,0,P|355:138|351:94,1,96,8|0,0:3|0:0,0:0:0:0:
463,111,87601,2,0,B|427:66|443:-1|443:-1|383:41|322:17,1,240,0|0,3:0|0:0,0:0:0:0:
142,63,88201,1,8,3:2:0:0:
280,141,88501,2,0,P|280:201|254:250,1,96,0|8,0:0|0:3,0:0:0:0:
388,257,88801,5,2,1:2:0:0:
280,353,89101,1,2,0:0:0:0:
226,273,89301,1,2,0:0:0:0:
232,225,89401,1,10,0:0:0:0:
38,294,89701,1,2,0:0:0:0:
80,207,89901,1,2,0:0:0:0:
124,188,90001,1,2,0:0:0:0:
51,68,90301,1,2,0:0:0:0:
147,60,90501,1,2,0:0:0:0:
185,89,90601,1,2,0:0:0:0:
312,23,90901,1,2,0:0:0:0:
327,221,91101,1,2,0:0:0:0:
327,221,91201,5,2,1:2:0:0:
168,171,91401,1,2,0:0:0:0:
168,171,91501,1,2,0:0:0:0:
262,149,91701,1,2,0:0:0:0:
392,294,93601,5,2,1:2:0:0:
421,200,93801,1,2,0:0:0:0:
421,200,93901,1,2,0:0:0:0:
457,366,94101,1,2,0:0:0:0:
103,101,96001,5,2,1:2:0:0:
139,265,96201,1,2,0:0:0:0:
139,265,96301,1,2,0:0:0:0:
196,80,96501,1,2,0:0:0:0:
421,200,98401,5,2,1:2:0:0:
384,36,98701,1,2,0:0:0:0:
450,106,98901,1,2,0:0:0:0:
450,106,99001,1,2,0:0:0:0:
291,57,99301,1,2,0:0:0:0:
356,128,99501,1,2,0:0:0:0:
356,128,99601,1,2,0:0:0:0:
262,149,99901,1,2,0:0:0:0:
384,36,100101,1,2,0:0:0:0:
384,36,100201,1,2,0:0:0:0:
327,221,100501,1,2,0:0:0:0:
450,106,100701,1,2,0:0:0:0:
450,106,100801,5,6,0:2:0:0:
356,128,101101,1,0,0:0:0:0:
421,200,101401,1,8,0:2:0:0:
384,36,101701,1,0,0:0:0:0:
233,242,102001,5,0,0:0:0:0:
392,293,102301,1,0,0:0:0:0:
204,335,102601,1,8,0:2:0:0:
262,149,102901,1,0,0:0:0:0:
297,315,103201,5,0,0:0:0:0:
167,171,103501,1,0,0:0:0:0:
327,221,103801,1,8,0:2:0:0:
43,286,104101,1,0,0:0:0:0:
196,80,104401,5,0,0:0:0:0:
204,335,104701,1,0,0:0:0:0:
72,193,105001,1,8,0:2:0:0:
327,221,105301,1,0,0:0:0:0:
139,265,105601,5,0,3:0:0:0:
196,80,105801,1,0,0:0:0:0:
103,101,105901,1,0,3:0:0:0:
327,221,106101,1,0,0:0:0:0:
233,242,106201,1,8,3:2:0:0:
291,57,106401,1,0,0:0:0:0:
291,57,106451,1,0,0:0:0:0:
291,57,106501,1,0,3:0:0:0:
139,265,106701,1,0,0:0:0:0:
204,335,106801,5,0,3:0:0:0:
262,149,107001,1,0,0:0:0:0:
167,171,107101,1,0,3:0:0:0:
297,315,107301,1,0,0:0:0:0:
327,221,107401,1,8,3:2:0:0:
233,242,107601,1,0,0:0:0:0:
233,242,107651,1,0,0:0:0:0:
233,242,107701,1,0,3:0:0:0:
392,293,107901,1,0,0:0:0:0:
422,199,108001,6,0,L|417:127,3,45,0|0|0|0,3:0|0:0|0:0|0:0,0:0:0:0:
262,149,108301,2,0,L|265:104,3,45,0|0|0|0,3:0|0:0|0:0|0:0,0:0:0:0:
327,221,108601,1,0,3:0:0:0:
283,243,108676,1,0,0:0:0:0:
233,242,108751,1,0,0:0:0:0:
192,214,108826,1,0,0:0:0:0:
168,138,108901,1,0,3:0:0:0:
135,93,108976,1,0,0:0:0:0:
83,73,109051,1,0,0:0:0:0:
29,85,109126,1,0,0:0:0:0:
0,159,109201,6,0,L|4:211,1,45,0|0,0:0|0:0,0:0:0:0:
168,138,109501,2,0,L|164:93,1,45,0|0,0:0|0:0,0:0:0:0:
94,170,109801,2,0,L|90:222,1,45,0|0,0:0|0:0,0:0:0:0:
262,149,110101,2,0,L|258:104,1,45,0|0,0:0|0:0,0:0:0:0:
138,238,110401,6,0,B|90:251|47:255|12:233|12:233|69:301|52:367|52:367|71:314|76:274|307:211,1,566.999982696534,4|0,3:2|0:0,0:0:0:0:
375,186,111001,1,8,0:0:0:0:
227,53,111151,2,0,L|243:129,1,67.5000025749208,2|0,0:0|0:0,0:0:0:0:
301,328,111301,2,0,B|312:255|312:255|362:208|362:208|372:134,1,202.500007724762,2|0,3:2|0:0,0:0:0:0:
512,68,111601,2,0,P|478:109|469:140,1,67.5000025749208,2|0,0:0|0:0,0:0:0:0:
415,335,111751,2,0,B|434:236|339:298|373:138,1,202.500007724762,2|0,0:0|0:0,0:0:0:0:
453,63,112051,6,0,L|365:64,1,67.5000025749208,2|0,0:0|0:0,0:0:0:0:
202,63,112201,2,0,B|145:91|145:91|298:109,1,202.500007724762,10|0,0:0|0:0,0:0:0:0:
434,242,112501,2,0,B|490:213|490:213|337:199,1,202.500007724762,2|0,0:0|0:0,0:0:0:0:
73,128,112801,2,0,B|92:242|45:350|45:350|97:277|243:232|323:303|323:303|304:331,1,566.999982696534,0|0,3:0|0:0,0:0:0:0:
292,356,113401,1,8,0:0:0:0:
448,158,113551,6,0,L|429:230,1,67.5000025749208,6|0,0:3|0:0,0:0:0:0:
387,375,113701,2,0,B|370:308|370:308|328:271|328:271|333:191,1,202.500007724762,10|0,0:3|0:0,0:0:0:0:
468,9,114001,2,0,L|447:88,1,67.5000025749208,2|0,3:2|0:0,0:0:0:0:
504,186,114151,2,0,B|425:176|425:176|377:129|377:129|315:114,1,202.500007724762,2|0,0:0|0:0,0:0:0:0:
197,187,114451,6,0,L|269:201,1,67.5000025749208,2|0,0:0|0:0,0:0:0:0:
337,291,114601,2,0,B|260:308|260:308|231:334|231:334|147:349,1,202.500007724762,10|0,0:0|0:0,0:0:0:0:
31,255,114901,2,0,L|53:159,1,67.5000025749208,2|0,0:0|0:0,0:0:0:0:
163,92,115051,2,0,L|174:176,1,67.5000025749208,0|0,0:0|0:0,0:0:0:0:
351,251,115201,2,0,B|428:179|382:24|382:24|216:153|286:255,1,472.500018024445,0|0,3:0|0:0,0:0:0:0:
281,278,115801,5,8,0:0:0:0:
58,150,115951,2,0,L|146:142,1,67.5000025749208,2|0,0:0|0:0,0:0:0:0:
266,58,116101,2,0,B|333:51|333:51|267:181,1,202.500007724762,2|0,3:2|0:0,0:0:0:0:
208,374,116401,2,0,L|189:310,1,67.5000025749208,2|0,0:0|0:0,0:0:0:0:
28,258,116551,2,0,B|-1:197|-1:197|132:213,1,202.500007724762,2|0,0:0|0:0,0:0:0:0:
387,245,116851,5,2,0:0:0:0:
137,170,117001,2,0,L|223:159,1,67.5000025749208,10|0,0:0|0:0,0:0:0:0:
388,135,117151,2,0,L|292:136,1,67.5000025749208,2|0,0:0|0:0,0:0:0:0:
144,75,117301,2,0,L|230:64,1,67.5000025749208,2|0,0:0|0:0,0:0:0:0:
413,41,117451,2,0,L|317:42,1,67.5000025749208,2|0,0:0|0:0,0:0:0:0:
376,182,117601,2,0,B|405:191|461:191|461:191|370:211|307:242,1,202.500007724762,6|0,3:2|0:0,0:0:0:0:
43,287,117901,2,0,L|120:273,1,67.5000025749208,2|0,0:0|0:0,0:0:0:0:
241,202,118051,2,0,L|153:206,1,67.5000025749208,2|0,0:0|0:0,0:0:0:0:
70,18,118201,2,0,B|30:82|30:82|78:113|78:113|89:182,1,202.500007724762,14|0,3:2|0:0,0:0:0:0:
154,352,118501,6,0,L|165:271,1,67.5000025749208,2|0,0:0|0:0,0:0:0:0:
184,155,118651,2,0,L|194:236,1,67.5000025749208,2|0,0:0|0:0,0:0:0:0:
308,351,118801,2,0,B|420:311|420:311|352:257,1,202.500007724762,6|0,3:2|0:0,0:0:0:0:
251,86,119101,2,0,L|326:104,1,67.5000025749208,2|0,0:0|0:0,0:0:0:0:
425,178,119251,2,0,L|337:154,1,67.5000025749208,2|0,0:0|0:0,0:0:0:0:
429,80,119401,2,0,B|485:46|485:46|451:189,1,202.500007724762,14|0,3:2|0:0,0:0:0:0:
450,364,119701,1,2,0:0:0:0:
433,325,119776,1,0,0:0:0:0:
417,286,119851,1,2,0:0:0:0:
401,248,119926,1,0,0:0:0:0:
301,90,120001,6,0,L|308:153,1,63,4|0,3:2|0:0,0:0:0:0:
308,153,120601,1,8,0:0:0:0:
65,314,120751,6,0,P|40:280|36:224,1,67.5000025749208,2|0,0:0|0:0,0:0:0:0:
209,121,120901,2,0,B|217:197|217:197|245:225|245:225|256:331,1,202.500007724762,2|0,3:2|0:0,0:0:0:0:
308,153,121201,2,0,P|333:187|337:243,1,67.5000025749208,2|0,0:0|0:0,0:0:0:0:
164,346,121351,2,0,B|156:270|156:270|128:242|128:242|120:156,1,202.500007724762,2|0,0:0|0:0,0:0:0:0:
134,60,121651,1,2,0:0:0:0:
308,153,121801,6,0,B|371:161|391:102|391:102|337:31|256:70,1,242.999992584229,10|0,0:0|0:0,0:0:0:0:
224,199,122101,2,0,P|218:121|272:64,1,161.999995056153,2|0,0:0|0:0,0:0:0:0:
369,331,122401,6,0,B|425:357|460:308|460:308|453:238|346:188|287:231|314:296|250:318|182:303|150:258,1,472.500018024445,0|0,3:0|0:0,0:0:0:0:
224,199,123001,1,8,0:0:0:0:
16,136,123151,5,6,0:3:0:0:
16,136,123226,1,0,0:0:0:0:
16,136,123301,2,0,P|88:176|184:108,1,202.500007724762,10|0,0:3|0:0,0:0:0:0:
97,12,123601,2,0,L|91:79,1,67.5000025749208,2|0,3:2|0:0,0:0:0:0:
345,98,123751,2,0,P|273:58|177:126,1,202.500007724762,2|0,0:0|0:0,0:0:0:0:
170,239,124051,1,2,0:0:0:0:
445,279,124201,6,0,B|392:243|400:176|400:176|432:156|456:104|429:50,1,242.999992584229,10|0,0:0|0:0,0:0:0:0:
267,154,124501,2,0,P|257:202|296:272,1,80.9999975280763,2|0,0:0|0:0,0:0:0:0:
170,239,124651,2,0,P|185:285|254:326,1,80.9999975280763,0|0,0:0|0:0,0:0:0:0:
388,328,124801,6,0,B|436:273|508:313|508:313|452:230|322:243|365:323|276:359|205:307,1,472.500018024445,0|0,3:0|0:0,0:0:0:0:
264,232,125401,1,8,0:0:0:0:
82,287,125551,6,0,P|75:246|114:171,1,67.5000025749208,2|0,0:0|0:0,0:0:0:0:
184,142,125701,2,0,B|50:118|50:118|-17:182,1,202.500007724762,2|0,3:2|0:0,0:0:0:0:
206,308,126001,2,0,P|180:276|176:192,1,67.5000025749208,2|0,0:0|0:0,0:0:0:0:
278,116,126151,2,0,B|248:56|248:56|114:33,1,202.500007724762,2|0,0:0|0:0,0:0:0:0:
264,232,126451,1,2,0:0:0:0:
380,80,126601,6,0,L|375:160,1,80.9999975280763,10|0,0:0|0:0,0:0:0:0:
368,323,126751,2,0,L|374:210,1,80.9999975280763,2|0,0:0|0:0,0:0:0:0:
278,116,126901,2,0,L|288:196,1,80.9999975280763,2|0,0:0|0:0,0:0:0:0:
478,126,127051,2,0,L|460:205,1,80.9999975280763,2|0,0:0|0:0,0:0:0:0:
258,287,127201,6,0,B|333:307|372:242|372:242|410:315|489:297,1,270,6|0,3:2|0:0,0:0:0:0:
375,160,127501,2,0,L|380:80,1,80.9999975280763,2|0,0:0|0:0,0:0:0:0:
348,8,127651,2,0,L|353:88,1,72,2|0,0:0|0:0,0:0:0:0:
207,179,127801,6,0,B|124:134|64:218|64:218|107:282|186:250,1,270,14|0,3:2|0:0,0:0:0:0:
267,251,128101,2,0,P|292:221|301:178,1,80.9999975280763,2|0,0:0|0:0,0:0:0:0:
278,116,128251,2,0,P|297:146|301:181,1,72,2|0,0:0|0:0,0:0:0:0:
184,352,128401,6,0,B|372:320|372:320|304:380,1,270,6|0,3:2|0:0,0:0:0:0:
187,265,128701,2,0,L|289:247,1,80.9999975280763,2|0,0:0|0:0,0:0:0:0:
352,240,128851,2,0,L|250:222,1,72,2|0,0:0|0:0,0:0:0:0:
84,188,129001,5,4,3:0:0:0:
112,176,129076,1,4,0:3:0:0:
140,164,129151,2,0,L|150:74,1,67.5000025749208,8|0,0:3|0:0,0:0:0:0:
47,51,129301,2,0,L|52:96,1,45,0|0,3:0|0:0,0:0:0:0:
152,52,129451,2,0,L|144:119,1,45,0|0,3:0|0:0,0:0:0:0:
84,188,129601,6,0,P|170:202|265:135,1,202.500007724762,4|0,0:0|0:0,0:0:0:0:
291,92,129901,2,0,L|244:363,1,270.000010299683,0|8,3:0|0:0,0:0:0:0:
416,351,130351,2,0,L|400:275,1,67.5000025749208,2|0,0:0|0:0,0:0:0:0:
440,145,130501,2,0,P|487:201|443:308,1,135.000005149842,2|0,3:2|0:0,0:0:0:0:
285,283,130801,2,0,L|323:215,1,67.5000025749208,2|0,0:0|0:0,0:0:0:0:
440,145,130951,2,0,P|437:218|333:268,1,135.000005149842,2|0,0:0|3:0,0:0:0:0:
232,224,131176,1,0,0:0:0:0:
272,262,131251,1,2,0:0:0:0:
320,264,131326,6,0,P|316:170|219:144,1,202.500007724762,0|0,0:0|0:0,0:0:0:0:
306,342,131701,2,0,P|217:358|194:265,1,202.500007724762,2|0,0:0|0:0,0:0:0:0:
224,142,132001,2,0,B|189:189|139:189|116:133|39:155|10:266|47:333|147:330|194:256|194:256|230:287|286:272,1,472.500018024445,0|0,3:0|0:0,0:0:0:0:
310,270,132601,5,8,0:0:0:0:
171,358,132751,2,0,L|184:280,1,67.5000025749208,6|0,0:3|0:0,0:0:0:0:
35,248,132901,2,0,B|104:247|104:247|163:208|163:208|233:207,1,202.500007724762,10|0,0:3|0:0,0:0:0:0:
353,295,133201,2,0,L|326:210,1,67.5000025749208,2|0,3:2|0:0,0:0:0:0:
375,101,133351,2,0,B|434:63|434:63|402:200,1,202.500007724762,2|0,0:0|0:0,0:0:0:0:
387,236,133651,1,2,0:0:0:0:
285,346,133801,6,0,P|273:252|370:201,1,202.500007724762,10|0,0:0|0:0,0:0:0:0:
420,118,134101,2,0,P|443:181|435:212,1,67.5000025749208,2|0,0:0|0:0,0:0:0:0:
346,52,134251,2,0,P|325:116|291:147,1,90,0|0,0:0|0:0,0:0:0:0:
184,154,134401,2,0,B|174:108|220:78|220:78|110:60|35:131|45:219|157:240|69:351,1,472.500018024445,0|0,3:0|0:0,0:0:0:0:
31,372,135001,1,8,0:0:0:0:
207,223,135151,6,0,P|206:272|193:307,1,67.5000025749208,2|0,0:0|0:0,0:0:0:0:
55,142,135301,2,0,P|151:123|233:193,1,202.500007724762,2|0,3:2|0:0,0:0:0:0:
316,96,135601,2,0,P|292:183|293:192,1,67.5000025749208,2|0,0:0|0:0,0:0:0:0:
471,213,135751,2,0,P|431:126|338:64,1,202.500007724762,2|0,0:0|0:0,0:0:0:0:
150,64,136051,1,2,0:0:0:0:
254,288,136201,6,0,L|277:219,1,67.5000025749208,10|0,0:0|0:0,0:0:0:0:
231,70,136351,2,0,L|206:141,1,67.5000025749208,2|0,0:0|0:0,0:0:0:0:
145,186,136501,2,0,L|213:209,1,67.5000025749208,2|0,0:0|0:0,0:0:0:0:
343,173,136651,2,0,L|274:149,1,67.5000025749208,2|0,0:0|0:0,0:0:0:0:
113,285,136801,6,0,B|192:301|192:301|226:327|226:327|314:344,1,202.500007724762,6|0,3:2|0:0,0:0:0:0:
429,251,137101,1,2,0:0:0:0:
395,255,137176,1,0,0:0:0:0:
362,260,137251,1,2,0:0:0:0:
328,265,137326,1,0,0:0:0:0:
184,225,137401,6,0,B|261:209|261:209|295:183|295:183|374:167,1,202.500007724762,14|0,3:2|0:0,0:0:0:0:
118,120,137701,1,2,0:0:0:0:
151,124,137776,1,0,0:0:0:0:
184,129,137851,1,2,0:0:0:0:
218,134,137926,1,0,0:0:0:0:
377,100,138001,6,0,B|299:84|299:84|265:58|265:58|186:42,1,202.500007724762,6|0,3:2|0:0,0:0:0:0:
56,8,138301,1,2,0:0:0:0:
63,40,138376,1,0,0:0:0:0:
70,73,138451,1,2,0:0:0:0:
78,106,138526,1,0,0:0:0:0:
104,255,138601,6,0,B|125:178|125:178|154:147|154:147|177:70,1,202.500007724762,14|0,3:2|0:0,0:0:0:0:
191,300,138901,2,0,L|214:219,1,67.5000025749208,2|0,0:0|0:0,0:0:0:0:
335,88,139051,2,0,L|306:188,1,67.5000025749208,2|0,0:0|0:0,0:0:0:0:
304,248,139201,6,0,B|341:252|371:240|366:225|406:207|451:223,2,135,4|0|0,0:0|0:0|0:0,0:0:0:0:
419,314,139801,1,8,0:0:0:0:
216,284,139951,6,0,P|208:252|240:176,1,67.5000025749208,2|0,0:0|0:0,0:0:0:0:
270,75,140101,2,0,B|329:125|329:125|302:255,1,202.500007724762,2|0,3:2|0:0,0:0:0:0:
137,160,140401,2,0,P|160:137|242:126,1,67.5000025749208,2|0,0:0|0:0,0:0:0:0:
401,247,140551,2,0,B|384:322|384:322|257:359,1,202.500007724762,2|0,0:0|0:0,0:0:0:0:
212,218,140851,1,2,0:0:0:0:
31,341,141001,6,0,B|75:337|119:303|120:244|120:244|142:305|203:314,1,242.999992584229,10|0,0:0|0:0,0:0:0:0:
24,244,141301,2,0,B|12:148|12:148|92:100,1,161.999995056153,2|0,0:0|0:0,0:0:0:0:
303,41,141601,6,0,B|327:67|368:71|368:71|292:110|201:53|236:35|145:-19|69:18|69:18|114:18|148:61,1,472.500018024445,0|0,3:0|0:0,0:0:0:0:
67,114,142201,1,8,0:0:0:0:
279,176,142351,5,6,0:3:0:0:
279,176,142426,1,0,0:0:0:0:
279,176,142501,2,0,P|209:234|102:176,1,202.500007724762,10|0,0:3|0:0,0:0:0:0:
182,72,142801,2,0,L|190:140,1,67.5000025749208,2|0,3:2|0:0,0:0:0:0:
355,118,142951,2,0,P|266:80|189:139,1,202.500007724762,2|0,0:0|0:0,0:0:0:0:
199,322,143251,1,2,0:0:0:0:
506,329,143401,6,0,B|465:271|394:289|394:289|360:355|281:343,1,242.999992584229,10|0,0:0|0:0,0:0:0:0:
199,322,143701,2,0,P|212:283|210:243,1,80.9999975280763,2|0,0:0|0:0,0:0:0:0:
279,176,143851,2,0,P|300:209|307:249,1,80.9999975280763,0|0,0:0|0:0,0:0:0:0:
0,204,144001,6,0,B|35:239|90:245|125:222|125:222|65:165|90:70|184:52|184:52|244:121|149:186,1,472.500018024445,0|0,3:0|0:0,0:0:0:0:
211,244,144601,1,8,0:0:0:0:
399,176,144751,6,0,P|403:209|396:242,1,67.5000025749208,2|0,0:0|0:0,0:0:0:0:
220,340,144901,2,0,B|285:331|305:265|305:265|319:318|375:338,1,202.500007724762,2|0,3:2|0:0,0:0:0:0:
211,244,145201,2,0,P|188:220|176:136,1,67.5000025749208,2|0,0:0|0:0,0:0:0:0:
399,176,145351,2,0,B|334:167|313:101|313:101|299:154|243:174,1,202.500007724762,2|0,0:0|0:0,0:0:0:0:
219,80,145651,1,2,0:0:0:0:
407,80,145801,6,0,P|452:96|488:140,1,80.9999975280763,10|0,0:0|0:0,0:0:0:0:
399,176,145951,2,0,P|407:222|387:276,1,80.9999975280763,2|0,0:0|0:0,0:0:0:0:
158,299,146101,2,0,P|149:252|169:198,1,80.9999975280763,2|0,0:0|0:0,0:0:0:0:
244,258,146251,2,0,P|280:227|336:217,1,80.9999975280763,2|0,0:0|0:0,0:0:0:0:
492,227,146401,6,0,P|442:341|322:313,1,270,6|0,3:2|0:0,0:0:0:0:
235,177,146701,2,0,L|243:257,1,80.9999975280763,2|0,0:0|0:0,0:0:0:0:
215,326,146851,2,0,L|223:246,1,72,2|0,0:0|0:0,0:0:0:0:
164,114,147001,6,0,B|206:68|271:86|271:86|294:126|345:164|447:108,1,242.999992584229,6|0,0:2|0:0,0:0:0:0:
465,96,147301,2,0,P|448:68|409:44,1,72,2|0,0:0|0:0,0:0:0:0:
354,40,147451,2,0,P|381:38|450:70,1,62.9999980773926,2|0,0:0|0:0,0:0:0:0:
492,272,147601,6,0,B|504:228|466:192|466:192|379:238|429:336,1,216,6|0,0:2|0:0,0:0:0:0:
332,368,147901,2,0,L|320:264,1,62.9999980773926,2|0,0:0|0:0,0:0:0:0:
315,232,148051,2,0,L|303:128,1,53.9999983520508,2|0,0:0|0:0,0:0:0:0:
159,272,148201,6,0,P|227:296|319:212,1,188.999994232178,6|0,0:2|0:0,0:0:0:0:
251,50,148501,2,0,P|228:67|210:92,1,53.9999983520508,2|0,0:0|0:0,0:0:0:0:
201,158,148651,2,0,P|210:181|224:201,1,45,2|0,0:0|0:0,0:0:0:0:
294,136,148801,5,0,0:0:0:0:
308,89,149401,1,0,0:0:0:0:
321,43,150001,1,0,0:0:0:0:
359,206,150601,1,0,1:0:0:0:
130,123,151201,6,0,P|88:157|73:244,1,120,4|0,3:2|0:0,0:0:0:0:
116,255,151501,2,0,P|135:324|109:380,1,120,0|0,0:0|0:0,0:0:0:0:
229,248,151801,1,8,3:2:0:0:
310,325,151951,2,0,P|370:312|426:336,1,90.0000034332277,0|0,0:0|0:0,0:0:0:0:
455,374,152251,2,0,P|486:312|449:191,1,180,0|0,0:0|0:0,0:0:0:0:
312,86,152701,2,0,P|281:148|318:269,1,180,8|8,0:3|3:2,0:0:0:0:
281,46,153201,1,8,0:3:0:0:
256,100,153301,1,0,0:0:0:0:
74,144,153501,1,8,0:3:0:0:
93,200,153601,6,0,P|180:249|262:205,1,180,0|0,3:0|0:0,0:0:0:0:
294,142,154051,2,0,P|353:120|460:183,1,180,0|0,0:0|0:0,0:0:0:0:
369,346,154501,1,0,0:0:0:0:
178,261,154701,1,0,0:0:0:0:
208,209,154801,6,0,P|250:177|327:182,1,120,0|8,3:0|0:3,0:0:0:0:
366,207,155101,1,0,0:0:0:0:
488,104,155301,1,8,0:3:0:0:
429,118,155401,1,8,3:2:0:0:
484,242,155601,1,0,3:0:0:0:
425,228,155701,2,0,L|295:200,1,120,8|8,0:3|0:3,0:0:0:0:
94,171,156001,6,0,B|10:145|10:145|65:137|104:176|90:312,1,300,0|0,3:0|0:0,0:0:0:0:
66,361,156601,1,8,3:2:0:0:
231,358,156801,2,0,P|238:273|232:219,1,120,0|0,0:0|0:0,0:0:0:0:
267,187,157101,2,0,P|341:237|427:203,1,180,0|0,0:0|0:0,0:0:0:0:
465,168,157501,2,0,P|494:242|489:285,1,120,0|0,0:0|0:0,0:0:0:0:
423,383,157801,1,8,3:2:0:0:
307,297,158001,1,8,0:3:0:0:
267,332,158101,2,0,P|228:351|188:358,1,60,0|0,0:0|0:0,0:0:0:0:
81,309,158301,1,8,0:3:0:0:
49,267,158401,6,0,P|59:207|40:136,1,135.000005149842,0|0,3:0|0:0,0:0:0:0:
186,63,159001,2,0,L|170:164,1,90.0000034332277,8|0,3:2|0:0,0:0:0:0:
208,179,159301,1,0,0:0:0:0:
248,322,159501,1,0,0:0:0:0:
269,283,159601,2,0,L|283:239,1,45.0000017166138,0|0,3:0|0:0,0:0:0:0:
366,192,159801,1,0,0:0:0:0:
404,214,159901,2,0,L|464:235,1,45.0000017166138,0|0,0:0|0:0,0:0:0:0:
357,106,160101,1,8,0:3:0:0:
313,117,160201,6,0,L|215:135,1,90.0000034332277,8|0,3:2|0:0,0:0:0:0:
121,220,160501,6,0,L|132:82,1,120,8|8,0:3|0:3,0:0:0:0:
219,239,160801,6,0,P|176:283|96:297,1,135.000005149842,0|0,3:0|0:0,0:0:0:0:
272,339,161301,5,0,0:0:0:0:
319,302,161401,2,0,P|381:288|440:306,1,120,8|0,3:2|0:0,0:0:0:0:
414,246,161701,2,0,P|388:187|394:126,1,120,0|0,0:0|0:0,0:0:0:0:
294,174,162001,2,0,L|162:203,1,120,0|0,3:0|0:0,0:0:0:0:
63,140,162301,2,0,L|180:114,1,120,8|0,0:3|0:0,0:0:0:0:
239,99,162601,6,0,L|214:236,1,120,8|8,3:2|0:3,0:0:0:0:
327,306,162901,1,0,0:0:0:0:
363,258,163001,2,0,L|354:186,1,60,0|8,0:0|0:3,0:0:0:0:
235,82,163201,2,0,P|187:117|287:209,1,240,0|0,3:0|0:0,0:0:0:0:
334,197,163701,2,0,P|427:210|434:299,1,180,0|0,0:0|0:0,0:0:0:0:
408,333,164101,1,8,0:3:0:0:
281,304,164301,1,0,0:0:0:0:
241,324,164401,1,0,3:0:0:0:
51,314,164601,1,8,0:3:0:0:
83,283,164701,6,0,L|137:265,1,45.0000017166138,0|0,0:0|0:0,0:0:0:0:
231,222,164901,1,8,0:3:0:0:
261,189,165001,2,0,L|356:159,1,90.0000034332277,8|0,3:2|3:0,0:0:0:0:
432,134,165301,2,0,P|362:52|295:75,1,180.000006866455,8|8,0:3|0:3,0:0:0:0:
298,177,165601,2,0,L|165:220,1,135.000005149842,0|0,3:0|0:0,0:0:0:0:
136,357,166101,5,0,0:0:0:0:
98,332,166201,2,0,P|74:305|61:275,1,45.0000017166138,8|0,3:2|0:0,0:0:0:0:
90,256,166401,2,0,P|116:197|109:155,1,90.0000034332277,0|0,0:0|0:0,0:0:0:0:
63,127,166701,2,0,P|57:59|128:21,1,135.000005149842,0|0,0:0|0:0,0:0:0:0:
172,14,167101,1,8,0:3:0:0:
302,49,167301,2,0,P|233:110|176:109,1,135.000005149842,0|8,0:0|0:3,0:0:0:0:
115,173,167701,1,0,0:0:0:0:
285,198,167901,1,8,0:3:0:0:
310,279,168001,6,0,B|377:282|392:189|366:175|356:110|446:94,1,225.000008583069,0|0,3:0|0:0,0:0:0:0:
489,95,168601,1,8,3:2:0:0:
267,154,168901,1,0,0:0:0:0:
58,58,169201,1,0,3:0:0:0:
155,151,169401,1,0,0:0:0:0:
164,217,169501,1,0,0:0:0:0:
306,212,169701,1,8,0:3:0:0:
286,276,169801,2,0,L|265:365,1,90.0000034332277,8|0,3:2|0:0,0:0:0:0:
195,371,170101,2,0,L|152:187,1,180.000006866455,8|8,0:3|0:3,0:0:0:0:
232,56,170401,6,0,B|276:34|348:56|322:86|384:124|459:78,1,215.999993408203,4|0,3:2|0:0,0:0:0:0:
269,145,170901,1,0,0:0:0:0:
269,145,171001,2,0,L|276:264,1,120,8|0,3:2|0:0,0:0:0:0:
427,209,171301,2,0,L|434:90,1,120,0|0,0:0|0:0,0:0:0:0:
397,1,171601,1,0,3:0:0:0:
269,145,171901,6,0,P|188:212|97:166,1,215.999993408203,8|8,0:3|3:2,0:0:0:0:
9,0,172401,2,0,B|46:30|41:93|41:93|-7:136|7:196,1,215.999993408203,8|8,0:3|0:3,0:0:0:0:
56,368,172801,6,0,P|12:308|108:316,1,215.999993408203,0|0,3:0|0:0,0:0:0:0:
287,350,173301,1,0,0:0:0:0:
287,350,173401,2,0,P|222:381|136:335,1,120,8|0,3:2|0:0,0:0:0:0:
213,285,173701,2,0,P|247:237|247:178,1,120,0|0,0:0|0:0,0:0:0:0:
156,207,174001,1,0,3:0:0:0:
406,211,174201,5,8,0:3:0:0:
406,211,174301,1,0,0:0:0:0:
266,85,174501,1,8,0:3:0:0:
266,85,174601,1,8,3:2:0:0:
316,241,174801,1,0,3:0:0:0:
246,177,174901,1,8,0:3:0:0:
356,57,175101,1,8,0:3:0:0:
336,149,175201,6,0,L|352:372,1,215.999993408203,0|0,3:0|0:0,0:0:0:0:
237,296,175701,1,0,0:0:0:0:
237,296,175801,2,0,L|245:176,1,120,8|0,3:2|0:0,0:0:0:0:
426,121,176101,2,0,L|434:240,1,120,8|0,0:3|0:0,0:0:0:0:
351,364,176401,1,0,3:0:0:0:
139,285,176701,6,0,B|128:131|128:131|177:192,1,215.999993408203,0|8,0:0|3:2,0:0:0:0:
336,149,177201,2,0,P|283:212|157:160,1,215.999993408203,8|8,0:3|0:3,0:0:0:0:
313,56,177601,6,0,B|380:44|416:97|416:97|486:108|534:28,1,215.999993408203,0|0,3:0|0:0,0:0:0:0:
336,149,178101,1,0,0:0:0:0:
336,149,178201,2,0,P|311:220|351:292,1,120,8|0,3:2|0:0,0:0:0:0:
495,280,178501,2,0,P|439:260|404:212,1,120,0|0,0:0|0:0,0:0:0:0:
496,184,178801,1,0,3:0:0:0:
322,260,179101,6,0,L|152:252,1,143.999995605469,0|8,0:0|0:3,0:0:0:0:
144,252,179401,1,8,3:2:0:0:
268,64,179701,2,0,L|124:70,1,143.999995605469,8|8,0:3|0:3,0:0:0:0:
16,188,180001,6,0,B|-12:120|32:48|32:48|21:91|51:133,1,215.999993408203,0|0,3:0|0:0,0:0:0:0:
144,252,180501,1,0,0:0:0:0:
144,252,180601,2,0,P|200:276|288:232,1,120,8|0,3:2|0:0,0:0:0:0:
273,88,180901,2,0,P|224:124|218:222,1,120,0|0,0:0|0:0,0:0:0:0:
302,180,181201,1,0,3:0:0:0:
364,372,181501,6,0,B|387:223|387:223|366:267|324:272,1,215.999993408203,8|8,0:3|3:2,0:0:0:0:
155,189,182001,2,0,B|169:131|169:131|260:98|306:187,1,215.999993408203,8|8,0:3|0:3,0:0:0:0:
196,276,182401,6,0,B|140:300|95:262|95:262|21:260|-9:337,1,215.999993408203,0|0,3:0|0:0,0:0:0:0:
264,344,182901,1,0,0:0:0:0:
264,344,183001,2,0,P|288:304|268:212,1,120,8|0,3:2|0:0,0:0:0:0:
379,233,183301,2,0,P|367:187|288:136,1,120,0|0,0:0|0:0,0:0:0:0:
217,160,183601,1,0,3:0:0:0:
264,344,183801,5,8,0:3:0:0:
264,344,183901,2,0,L|420:336,1,143.999995605469,0|8,0:0|0:3,0:0:0:0:
468,263,184201,1,8,3:2:0:0:
235,225,184401,2,0,L|378:232,1,143.999995605469,0|0,3:0|0:0,0:0:0:0:
468,263,184701,1,8,0:3:0:0:
468,263,184801,6,0,B|489:198|432:152|432:152|414:88|479:36,1,215.999993408203,0|0,3:0|0:0,0:0:0:0:
308,24,185301,1,0,0:0:0:0:
308,24,185401,2,0,P|336:68|324:148,1,120,8|0,3:2|0:0,0:0:0:0:
157,58,185701,2,0,P|127:108|133:167,1,120,8|0,0:3|0:0,0:0:0:0:
244,96,186001,1,0,3:0:0:0:
201,330,186301,5,0,0:0:0:0:
368,264,186501,1,0,0:0:0:0:
368,264,186601,2,0,B|307:226|307:226|229:243,1,143.999995605469,8|8,3:2|0:3,0:0:0:0:
448,328,186901,2,0,B|387:365|387:365|309:348,1,143.999995605469,0|8,0:0|0:3,0:0:0:0:
62,342,187201,6,0,B|126:329|143:261|143:261|159:327|239:343,1,215.999993408203,0|0,3:0|0:0,0:0:0:0:
368,264,187801,1,8,3:2:0:0:
212,49,188401,5,0,3:0:0:0:
224,145,188551,1,4,0:3:0:0:
236,241,188701,2,0,P|176:228|130:142,1,120,8|8,0:3|0:3,0:0:0:0:
302,87,189001,1,8,3:2:0:0:
212,49,189151,1,4,0:3:0:0:
314,183,189301,2,0,P|364:160|396:68,1,120,8|8,0:3|0:3,0:0:0:0:
224,145,189601,5,4,3:2:0:0:
404,139,198901,5,0,0:0:0:0:
314,146,199051,1,0,0:0:0:0:
224,152,199201,2,0,L|75:165,1,135.000005149842,2|2,0:0|0:0,0:0:0:0:
147,159,199651,2,0,L|-2:172,1,135.000005149842,2|0,0:0|0:0,0:0:0:0:
224,152,200101,1,2,0:0:0:0:
335,70,200701,5,2,0:0:0:0:
354,155,200851,2,0,L|378:298,1,135.000005149842,2|0,0:0|0:0,0:0:0:0:
461,195,201301,1,2,0:0:0:0:
376,217,201451,1,2,0:0:0:0:
333,293,201601,2,0,L|180:320,1,135.000005149842,0|0,0:0|0:0,0:0:0:0:
78,261,202051,2,0,L|210:237,1,135.000005149842,2|0,0:0|0:0,0:0:0:0:
298,225,202501,1,2,0:0:0:0:
199,128,203101,5,2,0:0:0:0:
110,95,203251,2,0,L|117:239,1,135.000005149842,2|0,0:0|0:0,0:0:0:0:
236,339,203701,1,2,0:0:0:0:
231,244,203851,1,2,0:0:0:0:
226,149,204001,2,0,L|364:170,1,135.000005149842,0|0,0:0|0:0,0:0:0:0:
445,263,204451,2,0,L|374:250,1,67.5000025749208,2|0,0:0|0:0,0:0:0:0:
245,227,204901,2,0,L|380:251,1,135.000005149842,2|0,0:0|0:0,0:0:0:0:
256,105,205501,5,2,0:0:0:0:
195,177,205651,2,0,L|109:287,1,135.000005149842,2|0,0:0|0:0,0:0:0:0:
45,352,206101,1,2,0:0:0:0:
119,273,206251,1,2,0:0:0:0:
197,347,206401,2,0,L|347:348,1,135.000005149842,0|0,0:0|0:0,0:0:0:0:
285,272,206851,2,0,L|150:271,1,135.000005149842,2|0,0:0|0:0,0:0:0:0:
41,270,207301,2,0,P|76:182|195:178,1,202.500007724762,2|0,0:0|0:0,0:0:0:0:
247,92,207901,5,2,0:0:0:0:
264,226,208051,1,2,0:0:0:0:
372,141,208201,1,0,0:0:0:0:
320,337,208501,1,2,0:0:0:0:
346,239,208651,1,2,0:0:0:0:
372,141,208801,6,0,L|364:61,1,45,0|0,3:0|0:0,0:0:0:0:
372,141,210601,6,0,L|364:61,1,45,0|0,0:0|0:0,0:0:0:0:
239,117,210901,2,0,L|312:150,1,45,0|0,0:0|0:0,0:0:0:0:
326,13,211201,2,0,L|260:59,1,45,0|0,3:0|0:0,0:0:0:0:
116,192,213001,6,0,P|156:201|179:217,1,45,0|0,0:0|0:0,0:0:0:0:
199,337,213301,2,0,P|171:367|145:379,1,45,0|0,0:0|0:0,0:0:0:0:
32,336,213601,2,0,P|19:296|22:268,1,45,0|0,3:0|0:0,0:0:0:0:
468,316,215401,6,0,B|460:340|460:340|436:364,1,45,0|0,0:0|0:0,0:0:0:0:
406,161,215701,2,0,B|430:155|430:155|463:164,1,45,0|0,0:0|0:0,0:0:0:0:
303,292,216001,2,0,B|286:273|286:273|277:240,1,45,0|0,3:0|0:0,0:0:0:0:
200,67,217801,6,0,L|204:119,1,45,0|0,0:0|0:0,0:0:0:0:
311,316,218101,2,0,L|307:264,1,45,0|0,0:0|0:0,0:0:0:0:
161,198,218401,5,4,3:2:0:0:
203,111,218551,1,0,3:0:0:0:
256,192,218701,1,0,3:0:0:0:
298,105,218851,1,0,3:0:0:0:
214,279,219001,5,0,3:0:0:0:
108,117,219151,1,0,3:0:0:0:
256,192,219301,1,0,3:0:0:0:
66,204,219451,1,0,3:0:0:0:
298,105,219601,5,0,3:0:0:0:
307,271,219751,1,0,3:0:0:0:
108,117,219901,1,0,3:0:0:0:
349,184,220051,1,0,3:0:0:0:
117,283,220201,5,0,3:0:0:0:
150,30,220351,1,0,3:0:0:0:
256,192,220501,1,0,3:0:0:0:
15,125,220651,1,0,3:0:0:0:
298,105,220801,5,0,3:0:0:0:
117,283,220951,1,0,3:0:0:0:
150,30,221101,1,0,3:0:0:0:
214,279,221251,1,0,3:0:0:0:
66,204,221401,5,0,3:0:0:0:
256,192,221551,1,0,3:0:0:0:
15,125,221701,1,0,3:0:0:0:
214,279,221851,1,0,3:0:0:0:
150,30,222001,5,0,3:0:0:0:
117,283,222151,1,0,3:0:0:0:
300,112,222301,1,0,3:0:0:0:
15,125,222451,1,0,3:0:0:0:
256,192,222601,5,0,3:0:0:0:
66,204,222751,1,0,3:0:0:0:
150,30,222901,1,0,3:0:0:0:
168,362,223051,1,0,3:0:0:0:
300,112,223201,5,0,3:0:0:0:
340,93,223276,1,0,3:0:0:0:
385,95,223351,1,0,3:0:0:0:
423,117,223426,1,0,3:0:0:0:
448,154,223501,2,0,L|444:240,1,45,0|0,3:0|3:0,0:0:0:0:
361,232,223651,2,0,L|358:187,1,45,0|0,3:0|3:0,0:0:0:0:
292,16,223801,5,0,3:0:0:0:
248,31,223876,1,0,3:0:0:0:
217,65,223951,1,0,3:0:0:0:
205,109,224026,1,0,3:0:0:0:
216,152,224101,2,0,L|219:209,1,53.9999983520508,0|0,3:0|3:0,0:0:0:0:
364,375,224251,2,0,L|367:321,1,53.9999983520508,0|0,3:0|3:0,0:0:0:0:
133,255,224401,5,0,3:0:0:0:
166,288,224476,1,0,3:0:0:0:
211,302,224551,1,0,3:0:0:0:
257,294,224626,1,0,3:0:0:0:
293,264,224701,1,0,3:0:0:0:
329,234,224776,1,0,3:0:0:0:
375,226,224851,1,0,3:0:0:0:
419,241,224926,1,0,3:0:0:0:
449,276,225001,5,0,3:0:0:0:
410,316,225076,1,0,3:0:0:0:
357,333,225151,1,0,3:0:0:0:
302,325,225226,1,0,3:0:0:0:
257,294,225301,1,0,3:0:0:0:
228,238,225376,1,0,3:0:0:0:
232,176,225451,1,0,3:0:0:0:
268,125,225526,1,0,3:0:0:0:
324,100,225601,5,4,0:0:0:0:
324,100,228601,5,6,0:0:0:0:
348,104,229201,1,2,0:0:0:0:
372,108,229501,1,2,0:0:0:0:
396,112,229801,1,2,0:0:0:0:
238,162,229951,1,2,0:0:0:0:
368,20,230101,1,2,0:0:0:0:
368,20,230176,1,2,0:0:0:0:
368,20,230251,1,2,0:0:0:0:
338,324,230401,2,0,L|351:209,1,107.999996704102,4|0,3:2|0:0,0:0:0:0:
391,321,230701,6,0,B|422:95|422:95|381:61|381:61|337:90,1,323.999990112305,2|0,0:0|3:0,0:0:0:0:
391,321,231151,2,0,B|422:95|422:95|381:61|381:61|337:90,1,323.999990112305,2|0,0:0|0:0,0:0:0:0:
106,176,231601,1,2,3:2:0:0:
201,243,231751,1,2,0:0:0:0:
328,185,231901,2,0,P|289:166|226:175,1,90,2|2,0:0|0:0,0:0:0:0:
88,264,232201,5,0,3:0:0:0:
178,163,232351,1,0,1:0:0:0:
237,284,232501,1,0,1:0:0:0:
327,183,232651,1,0,1:0:0:0:
220,100,232801,6,0,P|150:108|114:119,1,90,4|0,3:2|0:0,0:0:0:0:
292,99,233101,6,0,B|344:90|357:33|314:5|242:15|200:48|202:96|202:109|89:116,1,323.999990112305,2|0,0:0|3:0,0:0:0:0:
292,99,233551,2,0,B|344:90|357:33|314:5|242:15|200:48|202:96|202:109|89:116,1,323.999990112305,2|0,0:0|0:0,0:0:0:0:
10,121,234001,5,2,3:2:0:0:
134,172,234151,1,2,0:0:0:0:
255,113,234301,1,2,0:0:0:0:
365,190,234451,1,2,0:0:0:0:
450,85,234601,2,0,L|402:103,1,45,0|0,3:0|0:0,0:0:0:0:
322,205,234751,2,0,L|364:189,1,45,0|0,0:0|0:0,0:0:0:0:
484,234,234901,2,0,L|436:252,1,45,0|0,0:0|0:0,0:0:0:0:
356,354,235051,2,0,L|398:338,1,45,0|0,0:0|0:0,0:0:0:0:
484,234,235201,6,0,B|385:199|399:264|304:228,1,180,4|0,3:2|0:0,0:0:0:0:
151,175,235501,6,0,B|114:179|94:145|94:145|103:228|176:279|283:221,1,270.000010299683,2|0,0:0|3:0,0:0:0:0:
342,331,235951,2,0,B|399:284|375:199|299:163|299:163|325:193|309:227,1,270.000010299683,2|0,0:0|0:0,0:0:0:0:
147,70,236401,1,2,3:2:0:0:
147,70,236551,1,2,0:0:0:0:
88,191,236701,2,0,L|37:91,1,90,2|2,0:0|0:0,0:0:0:0:
200,157,237001,5,0,3:0:0:0:
128,271,237151,1,0,1:0:0:0:
200,157,237301,1,0,1:0:0:0:
303,257,237451,1,0,1:0:0:0:
190,346,237601,6,0,L|208:252,1,90,4|0,3:2|0:0,0:0:0:0:
258,47,237901,6,0,B|311:93|302:162|302:162|329:105|435:82,1,270.000010299683,2|0,0:0|0:0,0:0:0:0:
258,47,238351,2,0,B|311:93|302:162|302:162|329:105|435:82,1,270.000010299683,2|0,0:0|0:0,0:0:0:0:
390,229,238801,1,2,3:2:0:0:
421,350,238951,1,2,0:0:0:0:
308,293,239101,1,2,0:0:0:0:
207,368,239251,1,2,0:0:0:0:
48,152,239401,6,0,L|100:196,1,45,2|0,0:0|0:0,0:0:0:0:
179,259,239551,2,0,L|131:221,1,45,2|0,0:0|0:0,0:0:0:0:
167,139,239701,2,0,L|123:192,1,45,2|0,0:0|0:0,0:0:0:0:
60,271,239851,2,0,L|98:223,1,45,2|0,0:0|0:0,0:0:0:0:
253,62,240001,5,0,3:2:0:0:
327,223,240301,2,0,B|387:159|349:58|349:58|347:127|284:153,1,270,2|0,0:0|0:0,0:0:0:0:
367,310,240601,1,0,3:0:0:0:
174,342,240751,2,0,B|127:319|134:255|134:255|203:223|272:268|221:300|328:365|405:282,1,360,2|0,0:0|0:0,0:0:0:0:
473,111,241201,5,2,3:2:0:0:
385,147,241351,1,2,0:0:0:0:
421,235,241501,1,2,0:0:0:0:
509,199,241651,1,2,0:0:0:0:
327,223,241801,5,0,3:0:0:0:
397,53,241951,1,0,1:0:0:0:
509,199,242101,1,0,1:0:0:0:
313,117,242251,1,0,1:0:0:0:
270,300,242401,6,0,L|274:397,1,72,4|0,3:2|0:0,0:0:0:0:
327,223,242701,2,0,B|274:185|208:208|185:255|185:255|125:274|83:231,1,270,2|0,0:0|0:0,0:0:0:0:
270,300,243001,1,0,3:0:0:0:
46,160,243151,2,0,P|186:148|62:216,1,360,2|0,0:0|0:0,0:0:0:0:
213,33,243601,5,2,3:2:0:0:
304,16,243751,1,2,0:0:0:0:
364,89,243901,1,2,0:0:0:0:
271,104,244051,1,2,0:0:0:0:
397,1,244201,5,0,3:0:0:0:
398,21,244276,1,0,0:0:0:0:
399,41,244351,1,0,0:0:0:0:
401,61,244426,1,0,0:0:0:0:
402,81,244501,1,0,0:0:0:0:
404,101,244576,1,0,0:0:0:0:
405,122,244651,1,0,0:0:0:0:
407,142,244726,1,0,0:0:0:0:
408,162,244801,6,0,L|405:192,3,18,4|0|0|0,3:2|0:0|0:0|0:0,0:0:0:0:
196,274,245101,6,0,B|240:226|304:246|304:246|338:284|387:273|387:273|353:267|329:234,1,270,2|0,0:0|0:0,0:0:0:0:
116,327,245401,1,0,3:0:0:0:
91,164,245551,2,0,B|131:132|131:81|131:81|179:148|136:222|111:196|61:275|141:362,1,360,2|0,0:0|0:0,0:0:0:0:
245,145,246001,5,2,3:2:0:0:
224,52,246151,1,2,0:0:0:0:
317,31,246301,1,2,0:0:0:0:
338,124,246451,1,2,0:0:0:0:
154,117,246601,5,0,3:0:0:0:
317,31,246751,1,0,1:0:0:0:
309,215,246901,1,0,1:0:0:0:
224,52,247051,1,0,1:0:0:0:
230,288,247201,6,0,P|228:326|251:371,1,72,4|0,3:2|0:0,0:0:0:0:
512,342,247501,2,0,B|452:348|404:312|399:247|399:247|376:310|293:314,1,270,2|0,0:0|0:0,0:0:0:0:
495,247,247801,1,0,3:0:0:0:
309,215,247951,2,0,P|231:99|365:138,1,360,2|0,0:0|0:0,0:0:0:0:
322,310,248401,5,4,0:0:0:0:
322,310,249001,1,2,0:0:0:0:
286,313,249076,1,2,0:0:0:0:
246,308,249151,1,2,0:0:0:0:
206,291,249226,1,2,0:0:0:0:
169,261,249301,1,2,0:0:0:0:
139,219,249376,1,2,0:0:0:0:
124,167,249451,1,2,0:0:0:0:
127,109,249526,1,2,0:0:0:0:
151,53,249601,6,0,P|131:93|127:115,1,54,4|0,3:2|0:0,0:0:0:0:
94,226,249901,6,0,B|81:281|16:310|16:310|264:294,1,360,2|0,0:0|3:0,0:0:0:0:
420,284,250351,2,0,B|433:229|498:200|498:200|250:216,1,360,2|0,0:0|0:0,0:0:0:0:
78,228,250801,5,2,3:2:0:0:
167,221,250951,1,2,0:0:0:0:
256,214,251101,1,2,0:0:0:0:
167,221,251251,1,2,0:0:0:0:
290,351,251401,1,0,3:0:0:0:
166,222,251551,1,0,1:0:0:0:
345,208,251701,1,0,1:0:0:0:
477,330,251851,1,0,1:0:0:0:
381,156,252001,6,0,B|363:122|363:122|348:203,1,101.250003862381,4|0,3:2|0:0,0:0:0:0:
318,361,252301,6,0,B|78:276|78:276|163:236,1,323.999990112305,2|0,0:0|3:0,0:0:0:0:
315,160,252751,2,0,P|341:152|239:112,1,323.999990112305,2|0,0:0|0:0,0:0:0:0:
315,160,253201,1,2,3:2:0:0:
228,263,253351,1,2,0:0:0:0:
315,160,253501,1,2,0:0:0:0:
401,263,253651,1,2,0:0:0:0:
303,356,253801,6,0,L|322:300,1,45,0|0,3:0|0:0,0:0:0:0:
252,194,253951,2,0,L|280:239,1,45,0|0,0:0|0:0,0:0:0:0:
202,363,254101,2,0,L|221:307,1,45,0|0,0:0|0:0,0:0:0:0:
151,201,254251,2,0,L|179:246,1,45,0|0,0:0|0:0,0:0:0:0:
110,365,254401,2,0,L|131:315,3,45,4|0|0|0,3:2|0:0|0:0|0:0,0:0:0:0:
80,213,254701,6,0,B|46:169|85:89|85:89|170:196|302:194,1,360,2|0,0:0|3:0,0:0:0:0:
391,149,255151,2,0,B|395:74|483:41|483:41|465:73|465:73|498:84|498:84|493:245|392:318,1,450,2|0,0:0|0:0,0:0:0:0:
163,307,255601,1,2,3:2:0:0:
290,261,255751,1,2,0:0:0:0:
421,289,255901,2,0,P|348:263|315:261,1,90,2|2,0:0|0:0,0:0:0:0:
151,129,256201,1,0,3:0:0:0:
381,177,256351,1,0,1:0:0:0:
238,244,256501,1,0,1:0:0:0:
379,45,256651,1,0,1:0:0:0:
401,318,256801,6,0,B|382:281|382:281|384:235,1,72,4|0,3:2|0:0,0:0:0:0:
401,318,257101,6,0,B|382:281|382:281|389:151|389:151|497:293|497:293|483:375|483:375,1,396.000012084961,2|0,0:0|3:0,0:0:0:0:
300,216,257551,2,0,B|308:126|308:126|169:191|169:191|103:139|103:139|171:155,1,396.000012084961,2|0,0:0|0:0,0:0:0:0:
417,273,258001,1,2,3:2:0:0:
300,216,258151,2,0,L|290:316,2,90,2|2|2,0:0|0:0|0:0,0:0:0:0:
148,296,258601,2,0,L|141:341,1,45,2|0,0:0|0:0,0:0:0:0:
84,201,258751,2,0,L|39:193,1,45,2|0,0:0|0:0,0:0:0:0:
57,120,258901,2,0,L|102:129,1,45,2|0,0:0|0:0,0:0:0:0:
205,17,259051,2,0,L|197:62,1,45,2|0,0:0|0:0,0:0:0:0:
296,264,259201,5,0,3:0:0:0:
296,264,259501,2,0,B|338:205|314:146|277:118|277:118|209:139|226:234,1,270,2|0,0:0|0:0,0:0:0:0:
217,324,259801,1,0,3:0:0:0:
512,340,259951,2,0,B|440:296|440:296|360:322|360:322|368:346|368:346|288:368|288:368|204:316,1,360,2|0,0:0|0:0,0:0:0:0:
404,216,260401,5,2,3:2:0:0:
392,120,260551,1,2,0:0:0:0:
470,62,260701,1,2,0:0:0:0:
482,158,260851,1,2,0:0:0:0:
314,178,261001,5,0,3:0:0:0:
470,62,261151,1,0,1:0:0:0:
404,216,261301,1,0,1:0:0:0:
302,82,261451,1,0,1:0:0:0:
326,274,261601,6,0,L|320:368,1,72,4|0,3:2|0:0,0:0:0:0:
82,360,261901,2,0,B|152:375|191:317|191:317|277:277|336:365,1,270,2|0,0:0|0:0,0:0:0:0:
108,268,262201,1,0,3:0:0:0:
169,103,262351,2,0,B|144:147|160:187|160:187|110:157|50:170|18:231|18:231|56:289|140:259,1,360,2|0,0:0|0:0,0:0:0:0:
249,155,262801,5,2,3:2:0:0:
268,248,262951,1,2,0:0:0:0:
359,279,263101,1,2,0:0:0:0:
378,372,263251,1,2,0:0:0:0:
249,155,263401,6,0,L|352:164,1,72,0|0,3:0|0:0,0:0:0:0:
468,96,263551,2,0,L|365:105,1,72,0|0,0:0|0:0,0:0:0:0:
236,59,263701,2,0,L|339:68,1,72,0|0,0:0|0:0,0:0:0:0:
455,0,263851,2,0,L|352:9,1,72,0|0,0:0|0:0,0:0:0:0:
320,161,264001,6,0,L|318:192,3,18,4|0|0|0,3:2|0:0|0:0|0:0,0:0:0:0:
191,290,264301,2,0,B|276:336|354:268|354:268|305:286|263:256,1,270,2|0,0:0|0:0,0:0:0:0:
103,330,264601,1,0,3:0:0:0:
9,196,264751,2,0,B|-15:123|41:68|110:64|178:113|154:201|154:201|117:216|94:270,1,360,2|0,0:0|0:0,0:0:0:0:
318,178,265201,5,2,3:2:0:0:
300,84,265351,1,2,0:0:0:0:
394,66,265501,1,2,0:0:0:0:
412,160,265651,1,2,0:0:0:0:
228,147,265801,5,0,3:0:0:0:
394,66,265951,1,0,1:0:0:0:
381,250,266101,1,0,1:0:0:0:
209,53,266251,1,0,1:0:0:0:
197,233,266401,6,0,P|229:165|189:85,1,96,4|0,3:2|0:0,0:0:0:0:
107,272,266601,6,0,P|181:265|231:191,1,96,4|0,3:2|0:0,0:0:0:0:
27,216,266801,6,0,P|69:277|159:283,1,96,4|0,3:2|0:0,0:0:0:0:
35,120,267001,6,0,P|2:188|42:268,1,96,4|0,3:2|0:0,0:0:0:0:
124,78,267201,6,0,P|49:84|0:158,1,96,4|0,3:2|0:0,0:0:0:0:
203,134,267401,6,0,P|160:72|70:66,1,96,4|0,3:2|0:0,0:0:0:0:
197,233,267601,6,0,P|229:165|189:85,1,96,4|0,3:2|0:0,0:0:0:0:
115,176,267901,5,2,0:0:0:0:
88,180,268201,1,0,0:0:0:0:
61,184,268501,1,0,0:0:0:0:
197,233,268801,5,6,0:0:0:0:
355,317,269107,1,2,0:0:0:0:
197,233,269413,1,2,0:0:0:0:
355,318,269719,1,2,0:0:0:0:
490,199,270025,5,2,0:0:0:0:
404,225,270331,1,2,0:0:0:0:
353,150,270637,1,2,0:0:0:0:
404,225,270943,1,2,0:0:0:0:
464,42,271247,5,0,0:0:0:0:
404,225,271559,1,2,0:0:0:0:
211,273,271872,1,2,0:0:0:0:
29,194,272184,1,2,0:0:0:0:
211,273,272497,1,2,0:0:0:0:
243,189,272809,1,2,0:0:0:0:
154,207,273122,1,2,0:0:0:0:
211,273,273434,1,2,0:0:0:0:
420,240,273747,5,2,0:0:0:0:
234,351,274066,1,2,0:0:0:0:
151,151,274385,1,2,0:0:0:0:
234,351,274704,1,2,0:0:0:0:
151,151,275023,1,2,0:0:0:0:
315,10,275342,1,2,0:0:0:0:
301,117,275661,1,2,0:0:0:0:
91,63,275981,1,2,0:0:0:0:
65,165,276300,1,2,0:0:0:0:
147,201,276626,1,2,0:0:0:0:
266,162,276952,1,2,0:0:0:0:
373,18,277278,1,2,0:0:0:0:
440,145,277604,1,2,0:0:0:0:
337,246,277930,1,2,0:0:0:0:
423,361,278256,1,2,0:0:0:0:
337,246,278582,1,2,0:0:0:0:
112,111,278908,5,2,3:2:0:0:
112,111,279241,1,2,3:2:0:0:
273,288,279574,2,0,P|204:297|171:283,1,90,2|0,3:2|0:0,0:0:0:0:
112,252,279908,2,0,P|74:201|72:154,1,90,2|0,3:2|0:0,0:0:0:0:
99,44,280241,1,2,3:2:0:0:
99,44,280574,1,2,3:2:0:0:
342,94,280908,6,0,P|355:162|344:196,1,90,2|0,3:2|0:0,0:0:0:0:
317,257,281242,2,0,P|268:298|222:303,1,90,2|0,3:2|0:0,0:0:0:0:
110,284,281575,1,2,3:2:0:0:
110,284,281908,1,2,3:2:0:0:
288,163,282241,6,0,P|320:253|292:336,1,180,2|2,3:2|3:2,0:0:0:0:
268,366,282741,1,0,0:0:0:0:
156,228,282908,1,2,3:2:0:0:
333,255,283241,1,2,3:2:0:0:
458,126,283574,1,2,3:2:0:0:
291,56,283908,1,2,3:2:0:0:
99,288,284241,5,2,3:2:0:0:
83,211,284408,1,0,3:0:0:0:
208,219,284574,5,2,3:2:0:0:
231,97,284741,1,0,3:0:0:0:
306,258,284908,5,2,3:2:0:0:
162,176,285074,1,0,3:0:0:0:
359,98,285241,5,2,3:2:0:0:
303,305,285408,1,0,3:0:0:0:
177,59,285574,5,2,3:2:0:0:
124,64,285658,1,0,3:0:0:0:
82,97,285741,1,0,3:0:0:0:
65,146,285824,1,0,3:0:0:0:
77,198,285908,1,2,3:2:0:0:
114,235,285991,1,0,0:0:0:0:
166,246,286074,1,0,0:0:0:0:
216,228,286158,1,0,3:0:0:0:
252,192,286241,5,2,3:2:0:0:
288,153,286324,1,0,3:0:0:0:
339,140,286408,1,0,3:0:0:0:
389,156,286491,1,0,3:0:0:0:
423,197,286574,1,2,3:2:0:0:
430,249,286658,1,0,3:0:0:0:
407,297,286741,1,0,3:0:0:0:
362,326,286824,1,0,3:0:0:0:
269,305,286908,6,0,L|300:386,1,72,0|0,0:0|0:0,0:0:0:0:
379,193,287241,2,0,L|340:269,1,72,0|0,0:0|0:0,0:0:0:0:
171,245,287574,6,0,L|202:326,1,72,0|0,0:0|0:0,0:0:0:0:
281,133,287907,2,0,L|242:209,1,72,0|0,0:0|0:0,0:0:0:0:
248,357,288235,6,0,B|200:247|142:186|34:200|19:290|51:364|160:386|196:327|229:231|138:137|51:132,1,540,0|0,0:0|0:0,0:0:0:0:
44,57,288940,2,0,P|121:72|148:97,1,90,0|0,0:0|0:0,0:0:0:0:
214,136,289293,2,0,B|250:156|286:140|270:132|310:116|346:132,1,135,0|0,0:0|0:0,0:0:0:0:
343,130,289646,6,0,L|338:295,1,144,4|2,3:2|0:0,0:0:0:0:
298,367,289998,1,10,0:0:0:0:
135,300,290175,2,0,P|183:278|236:285,1,107.999996704102,2|8,0:0|0:0,0:0:0:0:
399,352,290528,2,0,P|350:373|297:366,1,107.999996704102,2|8,0:0|0:0,0:0:0:0:
197,380,290881,1,2,0:0:0:0:
277,192,291057,5,10,0:0:0:0:
338,273,291234,1,2,0:0:0:0:
176,204,291410,1,10,0:0:0:0:
215,110,291587,1,2,0:0:0:0:
237,285,291763,1,10,0:0:0:0:
114,122,291940,1,2,0:0:0:0:
355,0,292116,1,10,0:0:0:0:
277,192,292292,1,2,0:0:0:0:
215,110,292469,5,8,0:0:0:0:
379,179,292646,1,2,0:0:0:0:
176,204,292822,1,10,0:0:0:0:
418,85,292998,2,0,P|472:140|472:212,1,107.999996704102,2|8,0:0|0:0,0:0:0:0:
449,366,293351,2,0,L|437:242,1,107.999996704102,2|8,0:0|0:0,0:0:0:0:
379,179,293704,1,2,0:0:0:0:
337,270,293881,6,0,P|389:279|438:258,1,107.999996704102,10|0,0:0|0:0,0:0:0:0:
279,188,294234,1,10,0:0:0:0:
237,279,294410,1,2,0:0:0:0:
221,106,294587,1,10,0:0:0:0:
179,197,294763,1,2,0:0:0:0:
379,179,294940,1,10,0:0:0:0:
337,270,295116,1,2,0:0:0:0:
321,97,295293,5,8,0:0:0:0:
437,261,295469,1,2,0:0:0:0:
179,197,295646,1,10,0:0:0:0:
379,179,295822,2,0,P|416:128|408:44,1,107.999996704102,2|8,0:0|0:0,0:0:0:0:
279,188,296175,2,0,P|304:245|381:280,1,107.999996704102,2|8,0:0|0:0,0:0:0:0:
321,97,296528,1,2,0:0:0:0:
179,197,296704,5,10,0:0:0:0:
266,13,296881,1,2,0:0:0:0:
279,188,297057,1,10,0:0:0:0:
221,106,297234,1,2,0:0:0:0:
379,179,297410,1,10,0:0:0:0:
124,117,297587,1,2,0:0:0:0:
366,4,297763,1,10,0:0:0:0:
237,279,297940,1,2,0:0:0:0:
221,106,298116,5,8,0:0:0:0:
337,270,298293,1,2,0:0:0:0:
82,208,298469,1,10,0:0:0:0:
279,188,298646,2,0,P|308:156|316:76,1,107.999996704102,2|8,0:0|0:0,0:0:0:0:
129,9,298998,2,0,L|123:137,1,107.999996704102,2|8,0:0|0:0,0:0:0:0:
237,279,299351,1,2,0:0:0:0:
336,274,299528,6,0,P|280:187|178:196,1,215.999993408203,10|10,0:0|0:0,0:0:0:0:
136,289,300057,1,2,0:0:0:0:
34,120,300234,2,0,L|130:116,1,90,10|2,0:0|0:0,0:0:0:0:
236,31,300587,2,0,L|140:27,1,72,10|2,0:0|0:0,0:0:0:0:
196,158,300940,6,0,L|334:170,1,135.000005149842,8|0,0:0|0:0,0:0:0:0:
484,181,301293,1,8,3:0:0:0:
318,377,301646,6,0,P|329:290|382:243,1,135.000005149842,8|0,0:0|0:0,0:0:0:0:
484,181,301999,1,8,3:0:0:0:
358,254,302351,6,0,L|206:264,1,135.000005149842,8|0,0:0|0:0,0:0:0:0:
20,269,302704,1,8,3:0:0:0:
167,34,303057,6,0,P|156:111|111:166,1,135.000005149842,8|0,0:0|0:0,0:0:0:0:
20,269,303410,1,8,3:0:0:0:
230,361,303763,6,0,P|215:296|153:272,1,135,8|0,0:0|0:0,0:0:0:0:
20,269,304116,1,8,3:0:0:0:
426,334,304469,6,0,B|344:377|362:256|268:293,1,180,8|8,0:0|3:0,0:0:0:0:
190,341,304998,2,0,B|151:319|118:245|234:208|220:109|156:80,1,270,0|8,0:0|3:0,0:0:0:0:
87,112,305704,2,0,P|31:127|76:57,1,180,0|0,0:0|0:0,0:0:0:0:
290,59,306234,1,8,3:0:0:0:
218,187,306410,1,0,0:0:0:0:
346,270,306587,5,0,3:0:0:0:
347,274,306675,1,0,3:0:0:0:
348,279,306763,1,0,3:0:0:0:
349,284,306851,1,0,3:0:0:0:
351,289,306940,1,8,3:0:0:0:
352,294,307028,1,0,3:0:0:0:
353,298,307116,1,0,3:0:0:0:
355,303,307204,1,0,3:0:0:0:
360,313,307293,5,0,3:0:0:0:
390,279,307381,1,0,3:0:0:0:
420,246,307469,1,0,3:0:0:0:
450,212,307557,1,0,3:0:0:0:
480,179,307646,1,8,3:0:0:0:
418,151,307734,1,0,3:0:0:0:
360,126,307822,1,0,3:0:0:0:
302,101,307910,1,0,3:0:0:0:
244,76,307998,1,0,3:0:0:0:
178,58,308087,5,0,3:0:0:0:
180,77,308175,1,0,3:0:0:0:
183,96,308263,1,0,3:0:0:0:
186,115,308351,1,8,3:0:0:0:
189,134,308440,1,0,3:0:0:0:
192,153,308528,1,0,3:0:0:0:
194,172,308616,1,0,3:0:0:0:
121,264,308704,1,0,3:0:0:0:
119,269,308793,5,0,3:0:0:0:
118,274,308881,1,0,3:0:0:0:
116,280,308969,1,0,3:0:0:0:
115,285,309057,1,8,3:0:0:0:
113,291,309146,1,0,3:0:0:0:
112,296,309234,1,0,3:0:0:0:
110,302,309322,1,0,3:0:0:0:
109,307,309410,6,0,P|61:245|59:195,1,90,0|0,0:0|0:0,0:0:0:0:
132,84,309763,2,0,P|129:139|100:179,1,90,0|0,0:0|0:0,0:0:0:0:
132,84,310116,2,0,P|129:139|100:179,1,90,0|0,0:0|0:0,0:0:0:0:
131,252,310469,2,0,P|110:212|111:168,1,90,0|0,0:0|0:0,0:0:0:0:
222,77,310822,5,0,3:0:0:0:
265,87,310910,1,0,3:0:0:0:
309,97,310998,1,0,3:0:0:0:
353,108,311086,1,0,3:0:0:0:
463,178,311175,1,0,3:0:0:0:
419,188,311263,1,0,3:0:0:0:
375,198,311351,1,0,3:0:0:0:
331,209,311439,1,0,3:0:0:0:
288,223,311528,2,0,L|293:281,1,45,4|4,0:3|0:3,0:0:0:0:
406,342,311704,2,0,L|402:297,1,45,4|4,0:3|0:3,0:0:0:0:
335,151,311881,2,0,L|338:195,1,45,8|8,0:3|0:3,0:0:0:0:
418,99,312057,2,0,L|417:54,1,45,8|8,0:3|0:3,0:0:0:0:
88,66,312234,6,0,L|63:170,1,90,4|0,3:2|0:0,0:0:0:0:
41,293,312410,2,0,P|60:350|107:383,1,90,2|0,0:0|0:0,0:0:0:0:
214,323,312587,2,0,P|254:277|259:220,1,90,2|0,3:2|0:0,0:0:0:0:
154,159,312763,2,0,P|94:147|42:171,1,90,2|0,0:0|0:0,0:0:0:0:
136,258,312939,1,0,3:2:0:0:
212,9,313116,6,0,B|218:81|218:81|250:101|250:101|258:200,1,180,2|0,0:0|3:2,0:0:0:0:
424,368,313469,2,0,L|412:241,1,90,2|0,0:0|0:0,0:0:0:0:
428,176,313646,6,0,P|484:204|516:256,1,72,2|0,3:2|0:0,0:0:0:0:
415,278,313822,1,2,0:0:0:0:
351,112,313998,2,0,P|403:77|464:75,1,72,2|0,3:2|0:0,0:0:0:0:
507,111,314175,1,2,0:0:0:0:
337,213,314351,6,0,P|264:212|196:131,1,107.999996704102,2|0,3:2|0:0,0:0:0:0:
264,21,314528,1,2,0:0:0:0:
135,213,314704,2,0,P|139:166|191:102,1,107.999996704102,2|0,3:2|0:0,0:0:0:0:
283,8,314881,1,2,0:0:0:0:
431,176,315057,6,0,P|435:236|383:308,1,90,0|0,3:2|0:0,0:0:0:0:
221,363,315234,2,0,B|197:323|197:323|189:231,1,90,2|0,0:0|0:0,0:0:0:0:
338,32,315410,2,0,B|334:75|334:75|310:115,1,90,2|0,3:2|0:0,0:0:0:0:
167,182,315587,2,0,B|218:170|267:186|241:215|300:235|375:201,1,180,2|0,0:0|3:2,0:0:0:0:
74,220,315940,6,0,P|70:160|122:88,1,90,2|0,0:0|0:0,0:0:0:0:
176,32,316116,1,0,3:2:0:0:
333,309,316293,2,0,P|337:249|285:177,1,90,2|0,0:0|0:0,0:0:0:0:
38,315,316469,6,0,B|100:334|150:307|134:285|186:243|266:280,1,216,2|0,3:2|0:0,0:0:0:0:
409,161,316822,6,0,P|337:121|253:153,1,125.999996154785,2|0,3:2|0:0,0:0:0:0:
148,160,316998,2,0,P|179:164|210:158,1,62.9999980773926,2|0,0:0|0:0,0:0:0:0:
358,319,317175,6,0,P|355:265|326:220,1,107.999996704102,2|0,3:2|0:0,0:0:0:0:
267,81,317351,2,0,P|277:105|296:125,1,53.9999983520508,2|0,0:0|0:0,0:0:0:0:
260,296,317528,5,2,3:2:0:0:
361,49,317704,1,2,0:0:0:0:
174,278,317881,6,0,P|214:296|259:296,1,90,0|0,3:2|0:0,0:0:0:0:
136,184,318057,2,0,P|100:209|77:248,1,90,2|0,0:0|0:0,0:0:0:0:
326,137,318234,2,0,P|321:93|299:54,1,90,2|0,3:2|0:0,0:0:0:0:
188,35,318410,2,0,B|197:106|197:106|226:124|226:124|236:212,1,180,2|0,0:0|3:2,0:0:0:0:
448,360,318763,6,0,P|472:320|472:256,1,90,2|0,0:0|0:0,0:0:0:0:
417,195,318939,1,0,3:2:0:0:
310,345,319116,2,0,P|350:322|382:266,1,90,2|0,0:0|0:0,0:0:0:0:
152,176,319293,6,0,L|160:276,1,72,2|0,3:2|0:0,0:0:0:0:
217,330,319469,1,2,0:0:0:0:
422,123,319646,2,0,L|414:223,1,72,2|0,3:2|0:0,0:0:0:0:
375,286,319822,1,2,0:0:0:0:
101,88,319998,6,0,P|169:76|233:112,1,107.999996704102,2|0,3:2|0:0,0:0:0:0:
280,242,320175,1,2,0:0:0:0:
254,1,320351,2,0,P|298:53|299:127,1,107.999996704102,2|0,3:2|0:0,0:0:0:0:
275,267,320528,1,2,0:0:0:0:
28,20,320704,6,0,P|4:64|16:140,1,90,0|0,3:2|0:0,0:0:0:0:
16,283,320881,2,0,L|106:280,1,90,2|0,0:0|0:0,0:0:0:0:
192,84,321057,2,0,L|102:87,1,90,2|0,3:2|0:0,0:0:0:0:
65,181,321234,2,0,B|137:178|137:178|169:201|169:201|237:199,1,180,2|0,0:0|3:2,0:0:0:0:
430,317,321587,6,0,B|361:318|361:318|329:295|329:295|257:298,1,180,2|0,0:0|3:2,0:0:0:0:
393,218,321940,1,2,0:0:0:0:
186,369,322116,6,0,P|174:242|302:206,1,216,2|0,3:2|0:0,0:0:0:0:
312,132,322469,6,0,P|264:100|192:108,1,125.999996154785,2|0,3:2|0:0,0:0:0:0:
99,89,322646,2,0,P|125:32|180:4,1,125.999996154785,2|0,0:0|0:0,0:0:0:0:
373,51,322822,6,0,P|409:101|406:163,1,107.999996704102,2|0,3:2|0:0,0:0:0:0:
447,240,322998,2,0,P|490:208|509:159,1,107.999996704102,2|0,0:0|0:0,0:0:0:0:
236,198,323175,5,10,3:2:0:0:
436,340,323351,1,10,0:2:0:0:
356,352,323440,1,8,0:2:0:0:
276,364,323528,5,4,3:0:0:0:
152,221,323704,2,0,P|200:197|292:233,1,90,2|0,0:0|0:0,0:0:0:0:
447,240,323881,2,0,P|402:238|363:216,1,90,2|0,3:2|0:0,0:0:0:0:
224,17,324057,2,0,L|236:213,1,180,2|0,0:0|3:2,0:0:0:0:
100,304,324410,6,0,B|44:264|44:264|72:96,1,180,2|0,0:0|3:2,0:0:0:0:
316,256,324763,2,0,P|268:292|220:296,1,90,2|0,0:0|0:0,0:0:0:0:
152,221,324940,6,0,L|163:149,1,72,2|0,3:2|0:0,0:0:0:0:
179,56,325116,1,2,0:0:0:0:
388,184,325293,2,0,L|376:112,1,72,2|0,3:2|0:0,0:0:0:0:
361,19,325469,1,2,0:0:0:0:
152,221,325646,6,0,P|98:227|32:191,1,107.999996704102,2|0,3:2|0:0,0:0:0:0:
179,56,325822,1,2,0:0:0:0:
253,232,325998,2,0,P|232:281|167:321,1,107.999996704102,2|0,3:2|0:0,0:0:0:0:
172,80,326175,1,2,0:0:0:0:
152,221,326351,5,0,3:2:0:0:
269,25,326528,2,0,L|275:114,1,90,2|0,0:0|0:0,0:0:0:0:
401,285,326704,2,0,L|409:173,1,90,2|0,3:2|0:0,0:0:0:0:
445,98,326881,2,0,B|373:94|373:94|349:118|349:118|255:113,1,180,2|0,0:0|3:2,0:0:0:0:
152,221,327234,6,0,B|132:157|176:101|176:101|172:141|196:177,1,180,2|0,0:0|3:2,0:0:0:0:
196,309,327587,2,0,P|148:313|80:277,1,90,2|0,0:0|0:0,0:0:0:0:
4,143,327763,6,0,B|53:83|53:83|62:243,1,216,2|0,3:2|0:0,0:0:0:0:
152,221,328116,6,0,L|144:85,1,125.999996154785,2|0,3:2|0:0,0:0:0:0:
141,32,328293,2,0,L|144:94,1,62.9999980773926,2|0,0:0|0:0,0:0:0:0:
316,168,328469,6,0,L|324:32,1,107.999996704102,2|0,3:2|0:0,0:0:0:0:
325,6,328646,2,0,L|321:68,1,53.9999983520508,2|0,0:0|0:0,0:0:0:0:
152,221,328822,5,2,3:2:0:0:
325,6,328998,1,2,0:0:0:0:
316,168,329175,5,0,3:2:0:0:
62,217,329351,2,0,L|151:220,1,90,2|0,0:0|0:0,0:0:0:0:
307,293,329528,2,0,L|217:296,1,90,10|0,3:2|0:0,0:0:0:0:
158,378,329704,2,0,P|118:290|182:201,1,180,2|0,0:0|3:2,0:0:0:0:
276,90,330057,6,0,P|308:130|312:194,1,90,2|0,0:0|0:0,0:0:0:0:
217,295,330234,1,8,3:2:0:0:
217,9,330410,2,0,P|185:49|181:113,1,90,2|0,0:0|0:0,0:0:0:0:
347,95,330587,6,0,L|247:87,1,72,2|0,3:2|0:0,0:0:0:0:
156,172,330763,1,2,0:0:0:0:
384,244,330940,2,0,L|312:249,1,72,10|0,3:2|0:0,0:0:0:0:
180,176,331116,1,2,0:0:0:0:
436,144,331293,6,0,P|448:96|384:0,1,107.999996704102,2|0,3:2|0:0,0:0:0:0:
275,89,331469,1,2,0:0:0:0:
387,232,331646,2,0,P|435:244|531:180,1,107.999996704102,10|0,3:2|0:0,0:0:0:0:
272,116,331822,1,2,0:0:0:0:
280,336,331998,6,0,P|304:260|232:168,1,144,8|0,3:2|0:0,0:0:0:0:
138,192,332175,1,2,0:0:0:0:
349,126,332351,2,0,P|273:102|184:183,1,144,10|0,3:2|0:0,0:0:0:0:
203,268,332528,1,2,0:0:0:0:
140,59,332704,2,0,P|115:135|188:227,1,144,8|0,3:2|0:0,0:0:0:0:
282,203,332881,1,2,0:0:0:0:
70,268,333057,2,0,P|146:292|235:211,1,144,8|0,3:2|0:0,0:0:0:0:
217,127,333234,1,2,0:0:0:0:
280,336,333410,5,10,3:2:0:0:
411,183,333587,1,0,0:0:0:0:
407,135,333675,1,0,1:0:0:0:
403,87,333763,1,8,0:0:0:0:
448,278,333940,1,0,0:0:0:0:
245,241,334116,1,0,0:0:0:0:
298,236,334205,1,0,0:0:0:0:
346,259,334293,1,0,0:0:0:0:
394,282,334381,1,0,0:0:0:0:
448,278,334469,1,8,0:0:0:0:
181,319,334646,1,0,0:0:0:0:
153,273,334734,1,0,0:0:0:0:
147,221,334822,5,4,3:2:0:0:
275,91,334998,2,0,L|266:166,1,67.5000025749208,2|0,0:0|0:0,0:0:0:0:
334,348,335175,2,0,L|346:258,1,90,10|0,3:2|0:0,0:0:0:0:
463,41,335351,2,0,L|438:231,1,180,2|0,0:0|3:2,0:0:0:0:
129,333,335704,6,0,L|269:342,1,135.000005149842,2|8,0:0|3:2,0:0:0:0:
378,263,336057,6,0,L|324:256,1,45,2|0,0:0|0:0,0:0:0:0:
225,245,336234,2,0,P|234:201|268:173,1,90,2|0,3:2|0:0,0:0:0:0:
435,72,336410,2,0,P|426:115|392:144,1,90,2|0,0:0|0:0,0:0:0:0:
204,106,336587,2,0,P|247:94|288:110,1,90,10|0,3:2|0:0,0:0:0:0:
455,210,336763,2,0,P|413:222|372:206,1,90,2|0,0:0|0:0,0:0:0:0:
162,198,336940,6,0,P|179:149|208:124,1,67.5000025749208,2|0,3:2|0:0,0:0:0:0:
310,46,337116,2,0,P|299:89|275:127,1,90,2|0,0:0|0:0,0:0:0:0:
74,29,337293,2,0,L|93:171,1,135.000005149842,10|0,3:2|0:0,0:0:0:0:
67,336,337469,2,0,L|48:233,1,90,2|0,0:0|3:2,0:0:0:0:
437,307,337822,6,0,P|423:361|400:385,1,90,2|0,0:0|0:0,0:0:0:0:
305,222,337998,2,0,P|334:269|335:302,1,90,10|0,3:2|0:0,0:0:0:0:
133,347,338175,2,0,P|162:313|225:293,1,90,2|0,0:0|3:2,0:0:0:0:
133,347,338528,6,0,P|162:313|225:293,1,90,2|0,0:0|0:0,0:0:0:0:
411,323,338704,1,8,3:2:0:0:
468,120,338881,2,0,P|436:109|381:115,1,90,2|0,0:0|0:0,0:0:0:0:
235,169,339057,2,0,P|309:179|372:164,1,135.000005149842,2|0,3:2|0:0,0:0:0:0:
222,75,339410,6,0,P|226:108|243:137,1,67.5000025749208,10|0,3:2|0:0,0:0:0:0:
310,283,339587,2,0,P|329:319|327:369,1,67.5000025749208,2|0,0:0|0:0,0:0:0:0:
102,311,339763,2,0,P|90:268|100:220,1,67.5000025749208,2|0,3:2|0:0,0:0:0:0:
115,153,339940,2,0,P|136:114|177:87,1,67.5000025749208,2|0,0:0|0:0,0:0:0:0:
59,342,340116,2,0,P|42:282|50:233,1,90,10|0,3:2|0:0,0:0:0:0:
78,122,340293,2,0,P|107:67|141:42,1,90,2|0,0:0|3:2,0:0:0:0:
308,249,340645,6,0,L|241:253,1,67.5000025749208,2|0,0:0|0:0,0:0:0:0:
370,327,340822,2,0,L|453:320,1,67.5000025749208,10|0,3:2|0:0,0:0:0:0:
47,323,340998,2,0,B|129:340|129:340|241:311|241:311,1,180,2|0,0:0|3:2,0:0:0:0:
52,164,341351,6,0,B|109:155|109:155|153:170,1,90,2|0,0:0|0:0,0:0:0:0:
200,203,341528,1,8,3:2:0:0:
158,39,341704,2,0,B|190:70|190:70|188:127,1,90,2|0,0:0|0:0,0:0:0:0:
191,256,341881,6,0,L|294:274,1,67.5000025749208,2|0,3:2|0:0,0:0:0:0:
319,107,342057,2,0,L|301:210,1,67.5000025749208,2|0,0:0|0:0,0:0:0:0:
476,229,342234,6,0,L|373:211,1,67.5000025749208,10|0,3:2|0:0,0:0:0:0:
347,384,342410,2,0,L|364:281,1,67.5000025749208,2|0,0:0|0:0,0:0:0:0:
262,346,342587,6,0,L|173:330,1,90,2|0,3:2|0:0,0:0:0:0:
209,176,342763,2,0,L|224:87,1,90,2|0,0:0|0:0,0:0:0:0:
388,114,342940,6,0,L|476:129,1,90,10|0,3:2|0:0,0:0:0:0:
448,296,343116,2,0,L|432:384,1,90,2|0,0:0|3:2,0:0:0:0:
183,267,343469,6,0,L|161:187,1,67.5000025749208,2|0,0:0|0:0,0:0:0:0:
269,61,343645,2,0,L|257:144,1,67.5000025749208,10|0,3:2|0:0,0:0:0:0:
278,316,343822,2,0,P|311:333|461:274,1,202.500007724762,2|0,0:0|0:0,0:0:0:0:
266,205,344175,6,0,P|233:188|83:247,1,202.500007724762,2|0,0:0|0:0,0:0:0:0:
276,139,344528,2,0,L|263:230,1,67.5000025749208,2|0,0:0|0:0,0:0:0:0:
144,357,344704,6,0,B|76:308|76:308|109:120,1,270.000010299683,2|0,3:2|0:0,0:0:0:0:
315,117,345057,5,10,3:2:0:0:
178,278,345234,2,0,L|310:237,1,116.999994644165,2|0,0:0|0:0,0:0:0:0:
363,180,345410,6,0,L|390:249,1,67.5000025749208,2|0,3:2|0:0,0:0:0:0:
454,149,345587,2,0,L|429:86,1,67.5000025749208,2|0,0:0|0:0,0:0:0:0:
129,60,345763,6,0,L|271:79,1,135.000005149842,10|0,3:2|0:0,0:0:0:0:
338,174,345940,2,0,L|204:156,1,135.000005149842,10|8,0:2|0:2,0:0:0:0:
54,249,346116,1,4,3:0:0:0:
166,355,346293,6,0,P|210:344|246:318,1,90,2|0,0:0|0:0,0:0:0:0:
345,287,346469,2,0,P|315:253|275:233,1,90,10|0,3:2|0:0,0:0:0:0:
202,172,346645,2,0,P|185:213|185:258,1,90,2|0,0:0|3:2,0:0:0:0:
128,105,346998,6,0,P|93:191|93:285,1,180,2|8,0:0|3:2,0:0:0:0:
238,347,347351,6,0,B|247:296|207:257,1,90,2|0,0:0|0:0,0:0:0:0:
487,194,347528,6,0,P|430:203|404:229,1,90,2|0,3:2|0:0,0:0:0:0:
315,87,347704,2,0,P|324:144|350:170,1,90,2|0,0:0|0:0,0:0:0:0:
214,250,347881,6,0,P|271:241|297:215,1,90,10|0,3:2|0:0,0:0:0:0:
374,358,348057,2,0,P|365:301|339:275,1,90,2|0,0:0|0:0,0:0:0:0:
116,359,348234,6,0,P|125:302|151:276,1,90,2|0,3:2|0:0,0:0:0:0:
30,159,348410,2,0,P|35:203|16:242,1,90,2|0,0:0|0:0,0:0:0:0:
302,278,348587,6,0,P|293:221|267:195,1,90,10|0,3:2|0:0,0:0:0:0:
405,59,348763,2,0,P|399:103|471:165,1,135.000005149842,2|0,0:0|3:2,0:0:0:0:
105,94,349116,6,0,L|185:139,1,90,2|0,0:0|0:0,0:0:0:0:
273,82,349293,2,0,L|272:193,1,90,10|0,3:2|0:0,0:0:0:0:
368,219,349469,2,0,L|279:328,1,135.000005149842,2|0,0:0|3:2,0:0:0:0:
34,259,349822,6,0,L|229:250,1,180,2|8,0:0|3:2,0:0:0:0:
69,340,350175,6,0,L|158:337,1,90,2|0,0:0|0:0,0:0:0:0:
338,368,350351,2,0,B|289:325|289:325|386:143,1,270,2|0,3:2|0:0,0:0:0:0:
454,303,350704,6,0,L|444:205,1,90,10|0,3:2|0:0,0:0:0:0:
374,255,350881,2,0,L|383:344,1,90,2|0,0:0|0:0,0:0:0:0:
194,115,351057,6,0,L|292:105,1,90,2|0,3:2|0:0,0:0:0:0:
242,35,351234,2,0,L|152:44,1,90,2|0,0:0|0:0,0:0:0:0:
75,373,351410,6,0,L|66:284,1,90,10|0,3:2|0:0,0:0:0:0:
140,246,351587,2,0,L|149:335,1,90,2|0,0:0|0:0,0:0:0:0:
134,162,351763,5,0,3:2:0:0:
108,60,351940,1,2,3:2:0:0:
224,153,352116,1,10,3:2:0:0:
220,47,352293,1,2,3:2:0:0:
125,174,352469,5,0,3:2:0:0:
94,49,352645,1,2,3:2:0:0:
279,106,352822,1,8,3:2:0:0:
225,309,352999,1,2,3:2:0:0:
375,173,353175,5,2,3:2:0:0:
429,376,353352,1,2,3:2:0:0:
316,278,353528,1,10,3:2:0:0:
336,373,353704,1,2,3:2:0:0:
447,250,353881,5,2,3:2:0:0:
421,373,354057,1,2,3:2:0:0:
282,235,354234,1,10,3:2:0:0:
304,372,354410,1,2,3:2:0:0:
477,181,354587,5,2,3:2:0:0:
447,168,354675,1,0,3:2:0:0:
418,155,354763,1,0,3:2:0:0:
388,143,354851,1,0,3:2:0:0:
376,75,354940,5,10,3:2:0:0:
345,86,355028,1,0,3:2:0:0:
314,97,355116,1,0,3:2:0:0:
285,110,355204,1,0,3:2:0:0:
227,73,355293,5,2,3:2:0:0:
212,102,355381,1,0,3:2:0:0:
198,132,355469,1,0,3:2:0:0:
187,162,355557,1,0,3:2:0:0:
123,185,355645,5,10,3:2:0:0:
132,216,355733,1,0,3:2:0:0:
144,247,355821,1,0,3:2:0:0:
157,276,355909,1,0,3:2:0:0:
115,329,355998,2,0,L|158:349,31,45,0|0|0|0|0|0|0|0|0|0|0|0|0|0|0|0|2|0|0|0|0|0|0|0|2|0|0|0|0|0|0|0,3:0|3:0|3:0|3:0|3:0|3:0|3:0|3:0|3:0|3:0|3:0|3:0|3:0|3:0|3:0|3:0|3:2|3:0|3:0|3:0|3:0|3:0|3:0|3:0|3:2|3:0|3:0|3:0|3:0|3:0|3:0|3:0,0:0:0:0:
24,288,357410,6,0,L|27:337,7,45,2|2|2|2|2|2|2|2,0:0|0:0|0:0|0:0|0:0|0:0|0:0|0:0,0:0:0:0:
216,256,368704,6,0,L|212:305,7,45,2|2|2|2|2|2|2|2,0:0|0:0|0:0|0:0|0:0|0:0|0:0|0:0,0:0:0:0:
168,144,379998,5,4,3:0:0:0:
200,240,380175,1,0,0:0:0:0:
275,57,380351,2,0,L|265:189,1,107.999996704102,0|0,3:0|0:0,0:0:0:0:
232,336,380704,1,0,3:0:0:0:
200,240,380881,1,0,0:0:0:0:
366,180,381057,2,0,P|343:229|300:261,1,107.999996704102,0|0,3:0|0:0,0:0:0:0:
60,147,381410,6,0,L|188:143,1,107.999996704102,0|0,3:0|0:0,0:0:0:0:
275,57,381763,1,0,3:0:0:0:
200,240,381940,1,0,0:0:0:0:
68,47,382116,2,0,L|176:44,1,107.999996704102,0|0,3:0|0:0,0:0:0:0:
366,180,382469,1,0,3:0:0:0:
167,143,382645,1,0,0:0:0:0:
373,72,382822,6,0,L|365:192,1,107.999996704102,0|0,3:0|0:0,0:0:0:0:
200,240,383175,1,0,3:0:0:0:
200,240,383351,1,0,0:0:0:0:
159,35,383528,2,0,L|167:155,1,107.999996704102,0|0,3:0|0:0,0:0:0:0:
299,261,383881,1,0,3:0:0:0:
299,261,384057,1,0,0:0:0:0:
275,57,384234,5,0,3:0:0:0:
373,72,384410,1,0,0:0:0:0:
166,142,384587,1,0,3:0:0:0:
166,142,384763,1,0,0:0:0:0:
309,325,384940,1,0,3:0:0:0:
407,310,385116,1,0,0:0:0:0:
200,240,385293,1,0,3:0:0:0:
200,240,385469,1,0,0:0:0:0:
96,384,385645,6,0,L|108:276,1,107.999996704102,0|0,3:0|0:0,0:0:0:0:
69,71,385998,2,0,L|81:179,1,107.999996704102,0|0,3:0|0:0,0:0:0:0:
204,305,386351,2,0,P|196:228|144:184,1,107.999996704102,0|0,3:0|0:0,0:0:0:0:
9,248,386704,2,0,P|54:275|107:275,1,107.999996704102,0|0,3:0|0:0,0:0:0:0:
164,104,387057,5,0,3:0:0:0:
178,205,387234,1,0,0:0:0:0:
265,89,387410,1,0,3:0:0:0:
279,191,387587,1,0,0:0:0:0:
203,10,387763,1,0,3:0:0:0:
178,205,387940,1,0,0:0:0:0:
398,35,388116,1,0,3:0:0:0:
373,230,388293,1,0,0:0:0:0:
164,104,388469,6,0,P|206:83|281:99,1,107.999996704102,0|0,3:0|0:0,0:0:0:0:
226,182,388822,1,0,3:0:0:0:
226,182,388998,1,0,0:0:0:0:
67,118,389175,2,0,P|69:71|121:14,1,107.999996704102,0|0,3:0|0:0,0:0:0:0:
226,182,389528,1,0,3:0:0:0:
226,182,389704,1,0,0:0:0:0:
63,259,389881,6,0,L|170:265,1,107.999996704102,0|0,3:0|0:0,0:0:0:0:
317,360,390234,2,0,P|265:372|214:355,1,107.999996704102,0|0,3:0|0:0,0:0:0:0:
226,182,390587,2,0,P|262:221|273:273,1,107.999996704102,0|0,3:0|0:0,0:0:0:0:
63,259,390940,2,0,L|60:205,1,53.9999983520508,8|0,3:0|0:0,0:0:0:0:
140,8,391116,1,8,0:3:0:0:
142,51,391204,1,8,0:3:0:0:
145,92,391293,6,0,P|63:101|15:61,1,107.999996704102,0|0,3:0|0:0,0:0:0:0:
232,42,391645,2,0,P|313:32|361:72,1,107.999996704102,0|0,3:0|0:0,0:0:0:0:
132,194,391998,1,0,3:0:0:0:
145,92,392175,1,0,0:0:0:0:
295,230,392351,1,0,3:0:0:0:
282,128,392528,1,0,0:0:0:0:
142,301,392704,6,0,L|130:177,1,107.999996704102,0|0,3:0|0:0,0:0:0:0:
282,128,393057,2,0,P|324:132|392:208,1,107.999996704102,0|0,3:0|0:0,0:0:0:0:
284,337,393410,2,0,L|296:213,1,107.999996704102,0|0,3:0|0:0,0:0:0:0:
145,92,393763,2,0,P|103:96|35:172,1,107.999996704102,0|0,3:0|0:0,0:0:0:0:
142,301,394116,5,0,3:0:0:0:
142,301,394293,1,0,0:0:0:0:
294,229,394469,2,0,L|426:241,1,107.999996704102,0|0,3:0|0:0,0:0:0:0:
142,301,394822,1,0,3:0:0:0:
142,301,394999,1,0,0:0:0:0:
282,128,395175,2,0,L|414:140,1,107.999996704102,0|0,3:0|0:0,0:0:0:0:
193,79,395528,6,0,P|182:132|198:183,1,107.999996704102,0|0,3:0|0:0,0:0:0:0:
405,341,395881,2,0,P|416:288|400:237,1,107.999996704102,0|0,3:0|0:0,0:0:0:0:
282,128,396234,1,0,3:0:0:0:
316,293,396410,1,0,0:0:0:0:
197,182,396587,1,0,3:0:0:0:
400,237,396763,1,0,0:0:0:0:
216,280,396940,5,0,0:0:0:0:
203,74,397116,2,0,L|195:210,1,107.999996704102,0|0,0:0|0:0,0:0:0:0:
120,244,397469,2,0,P|162:275|215:279,1,107.999996704102,0|0,0:0|0:0,0:0:0:0:
104,147,397822,2,0,P|50:150|8:182,1,107.999996704102,0|0,0:0|0:0,0:0:0:0:
316,293,398175,2,0,L|309:185,1,107.999996704102,0|0,0:0|0:0,0:0:0:0:
203,74,398528,6,0,L|299:70,1,90,0|0,0:0|0:0,0:0:0:0:
478,97,398881,2,0,L|389:94,1,90,0|0,0:0|0:0,0:0:0:0:
310,155,399234,2,0,P|292:114|292:69,1,90,0|0,0:0|0:0,0:0:0:0:
496,12,399587,2,0,P|496:56|478:97,1,90,0|0,0:0|0:0,0:0:0:0:
315,226,399940,6,0,L|307:122,1,72,0|0,0:0|0:0,0:0:0:0:
368,312,400293,2,0,L|264:320,1,72,0|0,0:0|0:0,0:0:0:0:
454,259,400645,2,0,L|462:363,1,72,0|0,0:0|0:0,0:0:0:0:
401,173,400998,2,0,L|505:165,1,72,0|0,0:0|0:0,0:0:0:0:
296,317,401351,5,0,0:0:0:0:
459,330,401704,1,0,0:0:0:0:
309,154,402057,1,0,0:0:0:0:
472,167,402410,1,0,0:0:0:0:
384,241,402587,5,0,3:0:0:0:
256,192,402675,12,0,406822,0:0:0:0:
