osu file format v14

[General]
AudioFilename: shelter.mp3
AudioLeadIn: 0
PreviewTime: 19602
Countdown: 0
SampleSet: Normal
StackLeniency: 1
Mode: 1
LetterboxInBreaks: 0
WidescreenStoryboard: 0

[Editor]
DistanceSpacing: 0.8
BeatDivisor: 2
GridSize: 4
TimelineZoom: 1.2

[Metadata]
Title:Shelter
TitleUnicode:Shelter
Artist:Porter Robinson & Madeon
ArtistUnicode:Porter Robinson & Madeon
Creator:Poii
Version:Tyis' Kantan
Source:Shelter
Tags:A-1 Pictures Crunchyroll EDM Electronic Dance Music cut short version tyistiana davidminh0111
BeatmapID:1431524
BeatmapSetID:665003

[Difficulty]
HPDrainRate:8
CircleSize:2
OverallDifficulty:2
ApproachRate:8
SliderMultiplier:1.4
SliderTickRate:1

[Events]
//Background and Video events
0,0,"BG.jpg",0,110
//Break Periods
//Storyboard Layer 0 (Background)
//Storyboard Layer 1 (Fail)
//Storyboard Layer 2 (Pass)
//Storyboard Layer 3 (Foreground)
//Storyboard Sound Samples

[TimingPoints]
402,600,4,1,0,80,1,0
19602,-100,4,1,0,80,0,1
38802,-100,4,1,0,80,0,0
77202,-100,4,1,0,80,0,1
95802,-100,4,1,0,80,0,0
96402,-100,4,1,0,80,0,1
113802,-100,4,1,0,60,0,1
115002,-100,4,1,0,50,0,1
115602,-100,4,1,0,40,0,0

[HitObjects]
256,192,402,5,0,0:0:0:0:
256,192,2802,1,0,0:0:0:0:
256,192,4002,1,8,0:0:0:0:
256,192,5202,1,0,0:0:0:0:
256,192,7602,1,0,0:0:0:0:
256,192,8202,1,8,0:0:0:0:
260,192,8802,1,0,0:0:0:0:
260,192,9402,1,8,0:0:0:0:
260,192,10002,1,4,0:0:0:0:
264,192,11202,1,0,0:0:0:0:
260,192,12402,1,0,0:0:0:0:
260,192,13002,1,8,0:0:0:0:
260,192,13602,1,8,0:0:0:0:
260,192,14802,1,8,0:0:0:0:
260,196,16002,1,0,0:0:0:0:
256,192,17202,12,0,19002,0:0:0:0:
256,192,19602,5,4,0:0:0:0:
260,192,20802,1,8,0:0:0:0:
264,192,22002,1,0,0:0:0:0:
260,192,22602,1,8,0:0:0:0:
264,192,23202,1,0,0:0:0:0:
260,192,24402,1,0,0:0:0:0:
260,192,25602,1,8,0:0:0:0:
260,192,26802,1,0,0:0:0:0:
260,192,27402,1,8,0:0:0:0:
260,192,28002,1,8,0:0:0:0:
260,192,28602,1,8,0:0:0:0:
260,192,29202,1,4,0:0:0:0:
256,192,30402,1,8,0:0:0:0:
256,192,31602,1,0,0:0:0:0:
256,192,32202,1,8,0:0:0:0:
256,192,32802,1,0,0:0:0:0:
260,192,34002,1,8,0:0:0:0:
260,192,35202,1,0,0:0:0:0:
256,192,36402,1,0,0:0:0:0:
256,192,37002,1,8,0:0:0:0:
256,192,37602,1,8,0:0:0:0:
256,192,38202,1,8,0:0:0:0:
256,192,38802,1,0,0:0:0:0:
256,196,40602,1,8,0:0:0:0:
256,192,43002,5,8,0:0:0:0:
256,192,43602,5,0,0:0:0:0:
260,192,44802,1,0,0:0:0:0:
256,192,46002,1,0,0:0:0:0:
256,192,47202,1,0,0:0:0:0:
256,192,47802,1,8,0:0:0:0:
256,192,48402,1,0,0:0:0:0:
260,192,49602,1,0,0:0:0:0:
260,192,50802,1,0,0:0:0:0:
260,192,52002,1,0,0:0:0:0:
256,192,52602,1,8,0:0:0:0:
260,196,53202,1,0,0:0:0:0:
256,192,54402,1,8,0:0:0:0:
256,192,55602,1,0,0:0:0:0:
256,192,56802,1,0,0:0:0:0:
256,192,57402,1,8,0:0:0:0:
256,192,57702,1,8,0:0:0:0:
256,192,58002,1,0,0:0:0:0:
256,192,59802,1,8,0:0:0:0:
256,192,60402,1,0,0:0:0:0:
256,192,62202,1,8,0:0:0:0:
256,192,62802,1,0,0:0:0:0:
256,196,63402,1,8,0:0:0:0:
256,196,64602,1,8,0:0:0:0:
256,192,65202,5,8,0:0:0:0:
256,192,67002,5,8,0:0:0:0:
256,192,67602,5,0,0:0:0:0:
260,192,68202,1,8,0:0:0:0:
260,192,69402,1,8,0:0:0:0:
260,192,70602,1,0,0:0:0:0:
260,192,71202,1,8,0:0:0:0:
260,192,71802,1,0,0:0:0:0:
256,192,72402,12,0,74802,0:0:0:0:
36,80,76002,6,0,L|196:80,1,140
256,192,77202,5,4,0:0:0:0:
260,192,78402,1,8,0:0:0:0:
264,192,79602,1,0,0:0:0:0:
260,192,80202,1,8,0:0:0:0:
264,192,80802,1,0,0:0:0:0:
260,192,82002,1,0,0:0:0:0:
260,192,83202,1,0,0:0:0:0:
260,192,84402,1,0,0:0:0:0:
260,192,85002,1,8,0:0:0:0:
260,192,85602,1,8,0:0:0:0:
260,192,86202,1,8,0:0:0:0:
260,192,86802,1,4,0:0:0:0:
256,192,88002,1,8,0:0:0:0:
256,192,89202,1,0,0:0:0:0:
256,192,89802,1,8,0:0:0:0:
256,192,90402,1,0,0:0:0:0:
260,192,91602,1,8,0:0:0:0:
260,192,92802,1,0,0:0:0:0:
256,192,94002,1,0,0:0:0:0:
256,192,94602,1,8,0:0:0:0:
256,192,95202,1,8,0:0:0:0:
256,192,95802,1,8,0:0:0:0:
256,192,96402,1,4,0:0:0:0:
256,192,97602,1,8,0:0:0:0:
264,192,98802,1,0,0:0:0:0:
260,192,99402,1,8,0:0:0:0:
264,192,100002,1,8,0:0:0:0:
260,192,100602,1,8,0:0:0:0:
260,192,101202,1,0,0:0:0:0:
260,192,102402,1,8,0:0:0:0:
260,192,103602,1,0,0:0:0:0:
260,192,104202,1,8,0:0:0:0:
260,192,104802,1,8,0:0:0:0:
260,192,105402,1,8,0:0:0:0:
260,192,106002,1,4,0:0:0:0:
256,192,107202,1,0,0:0:0:0:
256,192,108402,1,0,0:0:0:0:
256,192,109002,1,8,0:0:0:0:
256,192,109602,1,8,0:0:0:0:
260,192,110202,1,0,0:0:0:0:
260,192,110802,1,8,0:0:0:0:
260,192,112002,1,0,0:0:0:0:
256,192,113202,1,0,0:0:0:0:
256,192,113802,1,8,0:0:0:0:
256,192,114402,1,0,0:0:0:0:
256,192,115002,1,0,0:0:0:0:
256,192,115602,1,8,0:0:0:0:
