osu file format v14

[General]
AudioFilename: shelter.mp3
AudioLeadIn: 0
PreviewTime: 19602
Countdown: 0
SampleSet: Normal
StackLeniency: 1
Mode: 1
LetterboxInBreaks: 0
WidescreenStoryboard: 0

[Editor]
DistanceSpacing: 0.8
BeatDivisor: 4
GridSize: 4
TimelineZoom: 2.1

[Metadata]
Title:Shelter
TitleUnicode:Shelter
Artist:Porter Robinson & Madeon
ArtistUnicode:Porter Robinson & Madeon
Creator:Poii
Version:Oni
Source:Shelter
Tags:A-1 Pictures Crunchyroll EDM Electronic Dance Music cut short version tyistiana davidminh0111
BeatmapID:1407492
BeatmapSetID:665003

[Difficulty]
HPDrainRate:6
CircleSize:2
OverallDifficulty:5
ApproachRate:1
SliderMultiplier:1.4
SliderTickRate:1

[Events]
//Background and Video events
0,0,"BG.jpg",0,110
//Break Periods
//Storyboard Layer 0 (Background)
//Storyboard Layer 1 (Fail)
//Storyboard Layer 2 (Pass)
//Storyboard Layer 3 (Foreground)
//Storyboard Sound Samples

[TimingPoints]
402,600,4,1,0,80,1,0
19002,-57.1428571428571,4,1,0,80,0,0
19602,-57.1428571428571,4,1,0,80,0,1
19902,-80,4,1,0,80,0,1
38052,-83.3333333333333,4,1,0,80,0,1
38202,-86.9565217391304,4,1,0,80,0,1
38427,-90.9090909090909,4,1,0,60,0,1
38652,-95.2380952380952,4,1,0,60,0,1
38802,-100,4,1,0,60,0,0
43602,-80,4,1,0,80,0,0
58452,-100,4,1,0,80,0,0
76002,-80,4,1,0,80,0,0
77202,-80,4,1,0,80,0,1
95802,-66.6666666666667,4,1,0,80,0,0
96402,-66.6666666666667,4,1,0,80,0,1
96702,-80,4,1,0,80,0,1
113502,-83.3333333333333,4,1,0,60,0,1
113652,-84.7457627118644,4,1,0,60,0,1
113802,-86.2068965517241,4,1,0,60,0,1
114102,-87.719298245614,4,1,0,60,0,1
114252,-89.2857142857143,4,1,0,60,0,1
114402,-90.9090909090909,4,1,0,60,0,1
114702,-93.4579439252336,4,1,0,50,0,1
114852,-96.1538461538461,4,1,0,50,0,1
115002,-99.009900990099,4,1,0,50,0,1
115302,-102.040816326531,4,1,0,50,0,1
115452,-105.263157894737,4,1,0,40,0,1
115602,-108.695652173913,4,1,0,40,0,0

[HitObjects]
256,192,402,5,0,0:0:0:0:
256,192,1002,1,8,0:0:0:0:
256,192,1152,1,0,0:0:0:0:
256,192,1452,1,0,0:0:0:0:
256,196,2802,1,8,0:0:0:0:
256,196,3402,1,0,0:0:0:0:
256,196,3552,1,8,0:0:0:0:
256,196,3852,1,8,0:0:0:0:
256,196,4602,1,8,0:0:0:0:
256,196,4902,1,8,0:0:0:0:
256,196,5202,1,0,0:0:0:0:
256,196,5802,1,8,0:0:0:0:
256,196,5952,1,0,0:0:0:0:
256,196,6252,1,0,0:0:0:0:
256,192,7302,1,0,0:0:0:0:
256,192,7602,1,8,0:0:0:0:
256,192,7827,1,0,0:0:0:0:
256,192,8052,1,0,0:0:0:0:
256,192,8202,1,8,0:0:0:0:
256,192,8427,1,0,0:0:0:0:
256,192,8652,1,0,0:0:0:0:
256,192,8802,1,8,0:0:0:0:
256,192,9027,1,0,0:0:0:0:
256,192,9252,1,0,0:0:0:0:
256,192,9402,1,8,0:0:0:0:
256,192,9627,1,0,0:0:0:0:
256,192,9852,1,8,0:0:0:0:
256,192,10002,1,0,0:0:0:0:
256,192,10602,1,8,0:0:0:0:
256,192,10752,1,0,0:0:0:0:
256,192,11052,1,0,0:0:0:0:
256,192,11802,1,8,0:0:0:0:
256,192,12102,1,0,0:0:0:0:
256,192,12402,1,8,0:0:0:0:
256,192,13002,1,0,0:0:0:0:
256,192,13152,1,8,0:0:0:0:
256,192,13452,1,8,0:0:0:0:
256,192,14202,1,8,0:0:0:0:
256,192,14502,1,8,0:0:0:0:
256,192,14802,1,0,0:0:0:0:
256,192,15402,1,8,0:0:0:0:
256,192,15552,1,0,0:0:0:0:
256,192,15852,1,0,0:0:0:0:
256,192,16602,1,8,0:0:0:0:
256,192,16902,1,0,0:0:0:0:
256,192,17202,1,8,0:0:0:0:
256,192,17802,1,8,0:0:0:0:
256,192,18402,1,8,0:0:0:0:
256,192,19002,1,8,0:0:0:0:
256,192,19152,1,8,0:0:0:0:
256,192,19602,1,4,0:0:0:0:
256,192,20202,1,8,0:0:0:0:
256,192,20352,1,0,0:0:0:0:
256,192,20652,1,0,0:0:0:0:
256,192,20802,1,0,0:0:0:0:
256,192,21102,1,0,0:0:0:0:
256,192,21252,1,0,0:0:0:0:
256,192,21402,1,8,0:0:0:0:
256,192,21702,1,8,0:0:0:0:
256,192,22002,1,0,0:0:0:0:
256,192,22602,1,0,0:0:0:0:
256,192,22752,1,8,0:0:0:0:
256,192,23052,1,8,0:0:0:0:
256,192,23352,1,8,0:0:0:0:
256,192,23502,1,0,0:0:0:0:
256,192,23802,1,8,0:0:0:0:
256,192,24102,1,8,0:0:0:0:
256,192,24252,1,0,0:0:0:0:
256,192,24402,1,0,0:0:0:0:
256,192,25002,1,8,0:0:0:0:
256,192,25152,1,0,0:0:0:0:
256,192,25452,1,0,0:0:0:0:
256,192,25602,1,0,0:0:0:0:
256,192,25902,1,0,0:0:0:0:
256,192,26052,1,0,0:0:0:0:
256,192,26202,1,8,0:0:0:0:
256,192,26502,1,0,0:0:0:0:
256,192,26802,1,8,0:0:0:0:
256,192,27027,1,0,0:0:0:0:
256,192,27252,1,0,0:0:0:0:
256,192,27402,1,8,0:0:0:0:
256,192,27627,1,0,0:0:0:0:
256,192,27852,1,0,0:0:0:0:
256,192,28002,1,8,0:0:0:0:
256,192,28152,1,8,0:0:0:0:
256,192,28452,1,0,0:0:0:0:
256,192,28602,1,8,0:0:0:0:
256,192,28827,1,0,0:0:0:0:
256,192,29052,1,8,0:0:0:0:
256,192,29202,1,4,0:0:0:0:
256,192,29802,1,8,0:0:0:0:
256,192,29952,1,0,0:0:0:0:
256,192,30252,1,0,0:0:0:0:
256,192,30402,1,0,0:0:0:0:
256,192,30702,1,0,0:0:0:0:
256,192,30852,1,0,0:0:0:0:
256,192,31002,1,8,0:0:0:0:
256,192,31302,1,8,0:0:0:0:
256,192,31602,1,0,0:0:0:0:
256,192,32202,1,0,0:0:0:0:
256,192,32352,1,8,0:0:0:0:
256,192,32652,1,8,0:0:0:0:
256,192,32952,1,8,0:0:0:0:
256,192,33102,1,0,0:0:0:0:
256,192,33402,1,8,0:0:0:0:
256,192,33702,1,8,0:0:0:0:
256,192,33852,1,0,0:0:0:0:
256,192,34002,1,0,0:0:0:0:
256,192,34602,1,8,0:0:0:0:
256,192,34752,1,0,0:0:0:0:
256,192,35052,1,0,0:0:0:0:
256,192,35202,1,0,0:0:0:0:
256,192,35502,1,0,0:0:0:0:
256,192,35652,1,0,0:0:0:0:
256,192,35802,1,8,0:0:0:0:
256,192,36102,1,0,0:0:0:0:
256,192,36402,1,8,0:0:0:0:
256,192,36627,1,0,0:0:0:0:
256,192,36852,1,0,0:0:0:0:
256,192,37002,1,8,0:0:0:0:
256,192,37227,1,0,0:0:0:0:
256,192,37452,1,0,0:0:0:0:
256,192,37602,1,8,0:0:0:0:
256,192,37827,1,0,0:0:0:0:
256,192,38052,1,0,0:0:0:0:
256,192,38202,1,8,0:0:0:0:
256,192,38427,1,0,0:0:0:0:
256,192,38652,1,8,0:0:0:0:
256,192,38802,1,0,0:0:0:0:
256,192,39402,1,8,0:0:0:0:
256,192,39702,1,0,0:0:0:0:
256,192,40002,1,8,0:0:0:0:
256,192,40302,1,8,0:0:0:0:
256,192,40602,1,0,0:0:0:0:
256,192,40902,1,0,0:0:0:0:
256,192,41202,1,8,0:0:0:0:
256,192,41652,1,0,0:0:0:0:
256,192,42102,1,0,0:0:0:0:
256,192,42402,1,8,0:0:0:0:
256,192,42852,1,0,0:0:0:0:
256,192,43002,1,8,0:0:0:0:
256,192,43152,1,0,0:0:0:0:
256,192,43602,1,0,0:0:0:0:
256,192,44202,1,8,0:0:0:0:
256,192,44352,1,0,0:0:0:0:
256,192,44652,1,0,0:0:0:0:
256,192,44802,1,0,0:0:0:0:
256,192,44952,1,0,0:0:0:0:
256,192,45252,1,0,0:0:0:0:
256,192,45402,1,8,0:0:0:0:
256,192,45552,1,0,0:0:0:0:
256,192,45852,1,0,0:0:0:0:
256,192,46002,1,0,0:0:0:0:
256,192,46602,1,8,0:0:0:0:
256,192,47052,1,8,0:0:0:0:
256,192,47202,1,0,0:0:0:0:
256,192,47502,1,0,0:0:0:0:
256,192,47802,1,8,0:0:0:0:
256,192,47952,1,8,0:0:0:0:
256,192,48102,1,8,0:0:0:0:
256,192,48252,1,8,0:0:0:0:
256,192,48402,1,0,0:0:0:0:
256,192,49002,1,8,0:0:0:0:
256,192,49152,1,8,0:0:0:0:
256,192,49452,1,0,0:0:0:0:
256,192,49602,1,0,0:0:0:0:
256,192,49902,1,0,0:0:0:0:
256,192,50202,1,8,0:0:0:0:
256,192,50502,1,0,0:0:0:0:
256,192,50802,1,8,0:0:0:0:
256,192,51252,1,8,0:0:0:0:
256,192,51402,1,0,0:0:0:0:
256,192,51702,1,0,0:0:0:0:
256,192,52002,1,8,0:0:0:0:
256,192,52452,1,8,0:0:0:0:
256,192,52602,1,0,0:0:0:0:
256,192,53202,1,0,0:0:0:0:
256,192,53802,1,8,0:0:0:0:
256,192,53952,1,0,0:0:0:0:
256,192,54252,1,8,0:0:0:0:
256,192,54402,1,0,0:0:0:0:
256,192,54702,1,0,0:0:0:0:
256,192,54852,1,0,0:0:0:0:
256,192,55002,1,0,0:0:0:0:
256,192,55302,1,8,0:0:0:0:
256,192,55452,1,8,0:0:0:0:
256,192,55602,1,0,0:0:0:0:
256,192,56202,1,8,0:0:0:0:
256,192,56652,1,8,0:0:0:0:
256,192,56802,1,0,0:0:0:0:
256,192,57102,1,0,0:0:0:0:
256,192,57402,1,8,0:0:0:0:
256,192,57552,1,8,0:0:0:0:
256,192,57702,1,8,0:0:0:0:
256,192,57852,1,8,0:0:0:0:
256,192,58002,1,0,0:0:0:0:
256,192,58452,1,0,0:0:0:0:
256,192,58602,1,8,0:0:0:0:
256,192,58902,1,8,0:0:0:0:
256,192,59502,1,8,0:0:0:0:
256,192,59802,1,8,0:0:0:0:
256,192,60102,1,0,0:0:0:0:
256,192,60402,1,8,0:0:0:0:
256,192,60852,1,0,0:0:0:0:
256,192,61002,1,8,0:0:0:0:
256,192,61302,1,0,0:0:0:0:
256,192,62202,1,8,0:0:0:0:
256,192,62502,1,8,0:0:0:0:
256,192,62802,1,0,0:0:0:0:
256,192,63252,1,0,0:0:0:0:
256,192,63402,1,8,0:0:0:0:
256,192,63702,1,8,0:0:0:0:
256,192,64302,1,8,0:0:0:0:
256,192,64602,1,0,0:0:0:0:
256,192,64902,1,0,0:0:0:0:
256,192,65202,1,8,0:0:0:0:
256,192,65652,1,0,0:0:0:0:
256,192,65802,1,8,0:0:0:0:
256,192,66102,1,0,0:0:0:0:
256,192,66702,1,0,0:0:0:0:
256,192,67002,1,8,0:0:0:0:
256,192,67302,1,8,0:0:0:0:
256,192,67602,1,0,0:0:0:0:
256,192,68202,1,8,0:0:0:0:
256,192,68502,1,0,0:0:0:0:
256,192,68802,1,0,0:0:0:0:
256,192,69402,1,0,0:0:0:0:
256,192,69702,1,8,0:0:0:0:
256,192,70002,1,0,0:0:0:0:
256,192,70602,1,0,0:0:0:0:
256,192,70902,1,0,0:0:0:0:
256,192,71052,1,8,0:0:0:0:
256,192,71502,1,8,0:0:0:0:
256,192,71652,1,0,0:0:0:0:
256,192,72102,1,0,0:0:0:0:
256,192,72252,1,8,0:0:0:0:
256,192,72402,1,0,0:0:0:0:
256,192,73002,1,8,0:0:0:0:
256,192,73302,1,0,0:0:0:0:
256,192,74202,1,0,0:0:0:0:
256,192,74502,1,8,0:0:0:0:
256,192,76002,1,8,0:0:0:0:
256,192,76077,1,8,0:0:0:0:
256,192,76152,1,8,0:0:0:0:
256,192,76302,1,8,0:0:0:0:
256,192,76452,1,8,0:0:0:0:
256,192,76602,1,0,0:0:0:0:
256,192,76752,1,8,0:0:0:0:
256,192,76902,1,0,0:0:0:0:
256,192,77202,1,4,0:0:0:0:
256,192,77802,1,8,0:0:0:0:
256,192,77952,1,0,0:0:0:0:
256,192,78252,1,0,0:0:0:0:
256,192,78402,1,0,0:0:0:0:
256,192,78702,1,0,0:0:0:0:
256,192,78852,1,0,0:0:0:0:
256,192,79002,1,8,0:0:0:0:
256,192,79302,1,8,0:0:0:0:
256,192,79602,1,0,0:0:0:0:
256,192,80202,1,0,0:0:0:0:
256,192,80352,1,8,0:0:0:0:
256,192,80652,1,8,0:0:0:0:
256,192,80952,1,8,0:0:0:0:
256,192,81102,1,0,0:0:0:0:
256,192,81402,1,8,0:0:0:0:
256,192,81702,1,8,0:0:0:0:
256,192,81852,1,0,0:0:0:0:
256,192,82002,1,0,0:0:0:0:
256,192,82602,1,8,0:0:0:0:
256,192,82752,1,0,0:0:0:0:
256,192,83052,1,0,0:0:0:0:
256,192,83202,1,0,0:0:0:0:
256,192,83502,1,0,0:0:0:0:
256,192,83652,1,0,0:0:0:0:
256,192,83802,1,8,0:0:0:0:
256,192,84102,1,0,0:0:0:0:
256,192,84402,1,8,0:0:0:0:
256,192,84627,1,0,0:0:0:0:
256,192,84852,1,0,0:0:0:0:
256,192,85002,1,8,0:0:0:0:
256,192,85227,1,0,0:0:0:0:
256,192,85452,1,0,0:0:0:0:
256,192,85602,1,8,0:0:0:0:
256,192,85752,1,8,0:0:0:0:
256,192,86052,1,0,0:0:0:0:
256,192,86202,1,8,0:0:0:0:
256,192,86427,1,0,0:0:0:0:
256,192,86652,1,8,0:0:0:0:
256,192,86802,1,4,0:0:0:0:
256,192,87402,1,8,0:0:0:0:
256,192,87552,1,0,0:0:0:0:
256,192,87852,1,0,0:0:0:0:
256,192,88002,1,0,0:0:0:0:
256,192,88302,1,0,0:0:0:0:
256,192,88452,1,0,0:0:0:0:
256,192,88602,1,8,0:0:0:0:
256,192,88902,1,8,0:0:0:0:
256,192,89202,1,0,0:0:0:0:
256,192,89802,1,0,0:0:0:0:
256,192,89952,1,8,0:0:0:0:
256,192,90252,1,8,0:0:0:0:
256,192,90552,1,8,0:0:0:0:
256,192,90702,1,0,0:0:0:0:
256,192,91002,1,8,0:0:0:0:
256,192,91302,1,8,0:0:0:0:
256,192,91452,1,0,0:0:0:0:
256,192,91602,1,0,0:0:0:0:
256,192,92202,1,8,0:0:0:0:
256,192,92352,1,0,0:0:0:0:
256,192,92652,1,0,0:0:0:0:
256,192,92802,1,0,0:0:0:0:
256,192,93102,1,0,0:0:0:0:
256,192,93252,1,0,0:0:0:0:
256,192,93402,1,8,0:0:0:0:
256,192,93702,1,0,0:0:0:0:
256,192,94002,1,8,0:0:0:0:
256,192,94227,1,0,0:0:0:0:
256,192,94452,1,0,0:0:0:0:
256,192,94602,1,8,0:0:0:0:
256,192,94827,1,0,0:0:0:0:
256,192,95052,1,0,0:0:0:0:
256,192,95202,1,8,0:0:0:0:
256,192,95352,1,8,0:0:0:0:
256,192,95802,1,8,0:0:0:0:
256,192,95877,1,8,0:0:0:0:
256,192,95952,5,8,0:0:0:0:
256,192,96102,1,8,0:0:0:0:
256,192,96252,1,8,0:0:0:0:
256,192,96402,1,4,0:0:0:0:
256,192,96702,1,0,0:0:0:0:
256,192,97002,1,8,0:0:0:0:
256,192,97152,1,0,0:0:0:0:
256,192,97452,1,0,0:0:0:0:
256,192,97752,1,0,0:0:0:0:
256,192,97902,1,0,0:0:0:0:
256,192,98052,1,0,0:0:0:0:
256,192,98202,1,8,0:0:0:0:
256,192,98502,1,8,0:0:0:0:
256,192,98802,1,0,0:0:0:0:
256,192,99102,1,8,0:0:0:0:
256,192,99402,1,0,0:0:0:0:
256,192,99552,1,8,0:0:0:0:
256,192,99852,1,8,0:0:0:0:
256,192,100152,1,8,0:0:0:0:
256,192,100302,1,0,0:0:0:0:
256,192,100602,1,8,0:0:0:0:
256,192,100902,1,8,0:0:0:0:
256,192,101052,1,0,0:0:0:0:
256,192,101202,1,0,0:0:0:0:
256,192,101502,1,8,0:0:0:0:
256,192,101802,1,8,0:0:0:0:
256,192,101952,1,0,0:0:0:0:
256,192,102252,1,0,0:0:0:0:
256,192,102552,1,0,0:0:0:0:
256,192,102702,1,0,0:0:0:0:
256,192,102852,1,0,0:0:0:0:
256,192,103002,1,8,0:0:0:0:
256,192,103302,1,0,0:0:0:0:
256,192,103602,1,8,0:0:0:0:
256,192,103827,1,0,0:0:0:0:
256,192,104052,1,0,0:0:0:0:
256,192,104202,1,8,0:0:0:0:
256,192,104427,1,0,0:0:0:0:
256,192,104652,1,0,0:0:0:0:
256,192,104802,1,8,0:0:0:0:
256,192,104952,1,8,0:0:0:0:
256,192,105252,1,0,0:0:0:0:
256,192,105402,1,8,0:0:0:0:
256,192,105627,1,0,0:0:0:0:
256,192,105852,1,8,0:0:0:0:
256,192,106002,1,4,0:0:0:0:
256,192,106302,1,8,0:0:0:0:
256,192,106602,1,8,0:0:0:0:
256,192,106752,1,0,0:0:0:0:
256,192,107052,1,0,0:0:0:0:
256,192,107352,1,0,0:0:0:0:
256,192,107502,1,0,0:0:0:0:
256,192,107652,1,0,0:0:0:0:
256,192,107802,1,8,0:0:0:0:
256,192,108102,1,8,0:0:0:0:
256,192,108402,1,0,0:0:0:0:
256,192,108702,1,8,0:0:0:0:
256,192,109002,1,0,0:0:0:0:
256,192,109152,1,8,0:0:0:0:
256,192,109452,1,8,0:0:0:0:
256,192,109752,1,8,0:0:0:0:
256,192,109902,1,0,0:0:0:0:
256,192,110202,1,8,0:0:0:0:
256,192,110502,1,8,0:0:0:0:
256,192,110652,1,0,0:0:0:0:
256,192,110802,1,0,0:0:0:0:
256,192,111102,1,8,0:0:0:0:
256,192,111402,1,8,0:0:0:0:
256,192,111552,1,0,0:0:0:0:
256,192,111852,1,0,0:0:0:0:
256,192,112152,1,0,0:0:0:0:
256,192,112302,1,0,0:0:0:0:
256,192,112452,1,0,0:0:0:0:
256,192,112602,5,8,0:0:0:0:
256,192,112902,5,0,0:0:0:0:
256,192,113202,1,8,0:0:0:0:
256,192,113502,5,0,0:0:0:0:
256,192,113652,1,0,0:0:0:0:
256,192,113802,1,8,0:0:0:0:
256,192,114102,1,8,0:0:0:0:
256,192,114252,1,0,0:0:0:0:
256,192,114402,1,0,0:0:0:0:
256,192,114702,1,0,0:0:0:0:
256,192,114852,1,0,0:0:0:0:
256,192,115002,1,8,0:0:0:0:
256,192,115302,1,0,0:0:0:0:
256,192,115452,1,8,0:0:0:0:
256,192,115602,1,0,0:0:0:0:
