osu file format v14

[General]
AudioFilename: shelter.mp3
AudioLeadIn: 0
PreviewTime: 19602
Countdown: 0
SampleSet: Normal
StackLeniency: 1
Mode: 1
LetterboxInBreaks: 0
WidescreenStoryboard: 0

[Editor]
DistanceSpacing: 0.8
BeatDivisor: 4
GridSize: 4
TimelineZoom: 2.1

[Metadata]
Title:Shelter
TitleUnicode:Shelter
Artist:Porter Robinson & Madeon
ArtistUnicode:Porter Robinson & Madeon
Creator:Poii
Version:Futsuu
Source:Shelter
Tags:A-1 Pictures Crunchyroll EDM Electronic Dance Music cut short version tyistiana davidminh0111
BeatmapID:1408121
BeatmapSetID:665003

[Difficulty]
HPDrainRate:7
CircleSize:2
OverallDifficulty:3
ApproachRate:8
SliderMultiplier:1.4
SliderTickRate:1

[Events]
//Background and Video events
0,0,"BG.jpg",0,110
//Break Periods
//Storyboard Layer 0 (Background)
//Storyboard Layer 1 (Fail)
//Storyboard Layer 2 (Pass)
//Storyboard Layer 3 (Foreground)
//Storyboard Sound Samples

[TimingPoints]
402,600,4,1,0,80,1,0
19602,-100,4,1,0,80,0,1
38802,-100,4,1,0,80,0,0
77202,-100,4,1,0,80,0,1
95802,-100,4,1,0,80,0,0
96402,-100,4,1,0,80,0,1
114402,-100,4,1,0,60,0,1
115002,-100,4,1,0,50,0,1
115602,-100,4,1,0,40,0,0

[HitObjects]
256,192,402,5,0,0:0:0:0:
256,192,1002,1,8,0:0:0:0:
256,192,1452,1,0,0:0:0:0:
256,192,2802,1,8,0:0:0:0:
256,192,3402,1,0,0:0:0:0:
256,192,3852,1,8,0:0:0:0:
256,192,4602,1,8,0:0:0:0:
256,192,5202,1,0,0:0:0:0:
256,192,5802,1,8,0:0:0:0:
256,192,6252,1,0,0:0:0:0:
252,188,7302,1,0,0:0:0:0:
252,188,7602,1,8,0:0:0:0:
252,188,8202,1,8,0:0:0:0:
252,188,8802,1,8,0:0:0:0:
252,188,9402,1,8,0:0:0:0:
252,188,10002,1,0,0:0:0:0:
252,188,10602,1,8,0:0:0:0:
252,188,11052,1,0,0:0:0:0:
252,188,11802,1,8,0:0:0:0:
256,192,12402,1,8,0:0:0:0:
256,192,13002,1,0,0:0:0:0:
256,192,13452,1,8,0:0:0:0:
256,192,14202,1,8,0:0:0:0:
256,192,14802,1,0,0:0:0:0:
256,192,15402,1,8,0:0:0:0:
256,192,15852,1,0,0:0:0:0:
256,192,16602,1,8,0:0:0:0:
256,192,16902,1,0,0:0:0:0:
256,192,17202,1,8,0:0:0:0:
256,192,19002,1,8,0:0:0:0:
256,192,19602,1,4,0:0:0:0:
256,192,20202,1,8,0:0:0:0:
256,192,20802,1,0,0:0:0:0:
256,192,21702,1,0,0:0:0:0:
256,192,22002,1,0,0:0:0:0:
256,192,22602,1,8,0:0:0:0:
256,192,23202,1,8,0:0:0:0:
256,192,23802,1,8,0:0:0:0:
256,192,24102,1,8,0:0:0:0:
256,192,24402,1,0,0:0:0:0:
256,192,25002,1,8,0:0:0:0:
256,192,25602,1,0,0:0:0:0:
256,192,26502,1,0,0:0:0:0:
256,192,26802,1,8,0:0:0:0:
256,192,27402,1,8,0:0:0:0:
256,192,28002,1,8,0:0:0:0:
256,192,28602,1,8,0:0:0:0:
256,192,29202,1,4,0:0:0:0:
256,192,29802,1,8,0:0:0:0:
256,192,30402,1,0,0:0:0:0:
256,192,31302,1,0,0:0:0:0:
256,192,31602,1,0,0:0:0:0:
256,192,32202,1,8,0:0:0:0:
256,192,32802,1,8,0:0:0:0:
256,192,33402,1,8,0:0:0:0:
256,192,33702,1,8,0:0:0:0:
256,192,34002,1,0,0:0:0:0:
256,192,34602,1,8,0:0:0:0:
256,192,35202,1,0,0:0:0:0:
256,192,36102,1,0,0:0:0:0:
256,192,36402,1,8,0:0:0:0:
256,192,37002,1,8,0:0:0:0:
256,192,37602,1,8,0:0:0:0:
256,192,38202,1,0,0:0:0:0:
256,192,38502,1,8,0:0:0:0:
256,192,38802,1,0,0:0:0:0:
256,192,39402,1,8,0:0:0:0:
256,192,40002,1,8,0:0:0:0:
256,192,40602,1,0,0:0:0:0:
256,192,41202,1,0,0:0:0:0:
256,192,42402,1,8,0:0:0:0:
256,192,43002,1,8,0:0:0:0:
256,192,43602,1,0,0:0:0:0:
256,192,44202,1,8,0:0:0:0:
256,192,44802,1,0,0:0:0:0:
256,192,45402,1,8,0:0:0:0:
256,192,46002,1,0,0:0:0:0:
256,192,46602,1,8,0:0:0:0:
256,192,47202,1,0,0:0:0:0:
256,192,47802,1,8,0:0:0:0:
256,192,48102,1,8,0:0:0:0:
256,192,48402,1,0,0:0:0:0:
256,192,49002,1,8,0:0:0:0:
256,192,49602,1,0,0:0:0:0:
256,192,49902,1,0,0:0:0:0:
256,192,50202,1,8,0:0:0:0:
256,192,50802,1,0,0:0:0:0:
256,192,51402,1,8,0:0:0:0:
256,192,52002,1,0,0:0:0:0:
256,192,52302,1,8,0:0:0:0:
256,192,52602,1,8,0:0:0:0:
256,192,53202,1,0,0:0:0:0:
256,192,53802,1,8,0:0:0:0:
256,192,54402,1,0,0:0:0:0:
256,192,54702,1,0,0:0:0:0:
256,192,55002,1,8,0:0:0:0:
256,192,55602,1,0,0:0:0:0:
256,192,56202,1,8,0:0:0:0:
256,192,56802,1,0,0:0:0:0:
256,192,57402,1,8,0:0:0:0:
256,192,57702,1,8,0:0:0:0:
256,192,58002,1,0,0:0:0:0:
256,192,58602,1,8,0:0:0:0:
256,188,59802,1,8,0:0:0:0:
256,188,60402,1,0,0:0:0:0:
256,188,61002,1,8,0:0:0:0:
256,192,62202,1,8,0:0:0:0:
256,192,62802,1,0,0:0:0:0:
256,192,63402,1,8,0:0:0:0:
256,192,64602,1,8,0:0:0:0:
256,192,65202,1,0,0:0:0:0:
256,192,65802,1,8,0:0:0:0:
256,192,67002,1,8,0:0:0:0:
256,192,67602,1,0,0:0:0:0:
256,192,68202,1,8,0:0:0:0:
256,192,68802,1,0,0:0:0:0:
256,192,69402,1,8,0:0:0:0:
256,192,70002,1,0,0:0:0:0:
256,192,70602,1,8,0:0:0:0:
256,192,71202,1,0,0:0:0:0:
256,192,71802,1,8,0:0:0:0:
256,192,72402,12,0,76002,0:0:0:0:
256,184,76602,5,8,0:0:0:0:
256,184,76902,1,8,0:0:0:0:
256,192,77202,1,4,0:0:0:0:
256,192,77802,1,8,0:0:0:0:
256,192,78402,1,0,0:0:0:0:
256,192,79302,1,0,0:0:0:0:
256,192,79602,1,0,0:0:0:0:
256,192,80202,1,8,0:0:0:0:
256,192,80802,1,8,0:0:0:0:
256,192,81402,1,8,0:0:0:0:
256,192,81702,1,8,0:0:0:0:
256,192,82002,1,0,0:0:0:0:
256,192,82602,1,8,0:0:0:0:
256,192,83202,1,0,0:0:0:0:
256,192,84102,1,0,0:0:0:0:
256,192,84402,1,8,0:0:0:0:
256,192,85002,1,8,0:0:0:0:
256,192,85602,1,8,0:0:0:0:
256,192,86202,1,8,0:0:0:0:
256,192,86802,1,4,0:0:0:0:
256,192,87402,1,8,0:0:0:0:
256,192,88002,1,0,0:0:0:0:
256,192,88902,1,0,0:0:0:0:
256,192,89202,1,0,0:0:0:0:
256,192,89802,1,8,0:0:0:0:
256,192,90402,1,8,0:0:0:0:
256,192,91002,1,8,0:0:0:0:
256,192,91302,1,8,0:0:0:0:
256,192,91602,1,0,0:0:0:0:
256,192,92202,1,8,0:0:0:0:
256,192,92802,1,0,0:0:0:0:
256,192,93702,1,0,0:0:0:0:
256,192,94002,1,8,0:0:0:0:
256,192,94602,1,8,0:0:0:0:
256,192,95202,5,8,0:0:0:0:
256,192,95802,1,8,0:0:0:0:
256,192,96102,1,8,0:0:0:0:
256,192,96402,1,4,0:0:0:0:
256,192,97002,1,8,0:0:0:0:
256,192,97602,1,0,0:0:0:0:
256,192,98202,1,8,0:0:0:0:
256,192,98502,1,0,0:0:0:0:
256,192,98802,1,0,0:0:0:0:
256,192,99402,1,8,0:0:0:0:
256,192,100002,1,8,0:0:0:0:
256,192,100602,1,8,0:0:0:0:
256,192,100902,1,8,0:0:0:0:
256,192,101202,1,0,0:0:0:0:
256,192,101802,1,8,0:0:0:0:
256,192,102402,1,0,0:0:0:0:
256,192,103302,1,0,0:0:0:0:
256,192,103602,1,8,0:0:0:0:
256,192,104202,1,8,0:0:0:0:
256,192,104802,1,8,0:0:0:0:
256,192,105402,1,8,0:0:0:0:
256,192,106002,1,4,0:0:0:0:
256,192,106602,1,8,0:0:0:0:
256,192,107202,1,0,0:0:0:0:
256,192,107802,1,8,0:0:0:0:
256,192,108102,1,0,0:0:0:0:
256,192,108402,1,0,0:0:0:0:
256,192,109002,1,8,0:0:0:0:
256,192,109602,1,8,0:0:0:0:
256,192,110202,1,8,0:0:0:0:
256,192,110502,1,8,0:0:0:0:
256,192,110802,1,0,0:0:0:0:
256,192,111402,1,8,0:0:0:0:
256,192,112002,1,0,0:0:0:0:
256,192,112902,1,0,0:0:0:0:
256,192,113202,1,8,0:0:0:0:
256,192,113802,1,8,0:0:0:0:
256,192,114402,1,8,0:0:0:0:
256,192,115002,1,0,0:0:0:0:
256,192,115602,1,0,0:0:0:0:
