osu file format v14

[General]
AudioFilename: audio.mp3
AudioLeadIn: 0
PreviewTime: -1
Countdown: 0
SampleSet: None
StackLeniency: 0.6
Mode: 2
LetterboxInBreaks: 0
WidescreenStoryboard: 0

[Editor]
Bookmarks: 19560,38760,57960,77160,115560,153960,173160,173760,173910,174060,174210,174360,192360
DistanceSpacing: 1.4
BeatDivisor: 4
GridSize: 16
TimelineZoom: 0.8000004

[Metadata]
Title:Shelter (Official Audio)
TitleUnicode:Shelter (Official Audio)
Artist:Porter Robinson & Madeon
ArtistUnicode:Porter Robinson & Madeon
Creator:Ginoshi
Version:Ginoshi´s Overcall
Source:
Tags:
BeatmapID:1127639
BeatmapSetID:532174

[Difficulty]
HPDrainRate:6
CircleSize:3.8
OverallDifficulty:9.3
ApproachRate:9.3
SliderMultiplier:2
SliderTickRate:4

[Events]
//Background and Video events
0,0,"Unasdasdbenannt.jpg",0,0
//Break Periods
//Storyboard Layer 0 (Background)
//Storyboard Layer 1 (Fail)
//Storyboard Layer 2 (Pass)
//Storyboard Layer 3 (Foreground)
//Storyboard Sound Samples

[TimingPoints]
360,600,4,3,0,100,1,0

[HitObjects]
128,240,360,5,0,0:0:0:0:
256,240,960,2,0,L|480:240,1,200
448,192,2760,2,0,P|400:128|272:144,2,200
160,208,4260,1,0,0:0:0:0:
272,208,4410,1,0,0:0:0:0:
160,208,4560,1,0,0:0:0:0:
464,192,5160,2,0,P|416:160|272:192,1,200
96,288,6360,2,0,P|128:224|256:192,1,200
400,192,7260,5,0,0:0:0:0:
336,128,7560,2,0,P|240:96|128:160,4,200
256,192,10110,1,0,0:0:0:0:
336,192,10260,1,0,0:0:0:0:
256,272,10410,1,0,0:0:0:0:
336,272,10560,1,0,0:0:0:0:
96,288,11010,1,0,0:0:0:0:
240,288,11160,1,0,0:0:0:0:
96,288,11310,1,0,0:0:0:0:
240,288,11460,1,0,0:0:0:0:
96,288,11610,1,0,0:0:0:0:
320,288,11760,1,0,0:0:0:0:
80,128,12360,6,0,L|128:192,1,50
320,128,12660,2,0,L|256:128,1,50
32,128,12960,2,0,L|208:128,1,150
336,208,13560,2,0,L|416:208,1,50
208,208,13860,2,0,L|96:208,1,100
432,112,14760,6,0,P|368:96|368:144,1,100
256,128,15360,2,0,L|256:64,2,50
48,128,15810,2,0,L|320:128,1,250
112,192,17160,5,0,0:0:0:0:
144,192,17235,1,0,0:0:0:0:
176,192,17310,1,0,0:0:0:0:
256,288,17385,1,0,0:0:0:0:
240,192,17460,1,0,0:0:0:0:
272,192,17535,1,0,0:0:0:0:
304,192,17610,1,0,0:0:0:0:
336,192,17685,1,0,0:0:0:0:
480,192,17760,1,0,0:0:0:0:
432,192,17835,1,0,0:0:0:0:
400,192,17910,1,0,0:0:0:0:
320,288,17985,1,0,0:0:0:0:
336,192,18060,1,0,0:0:0:0:
304,192,18135,1,0,0:0:0:0:
272,192,18210,1,0,0:0:0:0:
240,192,18285,1,0,0:0:0:0:
32,192,18360,1,0,0:0:0:0:
64,192,18435,1,0,0:0:0:0:
96,192,18510,1,0,0:0:0:0:
176,272,18585,1,0,0:0:0:0:
160,192,18660,1,0,0:0:0:0:
192,192,18735,1,0,0:0:0:0:
224,192,18810,1,0,0:0:0:0:
416,224,18960,2,0,L|480:256,2,50
32,224,19560,5,0,0:0:0:0:
448,224,20160,2,0,L|336:224,2,100
256,224,20910,1,0,0:0:0:0:
128,224,21060,1,0,0:0:0:0:
256,224,21210,1,0,0:0:0:0:
48,224,21360,1,0,0:0:0:0:
480,192,21960,5,0,0:0:0:0:
480,192,22110,2,0,L|320:192,1,150
128,192,22710,1,0,0:0:0:0:
256,192,22860,1,0,0:0:0:0:
48,192,23010,1,0,0:0:0:0:
256,192,23160,2,0,L|464:192,1,200
456,192,23910,1,0,0:0:0:0:
448,192,24060,1,0,0:0:0:0:
256,192,24210,1,0,0:0:0:0:
64,192,24360,2,0,L|272:192,2,200
64,288,25710,1,0,0:0:0:0:
256,288,25860,1,0,0:0:0:0:
144,288,26010,1,0,0:0:0:0:
368,288,26160,1,0,0:0:0:0:
256,288,26460,2,0,L|256:192,2,50
160,288,26985,6,0,L|128:288,3,25
256,288,27360,2,0,L|320:288,1,50
400,288,27585,2,0,L|432:288,2,25
304,288,27885,2,0,L|240:288,1,50
192,288,28110,1,0,0:0:0:0:
128,288,28185,2,0,L|80:288,2,25
256,288,28560,2,0,L|320:288,1,50
432,288,28785,2,0,L|464:288,2,25
384,288,29010,2,0,L|352:288,1,25
96,288,29160,1,0,0:0:0:0:
272,176,29760,6,0,L|336:176,1,50
416,176,30210,2,0,L|160:176,1,250
304,192,31260,1,0,0:0:0:0:
96,192,31560,2,0,L|304:192,1,200
432,192,32310,5,0,0:0:0:0:
240,192,32460,1,0,0:0:0:0:
272,192,32610,1,0,0:0:0:0:
128,192,32760,2,0,L|208:192,1,75
203,192,33060,2,0,L|288:192,1,75
278,192,33360,2,0,L|480:192,1,200
278,192,34110,1,0,0:0:0:0:
64,192,34260,1,0,0:0:0:0:
272,192,34410,1,0,0:0:0:0:
480,192,34560,2,0,L|320:64,2,200
64,192,36060,6,0,L|96:144,2,50
160,192,36435,1,0,0:0:0:0:
192,192,36510,1,0,0:0:0:0:
224,192,36585,1,0,0:0:0:0:
320,192,36660,1,0,0:0:0:0:
160,288,36810,1,0,0:0:0:0:
352,192,36960,1,0,0:0:0:0:
320,192,37035,1,0,0:0:0:0:
288,192,37110,1,0,0:0:0:0:
96,192,37185,2,0,L|16:192,1,75
320,144,37560,1,0,0:0:0:0:
352,144,37635,1,0,0:0:0:0:
384,144,37710,1,0,0:0:0:0:
80,192,37860,1,0,0:0:0:0:
96,192,38160,1,0,0:0:0:0:
112,192,38235,1,0,0:0:0:0:
256,192,38310,1,0,0:0:0:0:
480,192,38760,1,0,0:0:0:0:
48,192,39360,6,0,L|256:192,1,200
304,192,40260,2,0,L|400:128,2,100
48,192,41160,1,0,0:0:0:0:
228,192,41310,1,0,0:0:0:0:
128,192,41460,2,0,L|240:192,1,100
384,192,42060,2,0,L|448:192,1,50
384,192,42360,2,0,L|176:192,2,200
112,192,44160,5,0,0:0:0:0:
336,192,44760,1,0,0:0:0:0:
176,192,45060,1,0,0:0:0:0:
416,192,45360,1,0,0:0:0:0:
208,192,45660,1,0,0:0:0:0:
336,192,45960,2,0,L|240:144,2,100
448,192,46860,2,0,L|448:128,2,50
256,192,47460,1,0,0:0:0:0:
64,192,47760,6,0,L|64:160,4,25
192,192,48210,1,0,0:0:0:0:
448,192,48360,1,0,0:0:0:0:
80,144,48960,6,0,L|208:144,2,100
334,144,50010,2,0,L|398:144,1,50
384,144,50460,2,0,L|496:144,2,100
256,192,51360,2,0,L|96:192,1,150
256,192,51960,2,0,L|480:192,1,200
320,192,52710,1,0,0:0:0:0:
112,192,52860,1,0,0:0:0:0:
320,192,53010,1,0,0:0:0:0:
192,192,53160,1,0,0:0:0:0:
464,192,53460,6,0,L|384:192,1,50
414,192,53760,2,0,L|256:192,1,150
264,192,54360,2,0,L|96:64,1,200
414,192,55560,2,0,L|414:96,2,50
112,192,56160,2,0,L|112:128,2,50
384,192,56760,6,0,L|448:128,1,50
288,176,57060,2,0,L|336:128,1,50
96,176,57360,2,0,L|320:176,1,200
432,192,58560,1,0,0:0:0:0:
80,192,59160,2,0,L|192:192,2,100
448,192,60360,2,0,L|336:192,2,100
80,192,61560,2,0,L|208:192,2,100
256,192,62460,1,0,0:0:0:0:
448,192,62760,2,0,L|352:192,1,50
398,192,63060,2,0,L|304:192,1,50
256,192,63360,1,0,0:0:0:0:
160,192,63510,1,0,0:0:0:0:
48,192,63660,2,0,L|128:192,1,50
304,192,63960,2,0,L|432:192,2,100
224,192,64860,6,0,L|160:192,2,50
304,192,65310,2,0,L|416:192,1,100
404,192,65760,2,0,L|272:192,2,100
96,192,66660,6,0,L|176:192,1,75
400,192,66960,2,0,L|288:192,1,100
176,192,67560,1,0,0:0:0:0:
400,192,67710,1,0,0:0:0:0:
176,192,67860,1,0,0:0:0:0:
112,192,68160,2,0,L|176:192,1,50
176,192,68385,2,0,L|320:192,1,125
32,192,69060,6,0,L|96:192,3,50
192,192,69660,2,0,L|304:192,1,100
448,192,70260,1,0,0:0:0:0:
192,192,70410,1,0,0:0:0:0:
368,192,70560,1,0,0:0:0:0:
192,192,70710,1,0,0:0:0:0:
112,192,70860,2,0,L|48:192,2,50
192,192,71310,2,0,L|192:160,3,25
448,192,71610,2,0,L|288:192,1,150
208,192,72135,2,0,L|160:192,3,25
64,240,72960,6,0,P|112:256|272:288,1,200
464,272,74160,2,0,L|368:208,2,100
96,208,75060,2,0,L|176:128,1,100
240,96,75510,1,0,0:0:0:0:
400,48,75660,1,0,0:0:0:0:
320,64,75810,1,0,0:0:0:0:
416,192,75960,6,0,L|416:160,2,25
272,192,76260,2,0,L|240:192,2,25
48,192,76485,6,0,L|96:192,1,25
176,192,76635,2,0,L|144:192,2,25
176,192,76860,1,0,0:0:0:0:
128,192,76935,2,0,L|96:192,1,25
80,192,77085,2,0,L|32:192,1,25
464,192,77760,6,0,L|352:192,2,100
112,192,78510,1,0,0:0:0:0:
272,192,78660,1,0,0:0:0:0:
176,192,78810,1,0,0:0:0:0:
464,192,78960,1,0,0:0:0:0:
64,144,79260,1,0,0:0:0:0:
64,288,79560,6,0,L|128:288,1,50
336,288,79860,1,0,0:0:0:0:
176,288,80010,1,0,0:0:0:0:
336,288,80160,1,0,0:0:0:0:
176,288,80310,2,0,L|352:288,1,150
464,288,80910,1,0,0:0:0:0:
176,288,81060,1,0,0:0:0:0:
256,288,81210,1,0,0:0:0:0:
80,288,81360,6,0,L|224:288,2,100
352,288,82110,1,0,0:0:0:0:
208,288,82260,1,0,0:0:0:0:
304,288,82410,1,0,0:0:0:0:
208,288,82560,1,0,0:0:0:0:
256,288,82710,2,0,L|256:128,1,150
304,96,83310,1,0,0:0:0:0:
208,96,83460,1,0,0:0:0:0:
304,96,83610,1,0,0:0:0:0:
160,96,83760,1,0,0:0:0:0:
160,96,83910,2,0,L|304:96,1,100
64,240,84360,6,0,L|112:272,1,50
352,288,84660,2,0,L|352:240,2,25
128,192,84960,2,0,L|176:240,1,50
384,192,85260,2,0,L|384:160,2,25
192,128,85560,2,0,L|240:176,1,50
448,80,85860,2,0,L|448:128,2,25
48,256,86160,2,0,L|96:256,1,25
480,272,86310,2,0,L|320:272,1,150
400,192,86985,6,0,L|368:176,4,25
80,192,87360,2,0,L|144:192,1,50
464,192,87585,2,0,L|464:160,3,25
304,192,87885,2,0,L|240:192,1,50
130,192,88110,2,0,L|130:144,5,25
464,192,88560,1,0,0:0:0:0:
384,272,88860,6,0,P|352:240|288:256,1,100
144,192,89310,2,0,L|160:160,2,25
208,192,89535,2,0,L|192:160,2,25
32,192,89760,1,0,0:0:0:0:
96,192,89910,1,0,0:0:0:0:
448,192,90060,1,0,0:0:0:0:
160,192,90135,2,0,L|224:128,1,75
320,192,90510,2,0,L|320:160,1,25
384,192,90735,2,0,L|384:160,1,25
64,192,90960,6,0,P|112:240|160:256,1,100
224,256,91335,1,0,0:0:0:0:
464,256,91560,2,0,P|464:224|400:176,1,100
336,128,91935,1,0,0:0:0:0:
272,96,92010,1,0,0:0:0:0:
208,64,92085,1,0,0:0:0:0:
144,64,92160,1,0,0:0:0:0:
48,128,92235,2,0,P|48:176|80:192,1,75
352,144,92535,2,0,P|384:160|416:160,1,50
192,176,92760,1,0,0:0:0:0:
80,64,92910,6,0,L|112:112,1,50
432,48,93210,2,0,L|400:96,1,50
112,192,93660,2,0,L|176:192,1,50
448,144,93960,2,0,L|400:208,1,75
96,80,94260,2,0,L|128:112,1,25
432,64,94410,2,0,L|400:96,1,25
64,176,94560,1,0,0:0:0:0:
256,176,94635,1,0,0:0:0:0:
432,176,94710,1,0,0:0:0:0:
80,128,94785,6,0,L|128:160,1,50
256,176,95010,2,0,L|256:128,1,25
464,112,95160,2,0,L|432:160,1,50
64,176,95385,2,0,L|144:208,1,75
464,208,95685,2,0,L|432:240,1,25
48,256,95835,2,0,L|80:272,1,25
432,272,95985,2,0,L|400:288,1,25
48,128,96135,2,0,L|80:144,1,25
448,96,96285,2,0,L|432:128,1,25
32,224,96960,5,0,0:0:0:0:
448,224,97560,2,0,L|336:224,2,100
256,224,98310,1,0,0:0:0:0:
128,224,98460,1,0,0:0:0:0:
256,224,98610,1,0,0:0:0:0:
48,224,98760,1,0,0:0:0:0:
480,192,99360,5,0,0:0:0:0:
480,192,99510,2,0,L|320:192,1,150
128,192,100110,1,0,0:0:0:0:
256,192,100260,1,0,0:0:0:0:
48,192,100410,1,0,0:0:0:0:
256,192,100560,2,0,L|464:192,1,200
456,192,101310,1,0,0:0:0:0:
448,192,101460,1,0,0:0:0:0:
256,192,101610,1,0,0:0:0:0:
64,192,101760,2,0,L|272:192,2,200
64,288,103110,1,0,0:0:0:0:
256,288,103260,1,0,0:0:0:0:
144,288,103410,1,0,0:0:0:0:
368,288,103560,1,0,0:0:0:0:
256,288,103860,2,0,L|256:192,2,50
160,288,104385,6,0,L|128:288,3,25
256,288,104760,2,0,L|320:288,1,50
400,288,104985,2,0,L|432:288,2,25
304,288,105285,2,0,L|240:288,1,50
192,288,105510,1,0,0:0:0:0:
128,288,105585,2,0,L|80:288,2,25
256,288,105960,2,0,L|320:288,1,50
432,288,106185,2,0,L|464:288,2,25
384,288,106410,2,0,L|352:288,1,25
96,288,106560,1,0,0:0:0:0:
272,176,107160,6,0,L|336:176,1,50
416,176,107610,2,0,L|160:176,1,250
304,192,108660,1,0,0:0:0:0:
96,192,108960,2,0,L|304:192,1,200
432,192,109710,5,0,0:0:0:0:
240,192,109860,1,0,0:0:0:0:
272,192,110010,1,0,0:0:0:0:
128,192,110160,2,0,L|208:192,1,75
203,192,110460,2,0,L|288:192,1,75
278,192,110760,2,0,L|480:192,1,200
278,192,111510,1,0,0:0:0:0:
64,192,111660,1,0,0:0:0:0:
272,192,111810,1,0,0:0:0:0:
480,192,111960,2,0,L|320:64,2,200
64,192,113460,6,0,L|96:144,2,50
160,192,113835,1,0,0:0:0:0:
192,192,113910,1,0,0:0:0:0:
224,192,113985,1,0,0:0:0:0:
320,192,114060,1,0,0:0:0:0:
160,288,114210,1,0,0:0:0:0:
352,192,114360,1,0,0:0:0:0:
320,192,114435,1,0,0:0:0:0:
288,192,114510,1,0,0:0:0:0:
96,192,114585,2,0,L|16:192,1,75
320,144,114960,1,0,0:0:0:0:
352,144,115035,5,0,0:0:0:0:
384,144,115110,1,0,0:0:0:0:
80,192,115260,1,0,0:0:0:0:
96,192,115560,1,0,0:0:0:0:
112,192,115635,1,0,0:0:0:0:
256,192,115710,1,0,0:0:0:0:
480,192,116160,1,0,0:0:0:0:
368,96,116760,2,0,P|304:96|160:336,1,375
384,320,117960,2,0,P|368:224|240:128,1,250
160,128,118860,2,0,L|128:128,3,25
432,128,119160,2,0,B|384:80|288:64|320:256|112:256,1,375
448,256,120360,2,0,L|240:256,2,200
112,192,121860,2,0,L|176:192,6,50
32,192,125160,6,0,L|240:192,2,200
432,192,126960,1,0,0:0:0:0:
80,192,127560,2,0,L|192:192,2,100
448,192,128760,2,0,L|336:192,2,100
80,192,129960,2,0,L|208:192,2,100
256,192,130860,1,0,0:0:0:0:
448,192,131160,2,0,L|352:192,1,50
398,192,131460,2,0,L|304:192,1,50
256,192,131760,1,0,0:0:0:0:
160,192,131910,1,0,0:0:0:0:
48,192,132060,2,0,L|128:192,1,50
304,192,132360,2,0,L|432:192,2,100
224,192,133260,6,0,L|160:192,2,50
304,192,133710,2,0,L|416:192,1,100
404,192,134160,2,0,L|272:192,2,100
96,192,135060,6,0,L|176:192,1,75
400,192,135360,2,0,L|288:192,1,100
176,192,135960,1,0,0:0:0:0:
400,192,136110,1,0,0:0:0:0:
176,192,136260,1,0,0:0:0:0:
112,192,136560,2,0,L|176:192,1,50
176,192,136785,2,0,L|320:192,1,125
32,192,137460,6,0,L|96:192,3,50
192,192,138060,2,0,L|304:192,1,100
448,192,138660,1,0,0:0:0:0:
192,192,138810,1,0,0:0:0:0:
368,192,138960,1,0,0:0:0:0:
192,192,139110,1,0,0:0:0:0:
112,192,139260,2,0,L|48:192,2,50
192,192,139710,2,0,L|192:160,3,25
448,192,140010,2,0,L|288:192,1,150
208,192,140535,2,0,L|160:192,3,25
64,240,141360,6,0,P|112:256|272:288,1,200
464,272,142560,2,0,L|368:208,2,100
96,208,143460,2,0,L|176:128,1,100
240,96,143910,1,0,0:0:0:0:
400,48,144060,1,0,0:0:0:0:
320,64,144210,1,0,0:0:0:0:
416,192,144360,6,0,L|416:160,2,25
272,192,144660,2,0,L|240:192,2,25
48,192,144885,6,0,L|96:192,1,25
176,192,145035,2,0,L|144:192,2,25
176,192,145260,1,0,0:0:0:0:
128,192,145335,2,0,L|96:192,1,25
80,192,145485,2,0,L|32:192,1,25
432,192,146160,1,0,0:0:0:0:
80,192,146760,2,0,L|192:192,2,100
448,192,147960,2,0,L|336:192,2,100
80,192,149160,2,0,L|208:192,2,100
256,192,150060,1,0,0:0:0:0:
448,192,150360,2,0,L|352:192,1,50
398,192,150660,2,0,L|304:192,1,50
256,192,150960,1,0,0:0:0:0:
160,192,151110,1,0,0:0:0:0:
48,192,151260,2,0,L|128:192,1,50
304,192,151560,2,0,L|432:192,2,100
224,192,152460,6,0,L|160:192,2,50
402,195,153360,6,0,L|260:138,1,150
32,192,153910,6,0,L|96:192,1,50
480,192,154210,2,0,L|416:192,1,50
32,128,154510,2,0,L|96:128,1,50
480,128,154810,2,0,L|416:128,1,50
32,160,155310,2,0,L|96:160,1,50
480,192,155610,2,0,L|416:192,1,50
32,96,155910,2,0,L|96:96,1,50
480,112,156210,2,0,L|416:112,1,50
32,192,156510,2,0,L|96:192,1,50
480,192,156810,2,0,L|416:192,1,50
32,192,157110,6,0,L|96:192,1,50
480,192,157410,2,0,L|416:192,1,50
32,128,157710,2,0,L|96:128,1,50
480,128,158010,2,0,L|416:128,1,50
32,160,158310,2,0,L|96:160,1,50
480,192,158610,2,0,L|416:192,1,50
32,96,158910,2,0,L|96:96,1,50
480,112,159210,2,0,L|416:112,1,50
32,192,159510,2,0,L|96:192,1,50
480,192,159810,2,0,L|416:192,1,50
32,192,160110,6,0,L|96:192,1,50
480,192,160410,2,0,L|416:192,1,50
32,128,160710,2,0,L|96:128,1,50
480,128,161010,2,0,L|416:128,1,50
32,160,161310,2,0,L|96:160,1,50
480,192,161610,2,0,L|416:192,1,50
32,96,161910,2,0,L|96:96,1,50
480,112,162210,2,0,L|416:112,1,50
32,192,162510,2,0,L|96:192,1,50
480,192,162810,2,0,L|416:192,1,50
32,192,163560,6,0,L|96:192,1,50
480,192,163860,2,0,L|416:192,1,50
32,128,164160,2,0,L|96:128,1,50
480,128,164460,2,0,L|416:128,1,50
32,160,164910,2,0,L|96:160,1,50
480,192,165210,2,0,L|416:192,1,50
32,96,165510,2,0,L|96:96,1,50
480,112,165810,2,0,L|416:112,1,50
32,192,166110,2,0,L|96:192,1,50
480,192,166410,2,0,L|416:192,1,50
32,160,166710,2,0,L|96:160,1,50
480,192,167010,2,0,L|416:192,1,50
32,96,167310,2,0,L|96:96,1,50
480,112,167610,2,0,L|416:112,1,50
32,192,167910,2,0,L|96:192,1,50
480,192,168210,2,0,L|416:192,1,50
166,191,169860,6,0,L|167:120,1,50
67,191,170085,6,0,L|68:120,1,50
270,191,170310,6,0,L|271:120,1,50
430,192,170535,6,0,L|431:121,1,50
368,192,170760,6,0,L|432:192,1,50
144,192,170985,2,0,L|96:192,1,25
368,304,171135,2,0,L|432:304,1,50
144,304,171360,2,0,L|80:304,1,50
352,96,171585,2,0,L|400:96,1,25
160,96,171735,2,0,L|96:96,1,50
352,208,171960,2,0,L|416:208,1,50
160,208,172185,2,0,L|96:208,1,50
368,80,172410,2,0,L|416:80,1,25
144,304,172560,2,0,L|112:272,1,25
368,304,172710,2,0,L|400:288,1,25
144,304,172860,2,0,L|128:272,1,25
448,272,173010,2,0,L|480:256,1,25
64,256,173160,1,0,0:0:0:0:
464,192,173760,6,0,L|352:192,2,100
112,192,174510,1,0,0:0:0:0:
272,192,174660,1,0,0:0:0:0:
176,192,174810,1,0,0:0:0:0:
464,192,174960,1,0,0:0:0:0:
64,144,175260,1,0,0:0:0:0:
64,288,175560,6,0,L|128:288,1,50
336,288,175860,1,0,0:0:0:0:
176,288,176010,1,0,0:0:0:0:
336,288,176160,1,0,0:0:0:0:
176,288,176310,2,0,L|352:288,1,150
464,288,176910,1,0,0:0:0:0:
176,288,177060,1,0,0:0:0:0:
256,288,177210,1,0,0:0:0:0:
80,288,177360,6,0,L|224:288,2,100
352,288,178110,1,0,0:0:0:0:
208,288,178260,1,0,0:0:0:0:
304,288,178410,1,0,0:0:0:0:
208,288,178560,1,0,0:0:0:0:
256,288,178710,2,0,L|256:128,1,150
304,96,179310,1,0,0:0:0:0:
208,96,179460,1,0,0:0:0:0:
304,96,179610,1,0,0:0:0:0:
160,96,179760,1,0,0:0:0:0:
160,96,179910,2,0,L|304:96,1,100
64,240,180360,6,0,L|112:272,1,50
352,288,180660,2,0,L|352:240,2,25
128,192,180960,2,0,L|176:240,1,50
384,192,181260,2,0,L|384:160,2,25
192,128,181560,2,0,L|240:176,1,50
448,80,181860,2,0,L|448:128,2,25
48,256,182160,2,0,L|96:256,1,25
480,272,182310,2,0,L|320:272,1,150
400,192,182985,6,0,L|368:176,4,25
80,192,183360,2,0,L|144:192,1,50
464,192,183585,2,0,L|464:160,3,25
304,192,183885,2,0,L|240:192,1,50
130,192,184110,2,0,L|130:144,5,25
464,192,184560,1,0,0:0:0:0:
384,272,184860,6,0,P|352:240|288:256,1,100
144,192,185310,2,0,L|160:160,2,25
208,192,185535,2,0,L|192:160,2,25
32,192,185760,1,0,0:0:0:0:
96,192,185910,1,0,0:0:0:0:
448,192,186060,1,0,0:0:0:0:
160,192,186135,2,0,L|224:128,1,75
320,192,186510,2,0,L|320:160,1,25
384,192,186735,2,0,L|384:160,1,25
64,192,186960,6,0,P|112:240|160:256,1,100
224,256,187335,1,0,0:0:0:0:
464,256,187560,2,0,P|464:224|400:176,1,100
336,128,187935,1,0,0:0:0:0:
272,96,188010,1,0,0:0:0:0:
208,64,188085,1,0,0:0:0:0:
144,64,188160,1,0,0:0:0:0:
48,128,188235,2,0,P|48:176|80:192,1,75
352,144,188535,2,0,P|384:160|416:160,1,50
192,176,188760,1,0,0:0:0:0:
80,64,188910,6,0,L|112:112,1,50
432,48,189210,2,0,L|400:96,1,50
112,192,189660,2,0,L|176:192,1,50
448,144,189960,2,0,L|400:208,1,75
96,80,190260,2,0,L|128:112,1,25
432,64,190410,2,0,L|400:96,1,25
64,176,190560,1,0,0:0:0:0:
256,176,190635,1,0,0:0:0:0:
432,176,190710,1,0,0:0:0:0:
80,128,190785,6,0,L|128:160,1,50
256,176,191010,2,0,L|256:128,1,25
464,112,191160,2,0,L|432:160,1,50
64,176,191385,2,0,L|144:208,1,75
464,208,191685,2,0,L|432:240,1,25
48,256,191835,2,0,L|80:272,1,25
432,272,191985,2,0,L|400:288,1,25
48,128,192135,2,0,L|80:144,1,25
448,96,192285,2,0,L|432:128,1,25
48,192,192960,6,0,L|256:192,1,200
304,192,193860,2,0,L|400:128,2,100
48,192,194760,1,0,0:0:0:0:
228,192,194910,1,0,0:0:0:0:
128,192,195060,2,0,L|240:192,1,100
384,192,195660,2,0,L|448:192,1,50
384,192,195960,2,0,L|176:192,2,200
112,192,197760,5,0,0:0:0:0:
336,192,198360,1,0,0:0:0:0:
176,192,198660,1,0,0:0:0:0:
416,192,198960,1,0,0:0:0:0:
208,192,199260,1,0,0:0:0:0:
336,192,199560,2,0,L|240:144,2,100
448,192,200460,2,0,L|448:128,2,50
256,192,201060,1,0,0:0:0:0:
64,192,201360,6,0,L|64:160,4,25
192,192,201810,1,0,0:0:0:0:
448,192,201960,1,0,0:0:0:0:
80,144,202560,6,0,L|208:144,2,100
334,144,203610,2,0,L|398:144,1,50
384,144,204060,2,0,L|496:144,2,100
256,192,204960,2,0,L|96:192,1,150
256,192,205560,2,0,L|480:192,1,200
320,192,206310,1,0,0:0:0:0:
112,192,206460,1,0,0:0:0:0:
320,192,206610,1,0,0:0:0:0:
192,192,206760,1,0,0:0:0:0:
464,192,207060,6,0,L|384:192,1,50
414,192,207360,2,0,L|256:192,1,150
264,192,207960,2,0,L|96:64,1,200
414,192,209160,2,0,L|414:96,2,50
112,192,209760,2,0,L|112:128,2,50
384,192,210360,6,0,L|448:128,1,50
288,176,210660,2,0,L|336:128,1,50
96,176,210960,2,0,L|320:176,1,200
256,192,211710,12,0,216360,0:0:0:0:
