osu file format v14

[General]
AudioFilename: audio.mp3
AudioLeadIn: 0
PreviewTime: 76602
Countdown: 0
SampleSet: Soft
StackLeniency: 0.7
Mode: 2
LetterboxInBreaks: 0
WidescreenStoryboard: 0

[Editor]
DistanceSpacing: 2.2
BeatDivisor: 8
GridSize: 4
TimelineZoom: 1

[Metadata]
Title:Shelter
TitleUnicode:Shelter
Artist:Porter Robinson & Madeon
ArtistUnicode:Porter Robinson & Madeon
Creator:Myle
Version:Platter
Source:Shelter
Tags:a-1 pictures crunchyroll edm electronic dance music cut short version
BeatmapID:1149573
BeatmapSetID:536749

[Difficulty]
HPDrainRate:6
CircleSize:3.5
OverallDifficulty:8
ApproachRate:8
SliderMultiplier:2.2
SliderTickRate:1

[Events]
//Background and Video events
0,0,"BG.png",0,0
//Break Periods
2,39002,42252
2,58202,66852
//Storyboard Layer 0 (Background)
//Storyboard Layer 1 (Fail)
//Storyboard Layer 2 (Pass)
//Storyboard Layer 3 (Foreground)
//Storyboard Sound Samples

[TimingPoints]
402,600,4,2,1,30,1,0
10002,-100,4,2,1,40,0,0
19602,-100,4,2,1,50,0,1
38202,-100,4,2,1,30,0,0
43002,-100,4,2,1,30,0,0
47802,-100,4,2,1,45,0,0
48402,-100,4,2,1,40,0,0
57402,-100,4,2,1,45,0,0
67602,-100,4,2,1,30,0,0
76002,-100,4,2,1,45,0,0
77202,-100,4,2,1,50,0,1
94002,-100,4,2,1,40,0,0
95802,-100,4,2,1,45,0,0
96402,-100,4,2,1,50,0,1
113202,-100,4,2,1,45,0,0
115602,-100,4,2,1,20,0,0

[Colours]
Combo1 : 255,128,255
Combo2 : 0,206,206
Combo3 : 72,164,255

[HitObjects]
36,288,402,6,2,L|96:56,1,220,2|2,0:0|0:0,0:0:0:0:
168,72,1152,1,0,0:0:0:0:
428,68,1452,2,2,P|496:148|376:224,1,275,2|2,0:0|0:0,0:0:0:0:
160,232,2802,6,2,P|88:184|172:112,1,220,2|2,0:0|0:0,0:0:0:0:
244,108,3552,1,0,0:0:0:0:
16,152,3852,2,2,L|300:216,1,275
128,264,4902,1,2,0:0:0:0:
376,264,5202,6,2,P|440:224|368:128,1,220,2|2,0:0|0:0,0:0:0:0:
288,128,5952,1,0,0:0:0:0:
28,136,6252,2,0,P|20:216|180:224,1,275,2|2,0:0|0:0,0:0:0:0:
320,272,7302,1,2,0:0:0:0:
160,240,7602,6,2,L|72:240,2,82.5,2|0|0,0:0|0:0|0:0,0:0:0:0:
272,240,8202,2,2,L|360:240,2,82.5,2|0|0,0:0|0:0|0:0,0:0:0:0:
160,240,8802,2,2,L|116:144,1,82.5,2|0,0:0|0:0,0:0:0:0:
232,148,9252,1,0,0:0:0:0:
388,172,9402,2,2,L|456:88,1,82.5,2|0,0:0|0:0,0:0:0:0:
328,96,9852,1,0,0:0:0:0:
88,104,10002,5,8,0:0:0:0:
56,176,10152,1,0,0:0:0:0:
64,256,10302,1,2,0:0:0:0:
120,320,10452,1,0,0:0:0:0:
348,300,10602,2,4,L|460:292,1,110,4|2,0:0|0:0,0:0:0:0:
284,264,11202,2,8,L|272:144,1,110,8|2,0:0|0:0,0:0:0:0:
464,208,11802,2,4,L|448:88,1,110,4|2,0:0|0:0,0:0:0:0:
208,72,12402,5,8,0:0:0:0:
164,144,12552,1,0,0:0:0:0:
196,220,12702,1,2,0:0:0:0:
268,260,12852,1,0,0:0:0:0:
484,260,13002,2,4,L|460:116,1,110,4|2,0:0|0:0,0:0:0:0:
228,257,13602,2,8,P|200:208|312:132,1,220,8|4,0:0|0:0,0:0:0:0:
436,156,14502,1,2,0:0:0:0:
228,184,14802,6,8,L|148:176,1,55,8|0,0:0|0:0,0:0:0:0:
88,128,15102,2,2,L|160:112,1,55,2|0,0:0|0:0,0:0:0:0:
368,120,15402,2,4,L|328:232,1,110,4|2,0:0|0:0,0:0:0:0:
168,228,16002,1,8,0:0:0:0:
104,176,16152,1,0,0:0:0:0:
104,92,16302,1,2,0:0:0:0:
176,52,16452,1,0,0:0:0:0:
396,108,16602,2,4,L|352:212,1,110,4|0,0:0|0:0,0:0:0:0:
88,236,17202,5,10,0:0:0:0:
180,212,17427,1,0,0:0:0:0:
272,196,17652,1,0,0:0:0:0:
164,144,17802,1,10,0:0:0:0:
260,128,18027,1,0,0:0:0:0:
356,132,18252,1,0,0:0:0:0:
252,68,18402,5,10,0:0:0:0:
348,76,18627,1,0,0:0:0:0:
428,128,18852,1,0,0:0:0:0:
332,168,19002,1,4,0:0:0:0:
156,156,19152,2,8,L|92:60,1,110,8|0,0:0|0:0,0:0:0:0:
312,240,19602,6,12,L|352:176,1,55,12|0,0:0|0:0,0:0:0:0:
264,168,19902,2,2,L|224:128,1,55,2|0,0:0|0:0,0:0:0:0:
448,224,20202,1,4,0:0:0:0:
480,152,20352,1,0,0:0:0:0:
472,72,20502,1,2,0:0:0:0:
408,24,20652,1,0,0:0:0:0:
280,32,20802,2,8,L|168:32,1,110,8|2,0:0|0:0,0:0:0:0:
392,112,21402,1,4,0:0:0:0:
92,152,22002,6,8,L|196:152,1,55,8|0,0:0|0:0,0:0:0:0:
244,136,22302,2,2,L|332:136,1,55,2|0,0:0|0:0,0:0:0:0:
88,228,22602,2,4,L|32:228,1,55,4|0,0:0|0:0,0:0:0:0:
116,228,22902,1,2,0:0:0:0:
200,228,23052,1,0,0:0:0:0:
360,228,23202,2,8,P|404:172|284:112,1,220
468,96,24102,1,2,0:0:0:0:
166,126,24402,6,8,L|142:70,3,55,8|0|2|0,0:0|0:0|0:0|0:0,0:0:0:0:
404,168,25002,2,4,L|460:276,1,110,4|2,0:0|0:0,0:0:0:0:
232,256,25602,2,8,L|392:288,1,110,8|2,0:0|0:0,0:0:0:0:
118,287,26202,2,4,L|16:176,1,110,4|2,0:0|0:0,0:0:0:0:
408,192,26802,6,8,L|492:192,2,82.5,8|0|0,0:0|0:0|0:0,0:0:0:0:
252,172,27402,1,4,0:0:0:0:
332,80,27627,1,0,0:0:0:0:
412,32,27852,1,0,0:0:0:0:
252,32,28002,6,8,L|156:32,2,82.5,8|0|0,0:0|0:0|0:0,0:0:0:0:
420,68,28602,1,4,0:0:0:0:
436,184,28827,1,0,0:0:0:0:
336,224,29052,1,0,0:0:0:0:
52,220,29202,5,12,0:0:0:0:
44,164,29352,1,0,0:0:0:0:
64,112,29502,1,2,0:0:0:0:
116,88,29652,1,0,0:0:0:0:
336,128,29802,2,4,L|216:128,1,110,4|2,0:0|0:0,0:0:0:0:
368,104,30402,1,8,0:0:0:0:
416,168,30552,1,0,0:0:0:0:
416,248,30702,1,2,0:0:0:0:
368,312,30852,1,0,0:0:0:0:
208,304,31002,2,4,B|144:192,1,110,4|2,0:0|0:0,0:0:0:0:
444,68,31602,5,8,0:0:0:0:
476,148,31752,1,0,0:0:0:0:
452,232,31902,1,2,0:0:0:0:
372,268,32052,1,0,0:0:0:0:
136,216,32202,2,4,L|72:216,1,55,4|0,0:0|0:0,0:0:0:0:
4,180,32502,2,2,L|59:180,1,55,2|0,0:0|0:0,0:0:0:0:
232,176,32802,2,8,P|316:144|272:32,1,220,8|4,0:0|0:0,0:0:0:0:
120,36,33702,1,0,0:0:0:0:
424,296,34002,5,8,0:0:0:0:
464,224,34152,1,0,0:0:0:0:
456,144,34302,1,2,0:0:0:0:
392,88,34452,1,0,0:0:0:0:
152,120,34602,2,4,L|80:120,1,55,4|0,0:0|0:0,0:0:0:0:
16,88,34902,2,2,L|80:88,1,55,2|0,0:0|0:0,0:0:0:0:
232,124,35202,2,8,L|172:224,1,110,8|2,0:0|0:0,0:0:0:0:
352,264,35802,2,4,L|472:264,1,110,4|2,0:0|0:0,0:0:0:0:
100,284,36402,6,10,L|100:184,1,82.5,10|0,0:0|0:0,0:0:0:0:
216,192,36852,1,0,0:0:0:0:
376,184,37002,2,6,L|468:184,1,82.5,6|0,0:0|0:0,0:0:0:0:
352,164,37452,1,0,0:0:0:0:
196,148,37602,6,10,L|104:148,2,82.5,10|0|0,0:0|0:0|0:0,0:0:0:0:
380,144,38202,2,10,L|400:248,1,82.5,2|2,0:0|0:0,0:0:0:0:
272,232,38652,1,2,0:0:0:0:
108,240,38802,5,10,0:0:0:0:
200,192,43002,5,4,0:0:0:0:
288,192,43152,1,0,0:0:0:0:
372,192,43302,1,0,0:0:0:0:
200,192,43602,6,8,L|64:192,1,110,8|0,0:0|0:0,0:0:0:0:
376,192,44202,2,4,P|408:144|368:120,1,110,4|2,0:0|0:0,0:0:0:0:
296,120,44652,1,2,0:0:0:0:
124,120,44802,2,8,L|72:20,1,110,8|0,0:0|0:0,0:0:0:0:
244,120,45402,2,4,L|372:120,1,110,4|0,0:0|0:0,0:0:0:0:
96,120,46002,6,8,P|80:216|208:272,1,220,8|4,0:0|0:0,0:0:0:0:
416,272,47052,1,2,0:0:0:0:
336,272,47202,2,0,L|192:272,1,110,8|0,0:0|0:0,0:0:0:0:
384,232,47802,5,10,0:0:0:0:
416,208,47877,1,2,0:0:0:0:
424,168,47952,1,2,0:0:0:0:
392,96,48102,1,8,0:0:0:0:
312,80,48252,1,8,0:0:0:0:
88,128,48402,6,8,P|56:224|160:304,1,220,8|4,0:0|0:0,0:0:0:0:
216,304,49152,1,0,0:0:0:0:
296,304,49302,1,0,0:0:0:0:
376,304,49452,1,0,0:0:0:0:
232,232,49602,2,8,L|144:160,1,110,8|0,0:0|0:0,0:0:0:0:
368,128,50202,2,4,L|280:56,1,110,4|0,0:0|0:0,0:0:0:0:
120,80,50802,5,8,0:0:0:0:
72,144,50952,1,2,0:0:0:0:
72,224,51102,1,2,0:0:0:0:
144,256,51252,1,2,0:0:0:0:
304,256,51402,2,4,L|432:256,1,110,4|2,0:0|0:0,0:0:0:0:
272,204,52002,2,8,L|396:204,1,110,8|0,0:0|0:0,0:0:0:0:
192,184,52602,2,4,L|128:184,2,55,4|0|0,0:0|0:0|0:0,0:0:0:0:
360,184,53202,5,8,0:0:0:0:
432,136,53352,1,2,0:0:0:0:
400,56,53502,1,2,0:0:0:0:
320,72,53652,1,2,0:0:0:0:
168,136,53802,2,4,P|133:165|180:216,1,110,4|2,0:0|0:0,0:0:0:0:
224,240,54252,1,0,0:0:0:0:
384,228,54402,2,8,L|388:108,1,110,8|0,0:0|0:0,0:0:0:0:
164,168,55002,2,6,L|100:144,2,55,6|0|0,0:0|0:0|0:0,0:0:0:0:
356,264,55602,5,10,0:0:0:0:
440,224,55752,1,2,0:0:0:0:
448,136,55902,1,2,0:0:0:0:
368,112,56052,1,2,0:0:0:0:
200,120,56202,2,4,L|64:120,1,110,4|0,0:0|0:0,0:0:0:0:
292,224,56802,2,8,L|408:224,1,110,8|0,0:0|0:0,0:0:0:0:
168,184,57402,5,10,0:0:0:0:
112,184,57477,1,2,0:0:0:0:
76,184,57552,1,2,0:0:0:0:
152,144,57702,1,8,0:0:0:0:
256,140,57852,1,8,0:0:0:0:
472,152,58002,5,0,0:0:0:0:
84,196,67602,6,8,L|160:196,1,55,8|0,0:0|0:0,0:0:0:0:
220,196,67902,2,0,L|292:196,1,55,0|0,0:0|0:0,0:0:0:0:
380,196,68202,2,4,B|436:196|436:196|364:196,1,110,4|0,0:0|0:0,0:0:0:0:
228,248,68802,5,8,0:0:0:0:
280,176,68952,1,0,0:0:0:0:
248,96,69102,1,0,0:0:0:0:
160,88,69252,1,0,0:0:0:0:
44,104,69402,2,4,L|36:236,1,110,4|0,0:0|0:0,0:0:0:0:
224,216,70002,6,8,L|160:216,1,55,8|0,0:0|0:0,0:0:0:0:
80,216,70302,2,0,L|80:148,1,55,0|0,0:0|0:0,0:0:0:0:
184,156,70602,2,4,L|304:152,1,110,4|0,0:0|0:0,0:0:0:0:
124,100,71202,5,8,0:0:0:0:
96,184,71352,1,0,0:0:0:0:
128,264,71502,1,0,0:0:0:0:
208,296,71652,1,0,0:0:0:0:
320,296,71802,2,4,L|428:280,1,110,4|0,0:0|0:0,0:0:0:0:
256,192,72402,12,0,74802,0:0:0:0:
368,240,76002,5,10,0:0:0:0:
396,208,76077,1,2,0:0:0:0:
400,168,76152,1,2,0:0:0:0:
360,96,76302,1,8,0:0:0:0:
284,80,76452,1,8,0:0:0:0:
208,96,76602,1,8,0:0:0:0:
136,124,76752,1,8,0:0:0:0:
64,156,76902,1,2,0:0:0:0:
436,252,77202,5,12,0:0:0:0:
464,168,77352,1,0,0:0:0:0:
444,84,77502,1,2,0:0:0:0:
364,44,77652,1,0,0:0:0:0:
136,168,77802,2,4,L|68:168,1,55,4|0,0:0|0:0,0:0:0:0:
156,220,78102,2,2,L|216:220,1,55,2|0,0:0|0:0,0:0:0:0:
68,248,78402,2,8,L|60:368,1,110,8|2,0:0|0:0,0:0:0:0:
340,344,79002,1,4,0:0:0:0:
112,288,79602,5,8,0:0:0:0:
60,216,79752,1,0,0:0:0:0:
92,132,79902,1,2,0:0:0:0:
176,104,80052,1,0,0:0:0:0:
400,188,80202,2,4,L|460:188,1,55,4|0,0:0|0:0,0:0:0:0:
356,236,80502,2,2,L|288:236,1,55,2|0,0:0|0:0,0:0:0:0:
440,264,80802,2,8,L|456:128,1,110,8|2,0:0|0:0,0:0:0:0:
240,240,81402,2,4,L|228:116,1,110,4|2,0:0|0:0,0:0:0:0:
456,260,82002,5,8,0:0:0:0:
480,176,82152,1,0,0:0:0:0:
460,92,82302,1,2,0:0:0:0:
388,40,82452,1,0,0:0:0:0:
152,104,82602,2,4,L|92:112,2,55,4|0|2,0:0|0:0|0:0,0:0:0:0:
336,164,83202,2,8,L|364:276,1,110,8|2,0:0|0:0,0:0:0:0:
136,272,83802,2,4,L|80:144,1,110,4|2,0:0|0:0,0:0:0:0:
328,248,84402,6,8,L|336:144,1,82.5,8|0,0:0|0:0,0:0:0:0:
228,144,84852,1,0,0:0:0:0:
384,244,85002,2,12,L|388:152,1,82.5,4|0,0:0|0:0,0:0:0:0:
276,132,85452,1,0,0:0:0:0:
96,172,85602,6,10,L|88:256,1,82.5,10|0,0:0|0:0,0:0:0:0:
220,252,86052,1,0,0:0:0:0:
384,256,86202,2,8,L|388:152,1,82.5,8|0,0:0|0:0,0:0:0:0:
292,144,86652,1,0,0:0:0:0:
16,268,86802,5,12,0:0:0:0:
32,180,86952,1,0,0:0:0:0:
72,104,87102,1,2,0:0:0:0:
152,64,87252,1,0,0:0:0:0:
376,88,87402,2,4,L|444:92,1,55,4|0,0:0|0:0,0:0:0:0:
328,132,87702,2,2,L|268:124,1,55,2|0,0:0|0:0,0:0:0:0:
404,152,88002,2,8,L|416:288,1,110,8|2,0:0|0:0,0:0:0:0:
184,232,88602,1,4,0:0:0:0:
428,212,89202,6,8,L|340:208,1,55,8|0,0:0|0:0,0:0:0:0:
284,204,89502,2,2,L|204:196,1,55,2|0,0:0|0:0,0:0:0:0:
444,256,89802,2,4,L|432:124,1,110,4|2,0:0|0:0,0:0:0:0:
224,100,90402,1,8,0:0:0:0:
184,176,90552,1,0,0:0:0:0:
192,264,90702,1,2,0:0:0:0:
264,312,90852,1,0,0:0:0:0:
416,308,91002,2,4,L|460:164,1,110,4|2,0:0|0:0,0:0:0:0:
76,284,91602,5,8,0:0:0:0:
28,208,91752,1,0,0:0:0:0:
24,120,91902,1,2,0:0:0:0:
76,52,92052,1,0,0:0:0:0:
308,152,92202,2,4,L|376:176,2,55,4|0|2,0:0|0:0|0:0,0:0:0:0:
136,192,92802,1,8,0:0:0:0:
104,112,92952,1,0,0:0:0:0:
144,32,93102,1,2,0:0:0:0:
232,28,93252,1,0,0:0:0:0:
400,44,93402,2,4,L|420:164,1,110,4|2,0:0|0:0,0:0:0:0:
144,204,94002,6,10,L|60:236,2,82.5,10|0|0,0:0|0:0|0:0,0:0:0:0:
288,204,94602,2,6,L|372:244,2,82.5,6|0|0,0:0|0:0|0:0,0:0:0:0:
144,168,95202,2,10,L|144:64,1,82.5,10|0,0:0|0:0,0:0:0:0:
256,84,95652,1,0,0:0:0:0:
392,72,95802,6,10,L|428:64,2,27.5,10|2|2,0:0|0:0|0:0,0:0:0:0:
296,96,96102,1,8,0:0:0:0:
200,120,96252,1,8,0:0:0:0:
452,256,96402,5,12,0:0:0:0:
484,176,96552,1,0,0:0:0:0:
464,92,96702,1,2,0:0:0:0:
384,56,96852,1,0,0:0:0:0:
152,160,97002,2,4,L|92:164,1,55,4|0,0:0|0:0,0:0:0:0:
204,204,97302,2,2,L|264:200,1,55,2|0,0:0|0:0,0:0:0:0:
124,256,97602,5,8,0:0:0:0:
76,184,97752,1,0,0:0:0:0:
88,96,97902,1,2,0:0:0:0:
160,44,98052,1,0,0:0:0:0:
308,92,98202,2,4,L|376:112,1,55,4|0,0:0|0:0,0:0:0:0:
268,160,98502,2,2,L|260:228,1,55,2|0,0:0|0:0,0:0:0:0:
408,248,98802,6,8,L|432:188,3,55,8|0|2|0,0:0|0:0|0:0|0:0,0:0:0:0:
212,180,99402,2,4,L|132:168,1,55,4|0,0:0|0:0,0:0:0:0:
256,156,99702,2,2,L|316:164,1,55,2|0,0:0|0:0,0:0:0:0:
180,144,100002,5,8,0:0:0:0:
144,224,100152,1,0,0:0:0:0:
164,312,100302,1,2,0:0:0:0:
244,348,100452,1,0,0:0:0:0:
416,312,100602,2,4,L|420:244,1,55,4|0,0:0|0:0,0:0:0:0:
320,232,100902,2,2,L|316:172,1,55,2|0,0:0|0:0,0:0:0:0:
472,148,101202,5,8,0:0:0:0:
496,232,101352,1,0,0:0:0:0:
476,316,101502,1,2,0:0:0:0:
396,356,101652,1,0,0:0:0:0:
164,312,101802,2,4,L|96:304,1,55,4|0,0:0|0:0,0:0:0:0:
208,276,102102,2,2,L|272:272,1,55,2|0,0:0|0:0,0:0:0:0:
152,240,102402,5,8,0:0:0:0:
92,176,102552,1,0,0:0:0:0:
88,88,102702,1,2,0:0:0:0:
148,24,102852,1,0,0:0:0:0:
304,68,103002,2,4,L|368:76,1,55,4|0,0:0|0:0,0:0:0:0:
292,140,103302,1,2,0:0:0:0:
104,212,103602,6,10,L|80:292,1,82.5,10|0,0:0|0:0,0:0:0:0:
184,296,104052,1,0,0:0:0:0:
352,256,104202,2,6,L|376:348,1,82.5,6|0,0:0|0:0,0:0:0:0:
272,340,104652,1,0,0:0:0:0:
124,232,104802,6,10,L|148:144,1,82.5,10|0,0:0|0:0,0:0:0:0:
248,156,105252,1,0,0:0:0:0:
412,152,105402,2,6,L|408:60,1,82.5,6|0,0:0|0:0,0:0:0:0:
296,56,105852,1,0,0:0:0:0:
60,160,106002,6,12,L|48:100,3,55,12|0|2|0,0:0|0:0|0:0|0:0,0:0:0:0:
304,184,106602,1,4,0:0:0:0:
392,144,106752,1,0,0:0:0:0:
408,44,106902,1,2,0:0:0:0:
320,36,107052,1,0,0:0:0:0:
192,104,107202,6,8,L|276:104,1,55,8|0,0:0|0:0,0:0:0:0:
360,172,107502,2,2,L|424:172,1,55,2|0,0:0|0:0,0:0:0:0:
164,268,107802,2,4,L|156:144,1,110,4|0,0:0|0:0,0:0:0:0:
336,156,108402,6,8,L|256:156,1,55,8|0,0:0|0:0,0:0:0:0:
192,160,108702,2,2,L|120:160,1,55,2|0,0:0|0:0,0:0:0:0:
408,288,109002,1,4,0:0:0:0:
468,224,109152,1,0,0:0:0:0:
476,136,109302,1,2,0:0:0:0:
420,68,109452,1,0,0:0:0:0:
248,80,109602,2,8,L|184:84,2,55,8|0|2,0:0|0:0|0:0,0:0:0:0:
460,184,110202,2,4,L|468:316,1,110,4|2,0:0|0:0,0:0:0:0:
72,292,110802,5,8,0:0:0:0:
40,212,110952,1,0,0:0:0:0:
68,128,111102,1,2,0:0:0:0:
148,96,111252,1,0,0:0:0:0:
372,172,111402,2,4,L|440:160,1,55,4|0,0:0|0:0,0:0:0:0:
328,224,111702,2,2,L|272:236,1,55,2|0,0:0|0:0,0:0:0:0:
412,232,112002,2,8,L|420:360,1,110,8|2,0:0|0:0,0:0:0:0:
144,228,112602,2,4,L|136:356,1,110,4|2,0:0|0:0,0:0:0:0:
256,192,113202,12,2,115602,0:0:0:0:
