osu file format v14

[General]
AudioFilename: audio.mp3
AudioLeadIn: 0
PreviewTime: 76602
Countdown: 0
SampleSet: Soft
StackLeniency: 0.7
Mode: 2
LetterboxInBreaks: 0
WidescreenStoryboard: 0

[Editor]
Bookmarks: 96402
DistanceSpacing: 1.5
BeatDivisor: 8
GridSize: 4
TimelineZoom: 1

[Metadata]
Title:Shelter
TitleUnicode:Shelter
Artist:Porter Robinson & Madeon
ArtistUnicode:Porter Robinson & Madeon
Creator:Myle
Version:Escape
Source:Shelter
Tags:a-1 pictures crunchyroll edm electronic dance music cut short version
BeatmapID:1137697
BeatmapSetID:536749

[Difficulty]
HPDrainRate:7
CircleSize:4
OverallDifficulty:9
ApproachRate:9
SliderMultiplier:2.5
SliderTickRate:2

[Events]
//Background and Video events
0,0,"BG.png",0,0
//Break Periods
2,39002,42402
2,58202,67002
//Storyboard Layer 0 (Background)
//Storyboard Layer 1 (Fail)
//Storyboard Layer 2 (Pass)
//Storyboard Layer 3 (Foreground)
//Storyboard Sound Samples

[TimingPoints]
402,600,4,2,1,30,1,0
10002,-100,4,2,1,40,0,0
19602,-100,4,2,1,50,0,1
38202,-100,4,2,1,30,0,0
43002,-100,4,2,1,30,0,0
47802,-100,4,2,1,45,0,0
48402,-100,4,2,1,40,0,0
57402,-100,4,2,1,45,0,0
67602,-100,4,2,1,30,0,0
76002,-100,4,2,1,45,0,0
77202,-100,4,2,1,50,0,1
94002,-100,4,2,1,40,0,0
95802,-100,4,2,1,45,0,0
96402,-100,4,2,1,50,0,1
113202,-100,4,2,1,45,0,0
113802,-100,4,2,1,40,0,0
114402,-100,4,2,1,35,0,0
115002,-100,4,2,1,30,0,0
115602,-100,4,2,1,20,0,0

[Colours]
Combo1 : 255,128,255
Combo2 : 0,206,206
Combo3 : 72,164,255

[HitObjects]
384,200,402,5,2,0:0:0:0:
104,196,1002,2,0,L|24:180,1,62.5,2|0,0:0|0:0,0:0:0:0:
224,220,1452,2,0,P|300:192|208:96,1,250,2|0,0:0|0:0,0:0:0:0:
160,92,2202,1,2,0:0:0:0:
456,120,2802,5,2,0:0:0:0:
204,112,3402,1,2,0:0:0:0:
152,192,3552,1,0,0:0:0:0:
344,284,3852,2,2,P|400:224|312:80,1,250,2|0,0:0|0:0,0:0:0:0:
192,100,4602,2,2,L|304:20,1,125
80,64,5202,6,0,P|24:144|136:208,1,250,2|2,0:0|0:0,0:0:0:0:
236,200,5952,1,0,0:0:0:0:
152,184,6102,1,0,0:0:0:0:
292,144,6252,2,2,P|364:232|240:348,1,312.5
104,292,7302,1,0,0:0:0:0:
324,244,7602,6,0,L|232:268,2,93.75,2|0|0,0:0|0:0|0:0,0:0:0:0:
224,216,8202,2,0,L|328:236,2,93.75,2|0|0,0:0|0:0|0:0,0:0:0:0:
328,184,8802,2,0,L|220:224,2,93.75,2|0|0,0:0|0:0|0:0,0:0:0:0:
56,160,9402,2,0,L|152:200,2,93.75,2|0|0,0:0|0:0|0:0,0:0:0:0:
388,80,10002,5,8,0:0:0:0:
440,160,10152,1,0,0:0:0:0:
440,252,10302,1,2,0:0:0:0:
380,324,10452,1,0,0:0:0:0:
144,288,10602,2,0,L|220:256,1,62.5,4|0,0:0|0:0,0:0:0:0:
304,248,10902,2,0,L|376:220,1,62.5,2|0,0:0|0:0,0:0:0:0:
236,208,11202,5,8,0:0:0:0:
144,184,11352,1,0,0:0:0:0:
76,160,11502,1,2,0:0:0:0:
144,144,11652,1,0,0:0:0:0:
408,308,11802,1,4,0:0:0:0:
320,276,11952,1,0,0:0:0:0:
236,232,12102,2,2,L|189:190,1,62.5,2|0,0:0|0:0,0:0:0:0:
448,68,12402,5,8,0:0:0:0:
476,156,12552,1,0,0:0:0:0:
452,248,12702,1,2,0:0:0:0:
380,304,12852,1,0,0:0:0:0:
132,268,13002,2,0,L|60:264,2,62.5,4|0|2,0:0|0:0|0:0,0:0:0:0:
224,280,13452,1,0,0:0:0:0:
456,228,13602,6,0,L|472:140,1,62.5,8|0,0:0|0:0,0:0:0:0:
336,152,13902,2,0,L|324:88,1,62.5,2|0,0:0|0:0,0:0:0:0:
84,208,14202,2,0,L|264:208,1,125,4|2,0:0|0:0,0:0:0:0:
108,280,14802,5,8,0:0:0:0:
44,212,14952,1,0,0:0:0:0:
48,120,15102,1,2,0:0:0:0:
124,68,15252,1,0,0:0:0:0:
360,112,15402,2,0,L|296:140,1,62.5,4|0,0:0|0:0,0:0:0:0:
400,152,15702,2,0,L|388:224,1,62.5,2|0,0:0|0:0,0:0:0:0:
112,288,16002,1,8,0:0:0:0:
52,216,16152,1,0,0:0:0:0:
88,128,16302,1,2,0:0:0:0:
180,116,16452,1,0,0:0:0:0:
452,132,16602,2,0,L|476:272,1,125,4|0,0:0|0:0,0:0:0:0:
264,216,17202,6,0,L|296:332,1,93.75,10|0,0:0|0:0,0:0:0:0:
432,320,17652,1,0,0:0:0:0:
216,200,17802,2,0,L|244:316,1,93.75,10|0,0:0|0:0,0:0:0:0:
368,256,18252,1,0,0:0:0:0:
160,172,18402,2,0,L|192:288,1,93.75,10|0,0:0|0:0,0:0:0:0:
344,228,18852,1,0,0:0:0:0:
80,192,19002,5,4,0:0:0:0:
216,160,19152,2,0,L|344:140,1,125,8|0,0:0|0:0,0:0:0:0:
116,316,19602,5,12,0:0:0:0:
84,284,19677,1,0,0:0:0:0:
60,240,19752,1,0,0:0:0:0:
48,196,19827,1,0,0:0:0:0:
52,148,19902,1,2,0:0:0:0:
68,104,19977,1,0,0:0:0:0:
96,68,20052,1,0,0:0:0:0:
136,44,20127,1,0,0:0:0:0:
376,176,20202,6,0,L|440:196,1,62.5,4|0,0:0|0:0,0:0:0:0:
184,208,20502,2,0,L|116:220,1,62.5,2|0,0:0|0:0,0:0:0:0:
412,308,20802,1,8,0:0:0:0:
456,228,20952,1,0,0:0:0:0:
448,136,21102,1,2,0:0:0:0:
380,68,21252,1,0,0:0:0:0:
72,188,21402,2,6,L|212:176,1,125,4|2,0:0|0:0,0:0:0:0:
384,168,22002,5,8,0:0:0:0:
348,140,22077,1,0,0:0:0:0:
344,92,22152,1,0,0:0:0:0:
380,60,22227,1,0,0:0:0:0:
428,64,22302,1,2,0:0:0:0:
464,96,22377,1,0,0:0:0:0:
456,144,22452,1,0,0:0:0:0:
416,164,22527,1,0,0:0:0:0:
124,136,22602,6,0,L|60:128,2,62.5,4|0|2,0:0|0:0|0:0,0:0:0:0:
216,148,23052,1,0,0:0:0:0:
452,216,23202,1,8,0:0:0:0:
456,308,23352,1,0,0:0:0:0:
396,380,23502,1,2,0:0:0:0:
304,384,23652,1,0,0:0:0:0:
52,304,23802,2,0,L|24:152,1,125,8|2,0:0|0:0,0:0:0:0:
420,268,24402,5,8,0:0:0:0:
456,236,24477,1,0,0:0:0:0:
476,192,24552,1,0,0:0:0:0:
480,144,24627,1,0,0:0:0:0:
472,96,24702,1,2,0:0:0:0:
448,56,24777,1,0,0:0:0:0:
416,24,24852,1,0,0:0:0:0:
372,12,24927,1,0,0:0:0:0:
88,160,25002,6,0,L|132:112,1,62.5,4|0,0:0|0:0,0:0:0:0:
380,192,25302,2,0,L|308:196,1,62.5,2|0,0:0|0:0,0:0:0:0:
76,244,25602,2,0,L|216:264,1,125,8|0,0:0|0:0,0:0:0:0:
28,184,26202,1,4,0:0:0:0:
264,252,26502,1,2,0:0:0:0:
112,156,26802,5,8,0:0:0:0:
212,144,27027,1,0,0:0:0:0:
312,132,27252,1,0,0:0:0:0:
16,236,27402,1,4,0:0:0:0:
140,220,27627,1,0,0:0:0:0:
56,192,27852,1,0,0:0:0:0:
344,156,28002,5,8,0:0:0:0:
244,144,28227,1,0,0:0:0:0:
144,132,28452,1,0,0:0:0:0:
448,220,28602,1,4,0:0:0:0:
320,196,28827,1,0,0:0:0:0:
404,168,29052,1,0,0:0:0:0:
72,300,29202,5,12,0:0:0:0:
48,260,29277,1,0,0:0:0:0:
36,216,29352,1,0,0:0:0:0:
36,168,29427,1,0,0:0:0:0:
48,124,29502,1,2,0:0:0:0:
72,84,29577,1,0,0:0:0:0:
112,56,29652,1,0,0:0:0:0:
156,44,29727,1,0,0:0:0:0:
428,136,29802,6,2,L|360:160,1,62.5,4|0,0:0|0:0,0:0:0:0:
116,204,30102,2,0,L|192:224,1,62.5,2|0,0:0|0:0,0:0:0:0:
448,280,30402,1,8,0:0:0:0:
392,204,30552,1,0,0:0:0:0:
388,112,30702,1,2,0:0:0:0:
436,32,30852,1,0,0:0:0:0:
144,140,31002,2,0,L|32:204,1,125,4|2,0:0|0:0,0:0:0:0:
424,272,31602,5,8,0:0:0:0:
460,240,31677,1,0,0:0:0:0:
472,196,31752,1,0,0:0:0:0:
468,148,31827,1,0,0:0:0:0:
452,104,31902,1,2,0:0:0:0:
420,72,31977,1,0,0:0:0:0:
376,52,32052,1,0,0:0:0:0:
332,44,32127,1,0,0:0:0:0:
124,144,32202,6,0,L|56:160,1,62.5,4|0,0:0|0:0,0:0:0:0:
120,248,32502,1,2,0:0:0:0:
212,288,32652,1,0,0:0:0:0:
464,224,32802,1,8,0:0:0:0:
460,132,32952,1,0,0:0:0:0:
400,60,33102,1,2,0:0:0:0:
308,60,33252,1,0,0:0:0:0:
64,176,33402,2,0,L|208:188,1,125,4|2,0:0|0:0,0:0:0:0:
376,188,34002,5,8,0:0:0:0:
344,224,34077,1,0,0:0:0:0:
336,272,34152,1,0,0:0:0:0:
364,312,34227,1,0,0:0:0:0:
412,312,34302,1,2,0:0:0:0:
444,276,34377,1,0,0:0:0:0:
444,228,34452,1,0,0:0:0:0:
408,200,34527,1,0,0:0:0:0:
192,192,34602,6,0,L|84:172,1,62.5,4|0,0:0|0:0,0:0:0:0:
380,144,34902,2,0,L|440:128,1,62.5,2|0,0:0|0:0,0:0:0:0:
128,24,35202,1,8,0:0:0:0:
64,92,35352,1,0,0:0:0:0:
72,184,35502,1,2,0:0:0:0:
144,244,35652,1,0,0:0:0:0:
356,256,35802,2,4,L|496:244,1,125,4|2,0:0|0:0,0:0:0:0:
188,228,36402,6,0,L|84:216,2,93.75,10|0|0,0:0|0:0|0:0,0:0:0:0:
324,228,37002,2,0,L|432:216,2,93.75,6|0|0,0:0|0:0|0:0,0:0:0:0:
164,176,37602,2,0,L|96:96,2,93.75,10|0|0,0:0|0:0|0:0,0:0:0:0:
348,176,38202,2,2,L|416:96,2,93.75
48,176,38802,5,10,0:0:0:0:
260,288,43002,5,4,0:0:0:0:
348,168,43152,1,0,0:0:0:0:
420,48,43302,1,0,0:0:0:0:
172,44,43602,5,8,0:0:0:0:
128,128,43752,1,0,0:0:0:0:
116,220,43902,1,0,0:0:0:0:
176,292,44052,1,0,0:0:0:0:
404,280,44202,2,0,L|468:264,2,62.5,4|0|2,0:0|0:0|0:0,0:0:0:0:
312,284,44652,1,2,0:0:0:0:
156,276,44802,5,8,0:0:0:0:
96,204,44952,1,0,0:0:0:0:
224,184,45102,1,0,0:0:0:0:
260,96,45252,1,0,0:0:0:0:
36,116,45402,2,0,L|80:52,1,62.5,4|0,0:0|0:0,0:0:0:0:
192,64,45702,2,0,L|232:8,1,62.5
476,140,46002,6,0,P|480:180|408:252,1,125,8|0,0:0|0:0,0:0:0:0:
20,200,46602,2,0,L|112:300,1,125,4|0,0:0|0:0,0:0:0:0:
200,292,47052,1,2,0:0:0:0:
368,292,47202,2,8,L|480:208,1,125
104,112,47802,5,10,0:0:0:0:
96,156,47877,1,2,0:0:0:0:
88,200,47952,1,2,0:0:0:0:
396,180,48102,2,8,L|472:176,1,62.5
180,120,48402,6,0,P|140:192|208:260,1,187.5,8|0,0:0|0:0,0:0:0:0:
416,240,49002,2,0,L|500:232,2,62.5,4|0|0,0:0|0:0|0:0,0:0:0:0:
324,228,49452,1,0,0:0:0:0:
48,224,49602,2,0,L|24:92,1,125,8|0,0:0|0:0,0:0:0:0:
316,72,50202,2,0,L|176:48,1,125,4|0,0:0|0:0,0:0:0:0:
360,180,50802,5,8,0:0:0:0:
452,180,50952,1,2,0:0:0:0:
464,224,51027,1,2,0:0:0:0:
464,272,51102,1,2,0:0:0:0:
452,316,51177,1,2,0:0:0:0:
432,360,51252,1,2,0:0:0:0:
392,380,51327,1,2,0:0:0:0:
156,280,51402,6,0,L|88:264,1,62.5,4|0,0:0|0:0,0:0:0:0:
316,224,51702,2,0,L|388:208,1,62.5,2|0,0:0|0:0,0:0:0:0:
124,112,52002,2,0,L|16:196,1,125,8|0,0:0|0:0,0:0:0:0:
300,292,52602,1,4,0:0:0:0:
400,224,52752,1,0,0:0:0:0:
416,104,52902,1,0,0:0:0:0:
308,56,53052,1,0,0:0:0:0:
88,60,53202,5,8,0:0:0:0:
180,64,53352,1,2,0:0:0:0:
204,104,53427,1,2,0:0:0:0:
212,152,53502,1,2,0:0:0:0:
208,200,53577,1,2,0:0:0:0:
196,244,53652,1,2,0:0:0:0:
168,280,53727,1,2,0:0:0:0:
16,216,53802,6,0,L|84:200,1,62.5,4|0,0:0|0:0,0:0:0:0:
152,156,54102,2,0,L|64:132,1,62.5,2|0,0:0|0:0,0:0:0:0:
384,120,54402,1,8,0:0:0:0:
460,176,54552,1,0,0:0:0:0:
400,248,54702,1,0,0:0:0:0:
308,260,54852,1,0,0:0:0:0:
88,248,55002,1,6,0:0:0:0:
40,168,55152,1,0,0:0:0:0:
120,120,55302,1,0,0:0:0:0:
212,108,55452,1,0,0:0:0:0:
444,156,55602,5,8,0:0:0:0:
352,176,55752,2,2,L|336:148,5,31.25
160,288,56202,5,4,0:0:0:0:
80,240,56352,1,0,0:0:0:0:
76,148,56502,1,0,0:0:0:0:
152,92,56652,1,0,0:0:0:0:
360,180,56802,2,0,L|496:208,1,125,8|0,0:0|0:0,0:0:0:0:
40,212,57402,6,2,L|40:176,2,31.25,10|2|2,0:0|0:0|0:0,0:0:0:0:
256,184,57702,2,8,L|256:120,1,62.5
472,212,58002,1,0,0:0:0:0:
384,164,67602,6,0,L|432:116,3,62.5,8|0|0|0,0:0|0:0|0:0|0:0,0:0:0:0:
204,160,68202,2,0,L|156:112,3,62.5,4|0|0|0,0:0|0:0|0:0|0:0,0:0:0:0:
408,112,68802,5,8,0:0:0:0:
456,192,68952,1,0,0:0:0:0:
436,284,69102,1,0,0:0:0:0:
356,332,69252,1,0,0:0:0:0:
96,88,69402,1,4,0:0:0:0:
164,152,69552,1,0,0:0:0:0:
236,208,69702,1,0,0:0:0:0:
308,268,69852,1,0,0:0:0:0:
88,280,70002,6,0,L|16:264,1,62.5,8|0,0:0|0:0,0:0:0:0:
144,248,70302,2,0,L|220:232,1,62.5
424,280,70602,6,0,L|496:264,1,62.5,4|0,0:0|0:0,0:0:0:0:
368,248,70902,2,0,L|292:232,1,62.5
40,212,71202,6,0,L|56:136,1,62.5,8|0,0:0|0:0,0:0:0:0:
148,140,71502,2,0,L|200:96,1,62.5
472,212,71802,6,0,L|456:136,1,62.5,4|0,0:0|0:0,0:0:0:0:
364,140,72102,2,0,L|312:96,1,62.5
256,192,72402,12,0,74802,0:0:0:0:
424,128,76002,5,10,0:0:0:0:
440,172,76077,1,2,0:0:0:0:
456,216,76152,1,2,0:0:0:0:
128,192,76302,2,8,L|48:184,1,62.5
288,152,76602,2,8,L|360:136,1,62.5
188,92,76902,1,2,0:0:0:0:
389,58,77202,5,12,0:0:0:0:
417,94,77277,1,0,0:0:0:0:
429,138,77352,1,0,0:0:0:0:
433,186,77427,1,0,0:0:0:0:
425,234,77502,1,2,0:0:0:0:
409,278,77577,1,0,0:0:0:0:
381,314,77652,1,0,0:0:0:0:
341,338,77727,1,0,0:0:0:0:
68,256,77802,6,0,L|-12:240,1,62.5,4|0,0:0|0:0,0:0:0:0:
308,236,78102,2,0,L|384:224,1,62.5,2|0,0:0|0:0,0:0:0:0:
152,208,78402,1,8,0:0:0:0:
128,116,78552,1,0,0:0:0:0:
184,40,78702,1,2,0:0:0:0:
288,28,78852,1,0,0:0:0:0:
44,164,79002,2,0,L|192:208,1,125,4|2,0:0|0:0,0:0:0:0:
344,248,79602,5,8,0:0:0:0:
384,224,79677,1,0,0:0:0:0:
416,192,79752,1,0,0:0:0:0:
428,148,79827,1,0,0:0:0:0:
428,100,79902,1,2,0:0:0:0:
412,56,79977,1,0,0:0:0:0:
376,24,80052,1,0,0:0:0:0:
332,12,80127,1,0,0:0:0:0:
164,148,80202,6,0,L|100:152,1,62.5,4|0,0:0|0:0,0:0:0:0:
420,208,80502,2,0,L|448:276,1,62.5,2|0,0:0|0:0,0:0:0:0:
172,276,80802,2,0,L|28:272,1,125,8|2,0:0|0:0,0:0:0:0:
412,140,81402,2,0,L|468:280,1,125,4|2,0:0|0:0,0:0:0:0:
56,44,82002,5,8,0:0:0:0:
40,88,82077,1,0,0:0:0:0:
32,132,82152,1,0,0:0:0:0:
28,180,82227,1,0,0:0:0:0:
32,228,82302,1,2,0:0:0:0:
40,276,82377,1,0,0:0:0:0:
56,320,82452,1,0,0:0:0:0:
88,356,82527,1,0,0:0:0:0:
332,296,82602,6,0,L|416:288,2,62.5,4|0|2,0:0|0:0|0:0,0:0:0:0:
252,296,83052,1,0,0:0:0:0:
16,248,83202,1,8,0:0:0:0:
20,156,83352,1,0,0:0:0:0:
92,104,83502,1,2,0:0:0:0:
180,68,83652,1,0,0:0:0:0:
496,80,83802,1,4,0:0:0:0:
316,128,84102,1,2,0:0:0:0:
120,188,84402,6,0,L|32:148,2,93.75,8|0|0,0:0|0:0|0:0,0:0:0:0:
244,188,85002,2,0,L|332:148,2,93.75,12|0|0,0:0|0:0|0:0,0:0:0:0:
408,108,85602,2,0,L|504:164,2,93.75,10|0|0,0:0|0:0|0:0,0:0:0:0:
136,180,86202,2,0,L|44:136,2,93.75,8|0|0,0:0|0:0|0:0,0:0:0:0:
432,72,86802,5,12,0:0:0:0:
460,112,86877,1,0,0:0:0:0:
476,156,86952,1,0,0:0:0:0:
480,204,87027,1,0,0:0:0:0:
476,252,87102,1,2,0:0:0:0:
464,296,87177,1,0,0:0:0:0:
444,340,87252,1,0,0:0:0:0:
400,360,87327,1,0,0:0:0:0:
192,180,87402,6,0,L|128:172,1,62.5,4|0,0:0|0:0,0:0:0:0:
340,136,87702,2,0,L|408:124,1,62.5,2|0,0:0|0:0,0:0:0:0:
172,248,88002,2,0,L|28:280,2,125,8|2|4,0:0|0:0|0:0,0:0:0:0:
356,212,88902,1,2,0:0:0:0:
168,232,89202,5,8,0:0:0:0:
132,200,89277,1,0,0:0:0:0:
116,156,89352,1,0,0:0:0:0:
116,108,89427,1,0,0:0:0:0:
128,64,89502,1,2,0:0:0:0:
156,24,89577,1,0,0:0:0:0:
200,8,89652,1,0,0:0:0:0:
248,4,89727,1,0,0:0:0:0:
464,132,89802,6,0,L|432:216,1,62.5,4|0,0:0|0:0,0:0:0:0:
340,216,90102,1,2,0:0:0:0:
232,216,90252,1,0,0:0:0:0:
460,140,90402,1,8,0:0:0:0:
492,228,90552,1,0,0:0:0:0:
468,320,90702,1,2,0:0:0:0:
388,368,90852,1,0,0:0:0:0:
100,232,91002,2,0,P|88:164|108:168,1,125,4|2,0:0|0:0,0:0:0:0:
268,288,91602,5,8,0:0:0:0:
244,248,91677,1,0,0:0:0:0:
228,204,91752,1,0,0:0:0:0:
224,156,91827,1,0,0:0:0:0:
228,108,91902,1,2,0:0:0:0:
244,64,91977,1,0,0:0:0:0:
268,24,92052,1,0,0:0:0:0:
308,0,92127,1,0,0:0:0:0:
448,144,92202,6,0,L|476:224,1,62.5,4|0,0:0|0:0,0:0:0:0:
376,220,92502,2,0,L|360:304,1,62.5,2|0,0:0|0:0,0:0:0:0:
84,288,92802,1,8,0:0:0:0:
40,208,92952,1,0,0:0:0:0:
76,120,93102,1,2,0:0:0:0:
168,104,93252,1,0,0:0:0:0:
416,140,93402,2,0,P|404:176|280:192,1,125,4|2,0:0|0:0,0:0:0:0:
140,200,94002,6,0,L|108:292,1,93.75,10|0,0:0|0:0,0:0:0:0:
240,288,94452,1,0,0:0:0:0:
396,196,94602,2,0,L|432:288,1,93.75,6|0,0:0|0:0,0:0:0:0:
300,284,95052,1,0,0:0:0:0:
56,176,95202,2,0,L|24:272,1,93.75,10|0,0:0|0:0,0:0:0:0:
152,264,95652,1,0,0:0:0:0:
424,224,95802,6,2,L|460:224,2,31.25,10|2|2,0:0|0:0|0:0,0:0:0:0:
140,184,96102,2,8,L|68:184,1,62.5
412,296,96402,5,12,0:0:0:0:
448,264,96477,1,0,0:0:0:0:
468,220,96552,1,0,0:0:0:0:
468,172,96627,1,0,0:0:0:0:
460,128,96702,1,2,0:0:0:0:
440,88,96777,1,0,0:0:0:0:
412,52,96852,1,0,0:0:0:0:
372,32,96927,1,0,0:0:0:0:
160,148,97002,6,0,L|80:148,1,62.5,4|0,0:0|0:0,0:0:0:0:
336,232,97302,2,0,L|408:232,1,62.5,2|0,0:0|0:0,0:0:0:0:
120,200,97602,1,8,0:0:0:0:
76,120,97752,1,0,0:0:0:0:
124,40,97902,1,2,0:0:0:0:
216,36,98052,1,0,0:0:0:0:
464,244,98202,1,4,0:0:0:0:
396,180,98352,1,0,0:0:0:0:
180,160,98502,1,2,0:0:0:0:
256,92,98652,1,0,0:0:0:0:
472,124,98802,6,0,L|488:88,7,31.25,8|0|0|0|2|0|0|0,0:0|0:0|0:0|0:0|0:0|0:0|0:0|0:0,0:0:0:0:
208,176,99402,6,0,L|124:160,1,62.5,4|0,0:0|0:0,0:0:0:0:
388,220,99702,2,0,L|480:212,1,62.5,2|0,0:0|0:0,0:0:0:0:
232,248,100002,5,8,0:0:0:0:
196,164,100152,1,0,0:0:0:0:
248,88,100302,1,2,0:0:0:0:
340,64,100452,1,0,0:0:0:0:
68,80,100602,1,4,0:0:0:0:
36,168,100752,1,0,0:0:0:0:
64,260,100902,1,2,0:0:0:0:
140,312,101052,1,0,0:0:0:0:
380,312,101202,5,8,0:0:0:0:
420,284,101277,1,0,0:0:0:0:
436,240,101352,1,0,0:0:0:0:
444,192,101427,1,0,0:0:0:0:
432,148,101502,1,2,0:0:0:0:
412,104,101577,1,0,0:0:0:0:
384,68,101652,1,0,0:0:0:0:
340,48,101727,1,0,0:0:0:0:
136,132,101802,6,0,L|68:132,2,62.5,4|0|2,0:0|0:0|0:0,0:0:0:0:
228,132,102252,1,0,0:0:0:0:
472,184,102402,2,0,L|480:264,1,62.5,8|0,0:0|0:0,0:0:0:0:
356,256,102702,2,0,L|360:340,1,62.5,2|0,0:0|0:0,0:0:0:0:
112,216,103002,2,0,L|72:360,1,125,4|2,0:0|0:0,0:0:0:0:
256,284,103602,5,10,0:0:0:0:
368,216,103827,1,0,0:0:0:0:
416,100,104052,1,0,0:0:0:0:
256,84,104202,1,6,0:0:0:0:
152,148,104427,1,0,0:0:0:0:
108,268,104652,1,0,0:0:0:0:
284,284,104802,5,10,0:0:0:0:
392,220,105027,1,0,0:0:0:0:
432,100,105252,1,0,0:0:0:0:
152,164,105402,1,6,0:0:0:0:
272,132,105627,1,0,0:0:0:0:
396,104,105852,1,0,0:0:0:0:
104,48,106002,5,12,0:0:0:0:
72,84,106077,1,0,0:0:0:0:
76,132,106152,1,0,0:0:0:0:
116,156,106227,1,0,0:0:0:0:
156,180,106302,1,2,0:0:0:0:
168,224,106377,1,0,0:0:0:0:
156,268,106452,1,0,0:0:0:0:
120,300,106527,1,0,0:0:0:0:
360,156,106602,6,0,L|436:172,1,62.5,4|0,0:0|0:0,0:0:0:0:
104,236,106902,2,0,L|176:240,1,62.5,2|0,0:0|0:0,0:0:0:0:
400,296,107202,1,8,0:0:0:0:
460,224,107352,1,0,0:0:0:0:
456,132,107502,1,2,0:0:0:0:
388,68,107652,1,0,0:0:0:0:
52,164,107802,2,0,L|20:304,1,125,4|2,0:0|0:0,0:0:0:0:
392,332,108402,5,8,0:0:0:0:
424,296,108477,1,0,0:0:0:0:
440,252,108552,1,0,0:0:0:0:
448,204,108627,1,0,0:0:0:0:
448,156,108702,1,2,0:0:0:0:
440,108,108777,1,0,0:0:0:0:
424,64,108852,1,0,0:0:0:0:
392,28,108927,1,0,0:0:0:0:
96,172,109002,6,0,L|24:160,2,62.5,4|0|2,0:0|0:0|0:0,0:0:0:0:
188,196,109452,1,0,0:0:0:0:
424,236,109602,1,8,0:0:0:0:
480,160,109752,1,0,0:0:0:0:
456,68,109902,1,2,0:0:0:0:
372,32,110052,1,0,0:0:0:0:
128,152,110202,2,0,P|88:200|136:212,1,125,4|2,0:0|0:0,0:0:0:0:
352,292,110802,5,8,0:0:0:0:
388,264,110877,1,0,0:0:0:0:
408,220,110952,1,0,0:0:0:0:
408,172,111027,1,0,0:0:0:0:
396,128,111102,1,2,0:0:0:0:
368,92,111177,1,0,0:0:0:0:
328,68,111252,1,0,0:0:0:0:
280,64,111327,1,0,0:0:0:0:
80,156,111402,6,0,L|52:236,1,62.5,4|0,0:0|0:0,0:0:0:0:
152,224,111702,2,0,L|180:308,1,62.5,2|0,0:0|0:0,0:0:0:0:
440,280,112002,1,8,0:0:0:0:
480,196,112152,1,0,0:0:0:0:
444,112,112302,1,2,0:0:0:0:
352,92,112452,1,0,0:0:0:0:
80,144,112602,2,0,P|40:196|96:236,1,125,4|2,0:0|0:0,0:0:0:0:
256,192,113202,12,2,115602,0:0:0:0:
