osu file format v14

[General]
AudioFilename: audio.mp3
AudioLeadIn: 0
PreviewTime: 76602
Countdown: 0
SampleSet: Soft
StackLeniency: 0.7
Mode: 2
LetterboxInBreaks: 0
WidescreenStoryboard: 0

[Editor]
DistanceSpacing: 1.5
BeatDivisor: 8
GridSize: 4
TimelineZoom: 1

[Metadata]
Title:Shelter
TitleUnicode:Shelter
Artist:Porter Robinson & Madeon
ArtistUnicode:Porter Robinson & Madeon
Creator:Myle
Version:Cup
Source:Shelter
Tags:a-1 pictures crunchyroll edm electronic dance music cut short version
BeatmapID:1137696
BeatmapSetID:536749

[Difficulty]
HPDrainRate:4
CircleSize:2.5
OverallDifficulty:6
ApproachRate:6
SliderMultiplier:1.5
SliderTickRate:1

[Events]
//Background and Video events
0,0,"BG.png",0,0
//Break Periods
2,39002,41952
2,58202,66552
//Storyboard Layer 0 (Background)
//Storyboard Layer 1 (Fail)
//Storyboard Layer 2 (Pass)
//Storyboard Layer 3 (Foreground)
//Storyboard Sound Samples

[TimingPoints]
402,600,4,2,1,30,1,0
10002,-100,4,2,1,40,0,0
19602,-100,4,2,1,50,0,1
38202,-100,4,2,1,30,0,0
43002,-100,4,2,1,30,0,0
47802,-100,4,2,1,45,0,0
48402,-100,4,2,1,40,0,0
57402,-100,4,2,1,45,0,0
67602,-100,4,2,1,30,0,0
76002,-100,4,2,1,45,0,0
77202,-100,4,2,1,50,0,1
94002,-100,4,2,1,40,0,0
95802,-100,4,2,1,45,0,0
96402,-100,4,2,1,50,0,1
113202,-100,4,2,1,45,0,0
113802,-100,4,2,1,40,0,0
114402,-100,4,2,1,35,0,0
115002,-100,4,2,1,30,0,0
115602,-100,4,2,1,20,0,0

[Colours]
Combo1 : 255,128,255
Combo2 : 0,206,206
Combo3 : 72,164,255

[HitObjects]
272,224,402,6,2,P|324:188|196:76,1,300
356,64,2202,1,2,0:0:0:0:
144,140,2802,6,2,L|56:284,1,150,2|2,0:0|0:0,0:0:0:0:
244,272,4002,2,2,L|300:116,1,150
208,88,4902,1,2,0:0:0:0:
312,84,5202,6,0,L|468:84,1,150,2|2,0:0|0:0,0:0:0:0:
288,136,6402,2,2,L|120:140,1,150
236,144,7302,1,0,0:0:0:0:
336,144,7602,6,2,P|380:160|320:212,1,150,2|2,0:0|0:0,0:0:0:0:
172,140,8802,2,2,P|128:156|188:208,1,150,2|2,0:0|0:0,0:0:0:0:
372,128,10002,6,0,L|220:128,1,150,8|4,0:0|0:0,0:0:0:0:
132,144,10902,1,2,0:0:0:0:
224,160,11202,2,0,L|300:160,2,75,8|2|4,0:0|0:0|0:0,0:0:0:0:
132,168,12102,1,2,0:0:0:0:
248,200,12402,6,8,B|316:176|316:176|239:160,1,150,8|4,0:0|0:0,0:0:0:0:
128,148,13302,1,2,0:0:0:0:
28,144,13602,2,0,L|8:56,1,75,8|2,0:0|0:0,0:0:0:0:
148,60,14202,2,0,L|240:64,1,75,4|2,0:0|0:0,0:0:0:0:
352,100,14802,6,0,L|470:192,2,150,8|4|8,0:0|0:0|0:0,0:0:0:0:
240,148,16302,1,2,0:0:0:0:
136,192,16603,2,0,L|210:189,1,75,4|0,0:0|0:0,0:0:0:0:
256,192,17202,12,8,19152,0:0:0:0:
276,116,19602,6,0,L|440:112,1,150,12|4,0:0|0:0,0:0:0:0:
212,188,20802,2,0,L|296:188,1,75,8|2,0:0|0:0,0:0:0:0:
400,192,21402,1,4,0:0:0:0:
212,232,22002,6,0,P|168:196|216:128,1,150,8|4,0:0|0:0,0:0:0:0:
436,108,23202,2,0,L|344:112,1,75,8|2,0:0|0:0,0:0:0:0:
248,120,23802,1,8,0:0:0:0:
36,200,24402,6,0,L|216:160,1,150,8|4,0:0|0:0,0:0:0:0:
400,112,25602,2,0,L|296:100,1,75,8|0,0:0|0:0,0:0:0:0:
224,148,26202,2,0,L|132:184,1,75,4|2,0:0|0:0,0:0:0:0:
288,224,26802,6,0,L|440:192,1,150,8|4,0:0|0:0,0:0:0:0:
212,176,28002,2,0,L|232:128,1,37.5,8|0,0:0|0:0,0:0:0:0:
412,156,28602,2,4,L|472:152,1,37.5,4|8,0:0|0:0,0:0:0:0:
280,144,29202,6,0,L|112:140,1,150,12|4,0:0|0:0,0:0:0:0:
332,240,30402,2,0,L|424:240,2,75,8|2|4,0:0|0:0|0:0,0:0:0:0:
220,236,31302,1,0,0:0:0:0:
348,192,31602,6,0,B|420:164|420:164|344:152,1,150,8|4,0:0|0:0,0:0:0:0:
132,108,32802,2,0,B|56:136|56:136|132:160,1,150,8|4,0:0|0:0,0:0:0:0:
244,204,33702,1,2,0:0:0:0:
376,200,34002,6,0,P|424:140|372:116,1,150,8|4,0:0|0:0,0:0:0:0:
192,120,35202,1,8,0:0:0:0:
80,120,35502,2,0,L|160:120,1,75,2|4,0:0|0:0,0:0:0:0:
268,116,36102,1,0,0:0:0:0:
408,116,36402,6,8,P|448:140|380:196,1,150,10|6,0:0|0:0,0:0:0:0:
176,204,37602,2,8,P|128:248|196:296,1,150,10|2,0:0|0:0,0:0:0:0:
400,300,38802,1,10,0:0:0:0:
88,220,43002,6,0,L|56:180,1,37.5,4|0,0:0|0:0,0:0:0:0:
208,256,43602,6,0,P|252:204|184:144,1,150,8|4,0:0|0:0,0:0:0:0:
100,144,44502,1,2,0:0:0:0:
211,145,44802,2,0,L|367:145,1,150,8|4,0:0|0:0,0:0:0:0:
472,144,45702,1,0,0:0:0:0:
372,200,46002,6,0,L|204:200,1,150,8|4,0:0|0:0,0:0:0:0:
416,236,47202,2,0,L|408:328,1,75,8|8,0:0|0:0,0:0:0:0:
296,296,47802,5,10,0:0:0:0:
188,272,48102,1,8,0:0:0:0:
84,240,48402,1,8,0:0:0:0:
256,224,49002,6,0,L|352:216,2,75,4|0|8,0:0|0:0|0:0,0:0:0:0:
144,208,49902,2,0,L|44:216,2,75,0|4|0,0:0|0:0|0:0,0:0:0:0:
280,192,50802,6,0,P|332:152|272:104,1,150,8|4,0:0|0:0,0:0:0:0:
152,104,51702,1,2,0:0:0:0:
284,104,52002,2,0,L|452:100,1,150,8|4,0:0|0:0,0:0:0:0:
216,152,53202,6,0,L|124:152,1,75,8|0,0:0|0:0,0:0:0:0:
248,200,53802,2,0,L|336:200,1,75,4|0,0:0|0:0,0:0:0:0:
216,252,54402,2,0,L|60:252,2,150,8|4|8,0:0|0:0|0:0,0:0:0:0:
440,256,56202,6,0,P|472:192|436:128,1,150,4|8,0:0|0:0,0:0:0:0:
316,136,57102,1,0,0:0:0:0:
184,140,57402,2,0,L|96:144,1,75,10|8,0:0|0:0,0:0:0:0:
224,184,58002,1,0,0:0:0:0:
396,192,67602,6,0,L|216:160,1,150,8|4,0:0|0:0,0:0:0:0:
24,160,68802,2,0,L|176:120,1,150,8|4,0:0|0:0,0:0:0:0:
396,124,70002,6,0,L|400:288,1,150,8|4,0:0|0:0,0:0:0:0:
180,224,71202,2,0,L|168:52,1,150,8|4,0:0|0:0,0:0:0:0:
256,192,72402,12,0,74802,0:0:0:0:
256,224,76002,5,10,0:0:0:0:
368,140,76302,1,8,0:0:0:0:
256,140,76602,1,8,0:0:0:0:
144,140,76902,1,2,0:0:0:0:
300,140,77202,6,0,P|344:188|288:248,1,150,12|4,0:0|0:0,0:0:0:0:
196,244,78102,1,2,0:0:0:0:
84,240,78402,2,0,P|40:186|84:133,1,150,8|4,0:0|0:0,0:0:0:0:
308,132,79602,6,0,L|464:120,1,150,8|4,0:0|0:0,0:0:0:0:
348,96,80502,1,2,0:0:0:0:
236,108,80802,2,0,P|192:192|248:232,1,150,8|4,0:0|0:0,0:0:0:0:
332,240,81702,1,2,0:0:0:0:
208,288,82002,6,0,L|40:248,1,150,8|4,0:0|0:0,0:0:0:0:
172,228,82902,1,2,0:0:0:0:
284,204,83202,2,0,L|452:164,1,150,8|4,0:0|0:0,0:0:0:0:
340,140,84102,1,2,0:0:0:0:
208,136,84402,6,0,P|156:212|216:248,1,150,8|12,0:0|0:0,0:0:0:0:
408,244,85602,2,8,L|432:304,1,37.5,10|0,0:0|0:0,0:0:0:0:
232,264,86202,2,8,L|212:320,1,37.5,4|8,0:0|0:0,0:0:0:0:
408,264,86802,6,0,P|424:216|368:124,1,150,12|4,0:0|0:0,0:0:0:0:
288,152,87702,1,2,0:0:0:0:
160,156,88002,2,0,P|112:192|160:260,1,150,8|4,0:0|0:0,0:0:0:0:
400,164,89202,6,0,P|428:212|344:264,1,150,8|4,0:0|0:0,0:0:0:0:
256,268,90102,1,2,0:0:0:0:
152,248,90402,2,0,L|300:228,1,150,8|4,0:0|0:0,0:0:0:0:
208,204,91302,1,2,0:0:0:0:
108,152,91602,6,0,L|280:112,1,150,8|4,0:0|0:0,0:0:0:0:
372,120,92502,1,2,0:0:0:0:
256,144,92802,2,0,P|236:176|292:260,1,150,8|4,0:0|0:0,0:0:0:0:
400,268,93702,1,0,0:0:0:0:
280,280,94002,6,0,L|116:232,1,150,10|6,0:0|0:0,0:0:0:0:
356,188,95202,2,0,L|192:140,1,150,10|10,0:0|0:0,0:0:0:0:
124,96,96102,1,8,0:0:0:0:
280,88,96402,6,0,P|328:140|268:184,1,150,12|4,0:0|0:0,0:0:0:0:
180,192,97302,2,0,L|80:208,1,75,2|8,0:0|0:0,0:0:0:0:
216,228,97902,2,0,L|312:216,1,75,2|4,0:0|0:0,0:0:0:0:
416,188,98502,1,2,0:0:0:0:
288,172,98802,2,0,P|244:160|296:96,1,150,8|4,0:0|0:0,0:0:0:0:
408,124,99702,1,2,0:0:0:0:
280,108,100002,2,0,L|184:108,1,75,8|2,0:0|0:0,0:0:0:0:
304,164,100602,2,0,L|392:164,1,75,4|2,0:0|0:0,0:0:0:0:
252,184,101202,6,0,P|208:240|276:280,1,150,8|4,0:0|0:0,0:0:0:0:
384,288,102102,2,0,L|468:288,2,75,2|8|2,0:0|0:0|0:0,0:0:0:0:
272,288,103002,2,0,L|184:288,1,75,4|2,0:0|0:0,0:0:0:0:
324,280,103602,6,0,L|480:280,1,150,10|6,0:0|0:0,0:0:0:0:
248,268,104802,2,0,L|232:224,1,37.5
400,200,105402,2,8,L|416:164,1,37.5,6|8,0:0|0:0,0:0:0:0:
240,252,106002,6,0,P|212:212|280:144,1,150,12|4,0:0|0:0,0:0:0:0:
360,140,106902,1,2,0:0:0:0:
248,104,107202,2,0,L|168:96,1,75,8|2,0:0|0:0,0:0:0:0:
264,60,107802,1,4,0:0:0:0:
352,56,108102,1,2,0:0:0:0:
488,108,108402,6,0,P|512:156|448:224,1,150,8|4,0:0|0:0,0:0:0:0:
344,204,109302,2,0,L|252:200,2,75,2|8|2,0:0|0:0|0:0,0:0:0:0:
444,156,110202,2,0,L|340:132,1,75,4|2,0:0|0:0,0:0:0:0:
260,132,110802,6,0,L|428:84,1,150,8|4,0:0|0:0,0:0:0:0:
292,84,111702,1,2,0:0:0:0:
180,96,112002,2,0,L|88:96,1,75,8|2,0:0|0:0,0:0:0:0:
200,164,112602,2,0,L|296:164,1,75,4|2,0:0|0:0,0:0:0:0:
256,192,113202,12,2,115602,0:0:0:0:
