osu file format v14

[General]
AudioFilename: audio.mp3
AudioLeadIn: 0
PreviewTime: 76602
Countdown: 0
SampleSet: Soft
StackLeniency: 0.7
Mode: 2
LetterboxInBreaks: 0
WidescreenStoryboard: 0

[Editor]
DistanceSpacing: 1.5
BeatDivisor: 8
GridSize: 4
TimelineZoom: 1

[Metadata]
Title:Shelter
TitleUnicode:Shelter
Artist:Porter Robinson & Madeon
ArtistUnicode:Porter Robinson & Madeon
Creator:Myle
Version:Salad
Source:Shelter
Tags:a-1 pictures crunchyroll edm electronic dance music cut short version
BeatmapID:1137698
BeatmapSetID:536749

[Difficulty]
HPDrainRate:5
CircleSize:3
OverallDifficulty:7
ApproachRate:7
SliderMultiplier:1.9
SliderTickRate:1

[Events]
//Background and Video events
0,0,"BG.png",0,0
//Break Periods
2,39002,42102
2,58202,66702
//Storyboard Layer 0 (Background)
//Storyboard Layer 1 (Fail)
//Storyboard Layer 2 (Pass)
//Storyboard Layer 3 (Foreground)
//Storyboard Sound Samples

[TimingPoints]
402,600,4,2,1,30,1,0
10002,-100,4,2,1,40,0,0
19602,-100,4,2,1,50,0,1
38202,-100,4,2,1,30,0,0
43002,-100,4,2,1,30,0,0
47802,-100,4,2,1,45,0,0
48402,-100,4,2,1,40,0,0
57402,-100,4,2,1,45,0,0
67602,-100,4,2,1,30,0,0
76002,-100,4,2,1,45,0,0
77202,-100,4,2,1,50,0,1
94002,-100,4,2,1,40,0,0
95802,-100,4,2,1,45,0,0
96402,-100,4,2,1,50,0,1
113202,-100,4,2,1,45,0,0
113802,-100,4,2,1,40,0,0
114402,-100,4,2,1,35,0,0
115002,-100,4,2,1,30,0,0
115602,-100,4,2,1,20,0,0

[Colours]
Combo1 : 255,128,255
Combo2 : 0,206,206
Combo3 : 72,164,255

[HitObjects]
304,240,402,6,0,P|368:208|292:144,1,190,2|2,0:0|0:0,0:0:0:0:
236,140,1152,1,0,0:0:0:0:
92,140,1452,2,0,P|68:180|200:268,1,237.5,2|2,0:0|0:0,0:0:0:0:
452,212,2802,6,0,L|248:192,1,190,2|2,0:0|0:0,0:0:0:0:
228,132,3552,1,0,0:0:0:0:
88,164,3852,2,0,L|260:144,1,142.5,2|2,0:0|0:0,0:0:0:0:
104,104,4602,2,2,L|200:96,1,95,2|2,0:0|0:0,0:0:0:0:
352,224,5202,6,0,P|408:200|364:104,1,190,2|2,0:0|0:0,0:0:0:0:
296,100,5952,1,0,0:0:0:0:
160,136,6252,2,2,P|112:208|224:288,1,237.5,2|2,0:0|0:0,0:0:0:0:
340,132,7302,1,0,0:0:0:0:
192,124,7602,6,0,L|88:120,1,95,2|0,0:0|0:0,0:0:0:0:
224,180,8202,2,0,L|324:200,1,95,2|0,0:0|0:0,0:0:0:0:
176,228,8802,2,0,L|176:112,1,95,2|0,0:0|0:0,0:0:0:0:
336,124,9402,2,0,L|440:116,1,95,2|0,0:0|0:0,0:0:0:0:
204,160,10002,6,0,L|220:276,1,95,8|0,0:0|0:0,0:0:0:0:
360,236,10602,2,0,L|264:260,1,95,4|2,0:0|0:0,0:0:0:0:
124,260,11202,2,0,L|104:152,1,95,8|2,0:0|0:0,0:0:0:0:
248,176,11802,1,4,0:0:0:0:
112,132,12102,1,2,0:0:0:0:
320,120,12402,6,0,P|352:184|320:208,1,95,8|2,0:0|0:0,0:0:0:0:
204,200,13002,2,0,L|96:200,1,95,4|2,0:0|0:0,0:0:0:0:
252,200,13602,2,0,P|240:148|96:92,1,190,8|4,0:0|0:0,0:0:0:0:
272,80,14502,1,2,0:0:0:0:
68,112,14802,6,0,L|20:204,2,95,8|2|4,0:0|0:0|0:0,0:0:0:0:
212,112,15702,1,2,0:0:0:0:
352,100,16002,2,0,L|388:208,1,95,8|2,0:0|0:0,0:0:0:0:
240,196,16602,2,0,L|200:88,1,95,4|0,0:0|0:0,0:0:0:0:
256,192,17202,12,8,19152,0:0:0:0:
352,216,19602,5,12,0:0:0:0:
396,160,19752,1,0,0:0:0:0:
388,88,19902,1,2,0:0:0:0:
324,60,20052,1,0,0:0:0:0:
160,64,20202,2,0,L|44:80,1,95,4|2,0:0|0:0,0:0:0:0:
200,92,20802,2,0,L|308:116,1,95,8|2,0:0|0:0,0:0:0:0:
416,232,21402,1,4,0:0:0:0:
84,156,22002,5,8,0:0:0:0:
76,224,22152,1,0,0:0:0:0:
100,292,22302,1,2,0:0:0:0:
168,320,22452,1,0,0:0:0:0:
320,280,22602,2,0,L|420:272,1,95,4|2,0:0|0:0,0:0:0:0:
264,220,23202,2,0,P|204:184|268:104,1,190,8|8,0:0|0:0,0:0:0:0:
424,104,24102,1,2,0:0:0:0:
216,100,24402,5,8,0:0:0:0:
148,124,24552,1,0,0:0:0:0:
144,196,24702,1,2,0:0:0:0:
204,236,24852,1,0,0:0:0:0:
352,244,25002,2,0,L|452:244,1,95,4|2,0:0|0:0,0:0:0:0:
276,196,25602,2,0,L|156:196,1,95,8|0,0:0|0:0,0:0:0:0:
300,128,26202,1,4,0:0:0:0:
424,64,26502,1,2,0:0:0:0:
220,64,26802,6,0,L|128:112,1,95,8|2,0:0|0:0,0:0:0:0:
308,132,27402,2,0,L|408:184,1,95,4|2,0:0|0:0,0:0:0:0:
184,216,28002,2,8,L|128:232,1,47.5,8|0,0:0|0:0,0:0:0:0:
400,248,28602,2,8,L|456:280,1,47.5,4|8,0:0|0:0,0:0:0:0:
140,228,29202,5,12,0:0:0:0:
88,180,29352,1,0,0:0:0:0:
100,108,29502,1,2,0:0:0:0:
168,88,29652,1,0,0:0:0:0:
324,92,29802,2,0,L|432:116,1,95,4|2,0:0|0:0,0:0:0:0:
276,136,30402,2,0,L|224:224,1,95,8|2,0:0|0:0,0:0:0:0:
400,216,31002,2,0,L|456:304,1,95,4|0,0:0|0:0,0:0:0:0:
228,160,31602,5,8,0:0:0:0:
172,220,31752,1,0,0:0:0:0:
172,300,31902,1,2,0:0:0:0:
236,352,32052,1,0,0:0:0:0:
400,348,32202,2,0,B|428:240,1,95,4|2,0:0|0:0,0:0:0:0:
192,176,32802,2,0,P|108:140|92:48,1,190,8|4,0:0|0:0,0:0:0:0:
216,52,33702,1,2,0:0:0:0:
456,172,34002,5,8,0:0:0:0:
484,120,34152,1,0,0:0:0:0:
472,48,34302,1,2,0:0:0:0:
412,8,34452,1,0,0:0:0:0:
248,64,34602,2,0,L|128:64,1,95,4|2,0:0|0:0,0:0:0:0:
312,128,35202,2,0,L|420:128,2,95,8|2|4,0:0|0:0|0:0,0:0:0:0:
160,128,36102,1,0,0:0:0:0:
368,204,36402,6,0,L|468:204,1,95,10|0,0:0|0:0,0:0:0:0:
320,272,37002,2,0,L|188:272,1,95,6|0,0:0|0:0,0:0:0:0:
360,224,37602,2,0,L|244:224,1,95,10|0,0:0|0:0,0:0:0:0:
124,212,38202,2,0,L|184:136,1,95,2|0,0:0|0:0,0:0:0:0:
344,136,38802,1,10,0:0:0:0:
160,176,43002,6,0,L|88:176,2,47.5,4|0|0,0:0|0:0|0:0,0:0:0:0:
304,172,43602,6,0,L|432:160,1,95,8|0,0:0|0:0,0:0:0:0:
240,136,44202,2,0,L|124:112,1,95,4|2,0:0|0:0,0:0:0:0:
212,76,44652,1,2,0:0:0:0:
280,76,44802,2,0,L|388:68,1,95,8|0,0:0|0:0,0:0:0:0:
188,140,45402,2,0,L|68:140,1,95,4|0,0:0|0:0,0:0:0:0:
292,164,46002,6,0,P|352:216|288:296,1,190,8|4,0:0|0:0,0:0:0:0:
96,248,47052,1,2,0:0:0:0:
176,228,47202,2,0,L|308:228,1,95,8|8,0:0|0:0,0:0:0:0:
128,208,47802,5,10,0:0:0:0:
84,152,47952,1,2,0:0:0:0:
100,84,48102,1,8,0:0:0:0:
164,56,48252,1,8,0:0:0:0:
344,88,48402,6,0,P|400:132|312:208,1,190,8|4,0:0|0:0,0:0:0:0:
200,212,49302,1,0,0:0:0:0:
348,240,49602,2,0,L|452:236,1,95,8|0,0:0|0:0,0:0:0:0:
288,236,50202,1,4,0:0:0:0:
236,192,50352,1,0,0:0:0:0:
244,120,50502,1,0,0:0:0:0:
312,96,50652,1,0,0:0:0:0:
416,108,50802,6,0,L|244:-12,1,190,8|4,0:0|0:0,0:0:0:0:
368,132,51702,1,2,0:0:0:0:
232,156,52002,2,0,P|204:96|320:40,1,190,8|4,0:0|0:0,0:0:0:0:
372,196,52752,1,0,0:0:0:0:
368,264,52902,1,0,0:0:0:0:
324,324,53052,1,0,0:0:0:0:
228,316,53202,6,0,L|40:236,1,190,8|4,0:0|0:0,0:0:0:0:
168,208,54102,1,2,0:0:0:0:
316,192,54402,2,0,P|360:124|264:80,1,190,8|4,0:0|0:0,0:0:0:0:
224,104,55152,1,0,0:0:0:0:
208,172,55302,1,0,0:0:0:0:
244,236,55452,1,0,0:0:0:0:
360,264,55602,6,0,P|424:216|368:120,1,190,8|4,0:0|0:0,0:0:0:0:
248,152,56502,2,0,L|136:200,2,95,0|8|0,0:0|0:0|0:0,0:0:0:0:
392,164,57402,6,0,L|484:164,1,47.5,10|2,0:0|0:0,0:0:0:0:
356,144,57702,2,0,L|288:144,1,47.5,8|8,0:0|0:0,0:0:0:0:
136,136,58002,1,0,0:0:0:0:
408,204,67602,6,0,L|304:36,1,190,8|4,0:0|0:0,0:0:0:0:
168,56,68502,1,0,0:0:0:0:
308,88,68802,2,0,P|336:144|244:208,1,190,8|4,0:0|0:0,0:0:0:0:
108,200,69702,1,0,0:0:0:0:
252,196,70002,6,0,L|452:152,1,190,8|4,0:0|0:0,0:0:0:0:
296,148,70902,1,0,0:0:0:0:
432,112,71202,2,0,L|460:304,1,190,8|4,0:0|0:0,0:0:0:0:
316,300,72102,1,0,0:0:0:0:
256,192,72402,12,0,74802,0:0:0:0:
64,124,76002,5,10,0:0:0:0:
16,180,76152,1,2,0:0:0:0:
20,252,76302,1,8,0:0:0:0:
80,288,76452,1,8,0:0:0:0:
160,288,76602,2,0,L|216:288,1,47.5,8|8,0:0|0:0,0:0:0:0:
152,216,76902,1,2,0:0:0:0:
364,220,77202,5,12,0:0:0:0:
400,156,77352,1,0,0:0:0:0:
384,88,77502,1,2,0:0:0:0:
320,60,77652,1,0,0:0:0:0:
160,64,77802,2,0,L|52:76,1,95,4|2,0:0|0:0,0:0:0:0:
252,152,78402,2,0,L|324:240,1,95,8|2,0:0|0:0,0:0:0:0:
116,104,79002,1,4,0:0:0:0:
312,108,79602,5,8,0:0:0:0:
320,180,79752,1,0,0:0:0:0:
276,236,79902,1,2,0:0:0:0:
208,248,80052,1,0,0:0:0:0:
56,232,80202,2,0,L|68:124,1,95,4|2,0:0|0:0,0:0:0:0:
212,136,80802,2,0,L|328:116,1,95,8|2,0:0|0:0,0:0:0:0:
448,132,81402,2,0,L|408:44,1,95,4|2,0:0|0:0,0:0:0:0:
184,104,82002,5,8,0:0:0:0:
164,172,82152,1,0,0:0:0:0:
196,236,82302,1,2,0:0:0:0:
264,252,82452,1,0,0:0:0:0:
424,232,82602,2,0,L|480:144,1,95,4|2,0:0|0:0,0:0:0:0:
348,200,83202,2,0,L|240:200,1,95,8|2,0:0|0:0,0:0:0:0:
116,156,83802,2,0,L|104:56,1,95,4|2,0:0|0:0,0:0:0:0:
352,132,84402,6,0,L|384:236,1,95,8|2,0:0|0:0,0:0:0:0:
220,212,85002,2,0,L|188:316,1,95,12|2,0:0|0:0,0:0:0:0:
348,264,85602,2,0,L|372:364,1,95,10|2,0:0|0:0,0:0:0:0:
176,272,86202,2,0,L|152:372,1,95,8|2,0:0|0:0,0:0:0:0:
404,264,86802,5,12,0:0:0:0:
464,224,86952,1,0,0:0:0:0:
456,152,87102,1,2,0:0:0:0:
396,112,87252,1,0,0:0:0:0:
236,104,87402,2,0,L|112:128,1,95,4|2,0:0|0:0,0:0:0:0:
304,176,88002,2,0,L|400:232,1,95,8|2,0:0|0:0,0:0:0:0:
196,240,88602,1,4,0:0:0:0:
404,264,89202,5,8,0:0:0:0:
440,216,89352,1,0,0:0:0:0:
432,144,89502,1,2,0:0:0:0:
368,108,89652,1,0,0:0:0:0:
208,112,89802,2,0,L|100:120,1,95,4|2,0:0|0:0,0:0:0:0:
264,184,90402,2,0,L|380:192,1,95,8|2,0:0|0:0,0:0:0:0:
212,252,91002,2,0,L|316:244,1,95,4|2,0:0|0:0,0:0:0:0:
88,272,91602,5,8,0:0:0:0:
52,212,91752,1,0,0:0:0:0:
80,148,91902,1,2,0:0:0:0:
148,132,92052,1,0,0:0:0:0:
308,144,92202,2,0,L|412:164,1,95,4|2,0:0|0:0,0:0:0:0:
228,224,92802,2,0,L|120:240,2,95,8|2|4,0:0|0:0|0:0,0:0:0:0:
368,260,93702,1,2,0:0:0:0:
144,196,94002,6,0,L|128:96,1,95,10|0,0:0|0:0,0:0:0:0:
256,184,94602,2,0,L|360:164,1,95,6|0,0:0|0:0,0:0:0:0:
208,148,95202,2,0,L|312:128,1,95,10|0,0:0|0:0,0:0:0:0:
444,92,95802,2,0,L|376:92,1,47.5,10|2,0:0|0:0,0:0:0:0:
324,92,96102,2,0,L|268:92,1,47.5,8|8,0:0|0:0,0:0:0:0:
424,136,96402,5,12,0:0:0:0:
456,200,96552,1,0,0:0:0:0:
448,272,96702,1,2,0:0:0:0:
400,324,96852,1,0,0:0:0:0:
240,296,97002,2,0,L|160:236,1,95,4|2,0:0|0:0,0:0:0:0:
332,256,97602,2,0,L|216:212,1,95,8|2,0:0|0:0,0:0:0:0:
100,208,98202,2,0,L|192:160,1,95,4|2,0:0|0:0,0:0:0:0:
400,172,98802,5,8,0:0:0:0:
392,100,98952,1,0,0:0:0:0:
360,36,99102,1,2,0:0:0:0:
292,20,99252,1,0,0:0:0:0:
132,152,99402,2,0,P|88:196|96:244,1,95,4|2,0:0|0:0,0:0:0:0:
248,216,100002,2,0,L|360:244,1,95,8|2,0:0|0:0,0:0:0:0:
188,248,100602,2,0,L|112:176,1,95,4|2,0:0|0:0,0:0:0:0:
328,144,101202,5,8,0:0:0:0:
360,96,101352,1,0,0:0:0:0:
340,28,101502,1,2,0:0:0:0:
272,12,101652,1,0,0:0:0:0:
120,136,101802,2,0,L|8:156,1,95,4|2,0:0|0:0,0:0:0:0:
192,192,102402,2,0,L|316:224,1,95,8|2,0:0|0:0,0:0:0:0:
112,256,103002,2,0,L|76:352,1,95,4|2,0:0|0:0,0:0:0:0:
320,280,103602,6,0,L|332:152,1,95,10|2,0:0|0:0,0:0:0:0:
136,200,104202,2,0,L|124:68,1,95,6|2,0:0|0:0,0:0:0:0:
328,168,104802,2,0,L|308:44,1,95,10|2,0:0|0:0,0:0:0:0:
80,196,105402,2,0,L|60:80,1,95,6|2,0:0|0:0,0:0:0:0:
304,76,106002,5,12,0:0:0:0:
360,132,106152,1,0,0:0:0:0:
316,188,106302,1,2,0:0:0:0:
244,200,106452,1,0,0:0:0:0:
84,188,106602,2,0,L|100:88,1,95,4|2,0:0|0:0,0:0:0:0:
264,248,107202,2,0,L|124:264,2,95,8|2|4,0:0|0:0|0:0,0:0:0:0:
388,240,108102,1,0,0:0:0:0:
176,200,108402,5,8,0:0:0:0:
120,180,108552,1,0,0:0:0:0:
76,124,108702,1,2,0:0:0:0:
140,92,108852,1,0,0:0:0:0:
300,140,109002,2,0,L|412:156,2,95,4|2|8,0:0|0:0|0:0,0:0:0:0:
412,112,109902,1,2,0:0:0:0:
156,184,110202,2,0,L|32:204,1,95,4|2,0:0|0:0,0:0:0:0:
300,232,110802,5,8,0:0:0:0:
360,196,110952,1,0,0:0:0:0:
416,152,111102,1,2,0:0:0:0:
348,132,111252,1,0,0:0:0:0:
180,152,111402,2,0,P|148:184|196:184,1,95,4|2,0:0|0:0,0:0:0:0:
348,112,112002,2,0,L|244:136,1,95,8|2,0:0|0:0,0:0:0:0:
88,144,112602,2,0,L|184:180,1,95,4|2,0:0|0:0,0:0:0:0:
256,192,113202,12,2,115602,0:0:0:0:
