osu file format v14

[General]
AudioFilename: audio.mp3
AudioLeadIn: 0
PreviewTime: 77275
Countdown: 0
SampleSet: Soft
StackLeniency: 0.7
Mode: 2
LetterboxInBreaks: 0
WidescreenStoryboard: 0

[Editor]
DistanceSpacing: 1.1
BeatDivisor: 8
GridSize: 4
TimelineZoom: 1

[Metadata]
Title:Shelter
TitleUnicode:Shelter
Artist:Porter Robinson & Madeon
ArtistUnicode:Porter Robinson & Madeon
Creator:JBHyperion
Version:Platter
Source:Shelter
Tags:electro house dubstep rin absolute zero wildone94 magic bomb mbomb a-1 pictures crunchyroll
BeatmapID:1259886
BeatmapSetID:595730

[Difficulty]
HPDrainRate:5
CircleSize:3.8
OverallDifficulty:7.5
ApproachRate:7.5
SliderMultiplier:2
SliderTickRate:1

[Events]
//Background and Video events
0,0,"maxresdefault.jpg",0,0
//Break Periods
//Storyboard Layer 0 (Background)
//Storyboard Layer 1 (Fail)
//Storyboard Layer 2 (Pass)
//Storyboard Layer 3 (Foreground)
//Storyboard Sound Samples

[TimingPoints]
475,600,4,2,77,30,1,0
7675,-100,4,2,77,35,0,0
10075,-100,4,2,77,50,0,0
10375,-100,4,2,77,35,0,0
17275,-100,4,2,77,30,0,0
19075,-100,4,2,69,40,0,0
19675,-100,4,2,78,50,0,1
28225,-100,4,2,69,40,0,1
28525,-100,4,2,78,50,0,1
38275,-100,4,2,77,35,0,1
38475,-100,4,2,77,25,0,1
38875,-133.333333333333,4,2,77,35,0,0
43075,-133.333333333333,4,2,69,40,0,0
43675,-100,4,2,78,40,0,0
57475,-100,4,2,69,40,0,0
58075,-100,4,2,77,30,0,0
76075,-100,4,2,78,40,0,0
76675,-100,4,2,69,35,0,0
77275,-100,4,2,78,50,0,1
85825,-100,4,2,69,40,0,1
86125,-100,4,2,78,50,0,1
95425,-100,4,2,69,40,0,1
95725,-100,4,2,78,50,0,1
96325,-100,4,2,78,50,0,0
96475,-100,4,2,78,50,0,1
105025,-100,4,2,69,40,0,1
105325,-100,4,2,78,50,0,1
113275,-100,4,2,78,50,0,1
114475,-100,4,2,78,40,0,1
114775,-100,4,2,78,30,0,1
115075,-100,4,2,78,20,0,1
115375,-100,4,2,78,10,0,1
115675,-100,4,2,78,5,0,0

[Colours]
Combo1 : 30,165,158
Combo2 : 238,220,130
Combo3 : 69,139,116
Combo4 : 205,155,29

[HitObjects]
264,192,475,5,2,0:0:0:0:
84,192,1075,2,0,L|72:136,1,50
296,192,1525,2,0,B|444:192|444:108|444:108|380:108,1,250,2|2,0:0|0:0,0:0:0:0:
136,192,2875,5,2,0:0:0:0:
376,192,3475,2,0,L|428:192,1,50
188,192,3925,2,0,P|124:132|192:68,1,200,2|0,0:0|0:0,0:0:0:0:
272,68,4675,2,0,L|152:68,1,100,2|0,0:0|0:0,0:0:0:0:
432,192,5275,5,2,0:0:0:0:
212,192,5875,2,0,L|200:248,1,50
440,192,6325,2,0,B|498:192|498:192|498:108|350:108,1,250,2|2,0:0|0:0,0:0:0:0:
492,108,7375,1,0,0:0:0:0:
272,108,7675,6,0,L|196:108,2,75,2|0|0,0:0|0:0|0:0,0:0:0:0:
360,192,8275,2,0,L|436:192,2,75,2|0|0,0:0|0:0|0:0,0:0:0:0:
272,192,8875,5,2,0:0:0:0:
184,192,9100,1,0,0:0:0:0:
96,192,9325,1,0,0:0:0:0:
184,192,9475,1,2,0:0:0:0:
96,192,9700,1,0,0:0:0:0:
8,192,9925,1,0,0:0:0:0:
196,288,10075,6,0,L|296:288,1,100,4|0,0:0|0:0,0:0:0:0:
56,288,10675,2,0,L|48:232,1,50,8|0,0:0|0:0,0:0:0:0:
188,240,11125,1,0,0:0:0:0:
260,240,11275,1,2,0:0:0:0:
313,205,11425,1,2,0:0:0:0:
306,143,11575,1,2,0:0:0:0:
247,120,11725,1,2,0:0:0:0:
84,120,11875,1,8,0:0:0:0:
196,120,12175,1,0,0:0:0:0:
436,120,12475,6,0,L|368:192,1,100,2|0,0:0|0:0,0:0:0:0:
128,192,13075,2,0,L|136:248,1,50,8|0,0:0|0:0,0:0:0:0:
284,240,13525,2,0,P|348:180|280:116,1,200,2|0,0:0|0:0,0:0:0:0:
132,116,14275,1,8,0:0:0:0:
332,116,14575,1,0,0:0:0:0:
80,116,14875,6,0,L|16:192,1,100,2|0,0:0|0:0,0:0:0:0:
256,192,15475,2,0,L|308:192,1,50,8|0,0:0|0:0,0:0:0:0:
168,192,15925,1,0,0:0:0:0:
108,192,16075,1,2,0:0:0:0:
55,227,16225,1,2,0:0:0:0:
62,289,16375,1,2,0:0:0:0:
121,312,16525,1,2,0:0:0:0:
284,312,16675,1,8,0:0:0:0:
136,312,16975,1,0,0:0:0:0:
316,312,17275,6,0,L|400:312,2,75,2|0|0,0:0|0:0|0:0,0:0:0:0:
404,232,17875,2,0,L|480:232,2,75,2|0|0,0:0|0:0|0:0,0:0:0:0:
304,232,18475,5,2,0:0:0:0:
216,232,18700,1,0,0:0:0:0:
128,232,18925,1,0,0:0:0:0:
408,140,19075,2,0,L|460:140,1,50,2|8,0:0|0:0,0:0:0:0:
328,140,19525,1,0,0:0:0:0:
116,140,19675,6,0,L|16:140,1,100,4|0,0:0|0:0,0:0:0:0:
216,48,20275,2,0,L|332:48,1,100,8|0,0:0|0:0,0:0:0:0:
196,48,20875,1,2,0:0:0:0:
148,91,21025,1,0,0:0:0:0:
153,156,21175,1,0,0:0:0:0:
207,191,21325,1,0,0:0:0:0:
368,192,21475,1,8,0:0:0:0:
216,192,21775,1,0,0:0:0:0:
476,192,22075,6,0,L|376:152,1,100,2|0,0:0|0:0,0:0:0:0:
168,120,22675,2,0,L|220:120,1,50,8|0,0:0|0:0,0:0:0:0:
368,120,23125,2,0,P|416:144|428:192,1,100,2|0,0:0|0:0,0:0:0:0:
368,184,23575,2,0,L|308:184,1,50
168,184,23875,1,8,0:0:0:0:
318,184,24175,1,0,0:0:0:0:
76,184,24475,6,0,L|12:260,1,100,2|0,0:0|0:0,0:0:0:0:
252,252,25075,2,0,L|304:252,1,50,8|0,0:0|0:0,0:0:0:0:
148,252,25525,2,0,L|76:184,1,100,2|0,0:0|0:0,0:0:0:0:
136,184,25975,1,0,0:0:0:0:
196,184,26125,1,0,0:0:0:0:
356,184,26275,1,8,0:0:0:0:
208,184,26575,1,0,0:0:0:0:
408,72,26875,6,0,L|332:72,2,75,2|0|0,0:0|0:0|0:0,0:0:0:0:
232,72,27475,2,0,L|156:72,2,75,8|0|0,0:0|0:0|0:0,0:0:0:0:
380,192,28075,5,2,0:0:0:0:
456,192,28225,1,8,0:0:0:0:
316,192,28525,1,0,0:0:0:0:
176,192,28675,2,0,L|96:192,2,75,8|0|0,0:0|0:0|0:0,0:0:0:0:
444,280,29275,5,4,0:0:0:0:
492,280,29425,2,0,P|504:232|488:184,1,100
328,184,29875,2,0,L|212:184,1,100,8|0,0:0|0:0,0:0:0:0:
348,184,30475,1,2,0:0:0:0:
300,141,30625,1,0,0:0:0:0:
305,76,30775,1,0,0:0:0:0:
359,41,30925,1,0,0:0:0:0:
196,40,31075,1,8,0:0:0:0:
348,40,31375,1,0,0:0:0:0:
148,40,31675,6,0,L|40:40,1,100,2|0,0:0|0:0,0:0:0:0:
248,132,32275,2,0,L|300:132,1,50,8|0,0:0|0:0,0:0:0:0:
144,132,32725,2,0,L|44:132,1,100,2|0,0:0|0:0,0:0:0:0:
112,208,33175,2,0,L|172:208,1,50
312,208,33475,1,8,0:0:0:0:
120,292,33775,1,0,0:0:0:0:
484,196,34075,6,0,L|496:304,1,100,2|0,0:0|0:0,0:0:0:0:
252,296,34675,2,0,L|200:296,1,50,8|0,0:0|0:0,0:0:0:0:
356,296,35125,2,0,L|428:228,1,100,2|0,0:0|0:0,0:0:0:0:
368,228,35575,1,0,0:0:0:0:
308,228,35725,1,0,0:0:0:0:
148,228,35875,1,8,0:0:0:0:
296,228,36175,1,0,0:0:0:0:
56,316,36475,5,2,0:0:0:0:
136,316,36700,1,0,0:0:0:0:
216,316,36925,1,0,0:0:0:0:
376,228,37075,1,8,0:0:0:0:
296,228,37300,1,0,0:0:0:0:
216,228,37525,1,0,0:0:0:0:
352,140,37675,6,0,L|448:140,2,75,2|0|0,0:0|0:0|0:0,0:0:0:0:
440,60,38275,2,0,L|356:60,2,75,8|8|0,0:0|0:0|0:0,0:0:0:0:
284,60,38875,6,0,L|132:60,1,150.000005722046,2|8,0:0|0:0,0:0:0:0:
208,144,39775,2,0,L|288:144,2,75.0000028610231
84,224,40675,2,0,L|160:224,1,75.0000028610231,8|0,0:0|0:0,0:0:0:0:
332,224,41275,6,0,L|440:192,2,112.500004291535,2|0|0,0:0|0:0|0:0,0:0:0:0:
468,192,42475,1,2,0:0:0:0:
56,192,43075,2,0,L|52:144,1,37.5000014305115,8|0,0:0|0:0,0:0:0:0:
264,192,43675,5,2,0:0:0:0:
309,146,43825,1,0,0:0:0:0:
298,83,43975,1,0,0:0:0:0:
240,55,44125,1,0,0:0:0:0:
108,56,44275,2,0,L|52:56,2,50,8|0|0,0:0|0:0|0:0,0:0:0:0:
168,192,44725,5,0,0:0:0:0:
228,192,44875,1,2,0:0:0:0:
288,192,45025,2,0,L|388:192,1,100
248,292,45475,1,8,0:0:0:0:
188,292,45625,2,0,P|148:276|120:224,1,100
212,192,46075,6,0,L|316:192,1,100,2|0,0:0|0:0,0:0:0:0:
252,112,46525,1,0,0:0:0:0:
104,112,46675,1,8,0:0:0:0:
224,28,46975,2,0,L|284:28,1,50
332,28,47275,5,2,0:0:0:0:
272,28,47425,2,0,L|144:28,1,100
392,128,47875,2,0,L|448:128,2,50,8|8|8,0:0|0:0|0:0,0:0:0:0:
332,128,48325,1,0,0:0:0:0:
112,128,48475,6,0,P|52:167|52:240,1,150,4|0,0:0|0:0,0:0:0:0:
212,240,49075,1,8,0:0:0:0:
276,253,49225,1,0,0:0:0:0:
322,300,49375,1,0,0:0:0:0:
336,364,49525,1,0,0:0:0:0:
244,364,49675,6,0,L|144:364,1,100,2|0,0:0|0:0,0:0:0:0:
364,252,50275,2,0,L|464:252,1,100,8|0,0:0|0:0,0:0:0:0:
284,192,50875,6,0,B|236:192|236:192|288:192,1,100,2|0,0:0|0:0,0:0:0:0:
344,128,51325,1,0,0:0:0:0:
192,128,51475,2,0,L|92:128,1,100,8|0,0:0|0:0,0:0:0:0:
252,192,52075,6,0,B|300:192|300:192|248:192,1,100,2|0,0:0|0:0,0:0:0:0:
192,256,52525,1,0,0:0:0:0:
344,256,52675,1,8,0:0:0:0:
224,344,52975,2,0,L|168:344,1,50
276,344,53275,6,0,P|344:328|368:256,1,150,2|0,0:0|0:0,0:0:0:0:
216,260,53875,1,8,0:0:0:0:
151,246,54025,1,0,0:0:0:0:
105,199,54175,1,0,0:0:0:0:
91,135,54325,1,0,0:0:0:0:
220,136,54475,6,0,L|320:136,1,100,2|0,0:0|0:0,0:0:0:0:
368,136,54925,1,0,0:0:0:0:
216,260,55075,2,0,L|116:260,1,100,8|0,0:0|0:0,0:0:0:0:
264,96,55675,5,2,0:0:0:0:
308,142,55825,1,0,0:0:0:0:
300,206,55975,1,0,0:0:0:0:
246,240,56125,1,0,0:0:0:0:
120,240,56275,1,8,0:0:0:0:
136,303,56425,1,0,0:0:0:0:
182,350,56575,1,0,0:0:0:0:
245,368,56725,1,0,0:0:0:0:
116,368,56875,6,0,L|12:368,1,100,2|0,0:0|0:0,0:0:0:0:
396,192,57475,2,0,L|452:192,2,50,8|0|0,0:0|0:0|0:0,0:0:0:0:
144,196,58075,6,0,P|100:152|148:96,1,150,2|0,0:0|0:0,0:0:0:0:
208,96,58675,1,8,0:0:0:0:
368,100,58975,2,0,B|468:100|468:100|468:152|432:192,1,200
192,192,59875,2,0,L|96:240,1,100,8|0,0:0|0:0,0:0:0:0:
344,236,60475,6,0,P|416:208|440:140,1,150,2|0,0:0|0:0,0:0:0:0:
380,144,61075,1,8,0:0:0:0:
240,144,61375,1,0,0:0:0:0:
400,56,61675,2,0,B|500:56,1,100,2|0,0:0|0:0,0:0:0:0:
280,100,62275,2,0,L|376:148,1,100,8|0,0:0|0:0,0:0:0:0:
148,144,62875,6,0,P|98:190|146:234,1,150,2|0,0:0|0:0,0:0:0:0:
208,232,63475,1,8,0:0:0:0:
48,280,63775,2,0,P|14:166|64:84,1,200
288,100,64675,2,0,L|400:100,1,100,8|0,0:0|0:0,0:0:0:0:
172,100,65275,6,0,P|200:176|258:213,1,150,2|0,0:0|0:0,0:0:0:0:
316,212,65875,1,8,0:0:0:0:
416,212,66175,1,0,0:0:0:0:
196,216,66475,1,2,0:0:0:0:
156,308,66775,1,2,0:0:0:0:
376,212,67075,2,0,L|476:192,1,100,8|0,0:0|0:0,0:0:0:0:
212,192,67675,6,0,L|112:192,1,100,2|0,0:0|0:0,0:0:0:0:
352,104,68275,2,0,L|404:104,2,50,8|0|0,0:0|0:0|0:0,0:0:0:0:
212,104,68875,2,0,L|204:4,1,100,2|0,0:0|0:0,0:0:0:0:
444,36,69475,2,0,B|496:36,2,50,8|0|0,0:0|0:0|0:0,0:0:0:0:
288,36,70075,6,0,L|196:80,1,100,2|0,0:0|0:0,0:0:0:0:
440,76,70675,2,0,L|496:76,2,50,8|0|0,0:0|0:0|0:0,0:0:0:0:
388,76,71125,1,0,0:0:0:0:
256,76,71275,2,0,L|152:76,1,100,2|0,0:0|0:0,0:0:0:0:
376,160,71875,2,0,L|280:192,1,100,8|0,0:0|0:0,0:0:0:0:
120,192,72475,6,0,L|224:192,1,100,2|0,0:0|0:0,0:0:0:0:
440,192,73075,1,8,0:0:0:0:
184,192,73375,2,0,P|180:260|288:328,1,200,2|0,0:0|0:0,0:0:0:0:
80,328,74275,1,8,0:0:0:0:
320,328,74575,6,0,B|408:328|408:328|496:328|496:248|304:248|304:168|460:168,1,400,2|0,0:0|0:0,0:0:0:0:
196,76,76075,6,0,L|152:76,2,25,8|2|2,0:0|0:0|0:0,0:0:0:0:
288,76,76375,1,8,0:0:0:0:
212,76,76525,1,8,0:0:0:0:
432,76,76675,2,0,L|484:76,2,50,8|8|0,0:0|0:0|0:0,0:0:0:0:
52,192,77275,6,0,L|32:292,1,100,4|0,0:0|0:0,0:0:0:0:
272,292,77875,1,8,0:0:0:0:
332,292,78025,2,0,L|448:292,1,100
362,192,78475,1,2,0:0:0:0:
502,148,78775,1,0,0:0:0:0:
434,148,78925,1,0,0:0:0:0:
272,148,79075,1,8,0:0:0:0:
434,148,79375,1,0,0:0:0:0:
172,148,79675,6,0,L|80:192,1,100,2|0,0:0|0:0,0:0:0:0:
312,192,80275,2,0,L|364:192,1,50,8|0,0:0|0:0,0:0:0:0:
200,192,80725,2,0,P|152:216|140:264,1,100,2|0,0:0|0:0,0:0:0:0:
208,256,81175,2,0,L|268:256,1,50
92,256,81475,1,8,0:0:0:0:
12,192,81775,1,0,0:0:0:0:
252,192,82075,6,0,L|360:192,1,100,2|0,0:0|0:0,0:0:0:0:
120,256,82675,2,0,L|68:256,1,50,8|0,0:0|0:0,0:0:0:0:
228,192,83125,1,0,0:0:0:0:
276,235,83275,1,2,0:0:0:0:
271,300,83425,1,0,0:0:0:0:
217,335,83575,1,0,0:0:0:0:
156,336,83725,1,0,0:0:0:0:
316,336,83875,1,8,0:0:0:0:
136,336,84175,1,0,0:0:0:0:
376,192,84475,6,0,L|452:192,2,75,2|0|0,0:0|0:0|0:0,0:0:0:0:
216,108,85075,2,0,L|296:108,2,75,8|0|0,0:0|0:0|0:0,0:0:0:0:
148,108,85675,5,2,0:0:0:0:
308,108,85825,1,8,0:0:0:0:
404,192,86125,1,0,0:0:0:0:
228,192,86275,1,8,0:0:0:0:
140,192,86500,1,0,0:0:0:0:
52,192,86725,1,0,0:0:0:0:
344,96,86875,5,4,0:0:0:0:
404,96,87025,2,0,L|504:96,1,100
344,192,87475,1,8,0:0:0:0:
284,192,87625,2,0,L|212:272,1,100
308,288,88075,2,0,L|360:288,3,50,2|0|0|0,0:0|0:0|0:0|0:0,0:0:0:0:
198,288,88675,1,8,0:0:0:0:
20,288,88975,1,0,0:0:0:0:
260,288,89275,6,0,L|368:288,1,100,2|0,0:0|0:0,0:0:0:0:
120,192,89875,2,0,L|68:192,1,50,8|0,0:0|0:0,0:0:0:0:
220,192,90325,2,0,L|108:192,1,100,2|0,0:0|0:0,0:0:0:0:
52,112,90775,2,0,L|112:112,1,50
264,112,91075,1,8,0:0:0:0:
64,36,91375,1,0,0:0:0:0:
316,36,91675,6,0,L|424:36,1,100,2|0,0:0|0:0,0:0:0:0:
164,192,92275,2,0,L|112:192,1,50,8|0,0:0|0:0,0:0:0:0:
268,192,92725,2,0,L|340:124,1,100,2|0,0:0|0:0,0:0:0:0:
280,124,93175,1,0,0:0:0:0:
220,124,93325,1,0,0:0:0:0:
384,124,93475,1,8,0:0:0:0:
204,124,93775,1,0,0:0:0:0:
464,232,94075,5,2,0:0:0:0:
352,232,94300,1,0,0:0:0:0:
444,232,94525,1,0,0:0:0:0:
288,328,94675,1,8,0:0:0:0:
400,328,94900,1,0,0:0:0:0:
308,328,95125,1,0,0:0:0:0:
240,192,95275,5,2,0:0:0:0:
72,192,95425,1,8,0:0:0:0:
272,108,95725,1,0,0:0:0:0:
428,108,95875,2,0,L|440:68,2,25,8|2|2,0:0|0:0|0:0,0:0:0:0:
320,108,96175,1,8,0:0:0:0:
396,108,96325,1,8,0:0:0:0:
176,108,96475,6,0,L|76:108,1,100,4|0,0:0|0:0,0:0:0:0:
316,192,97075,1,8,0:0:0:0:
376,192,97225,2,0,L|492:192,1,100
406,92,97675,1,2,0:0:0:0:
268,92,97975,1,0,0:0:0:0:
200,92,98125,1,0,0:0:0:0:
362,92,98275,1,8,0:0:0:0:
160,92,98575,1,0,0:0:0:0:
420,92,98875,6,0,L|424:192,1,100,2|0,0:0|0:0,0:0:0:0:
164,192,99475,2,0,L|112:192,1,50,8|0,0:0|0:0,0:0:0:0:
276,192,99925,2,0,L|200:256,1,100,2|0,0:0|0:0,0:0:0:0:
128,256,100375,2,0,L|188:256,1,50
344,256,100675,1,8,0:0:0:0:
444,192,100975,1,0,0:0:0:0:
204,192,101275,6,0,L|96:192,1,100,2|0,0:0|0:0,0:0:0:0:
336,128,101875,2,0,L|388:128,1,50,8|0,0:0|0:0,0:0:0:0:
228,192,102325,1,0,0:0:0:0:
168,160,102475,1,2,0:0:0:0:
228,128,102625,1,0,0:0:0:0:
288,96,102775,1,0,0:0:0:0:
228,60,102925,1,0,0:0:0:0:
68,60,103075,1,8,0:0:0:0:
248,60,103375,1,0,0:0:0:0:
8,192,103675,6,0,L|84:192,2,75,2|0|0,0:0|0:0|0:0,0:0:0:0:
188,276,104275,2,0,L|112:276,2,75,8|0|0,0:0|0:0|0:0,0:0:0:0:
92,276,104875,5,2,0:0:0:0:
268,276,105025,1,8,0:0:0:0:
388,192,105325,1,0,0:0:0:0:
228,192,105475,1,8,0:0:0:0:
328,192,105700,1,0,0:0:0:0:
428,192,105925,1,0,0:0:0:0:
164,196,106075,5,4,0:0:0:0:
104,196,106225,2,0,L|4:196,1,100
144,104,106675,1,8,0:0:0:0:
224,104,106825,2,0,L|324:104,1,100
228,196,107275,2,0,L|176:196,1,50,2|0,0:0|0:0,0:0:0:0:
104,272,107575,2,0,L|156:272,1,50
316,272,107875,1,8,0:0:0:0:
136,272,108175,1,0,0:0:0:0:
376,272,108475,6,0,L|472:244,1,100,2|0,0:0|0:0,0:0:0:0:
236,176,109075,2,0,L|184:176,1,50,8|0,0:0|0:0,0:0:0:0:
36,96,109525,2,0,L|148:96,1,100,2|0,0:0|0:0,0:0:0:0:
68,176,109975,2,0,L|128:176,1,50
280,176,110275,1,8,0:0:0:0:
80,96,110575,1,0,0:0:0:0:
340,96,110875,6,0,L|448:96,1,100,2|0,0:0|0:0,0:0:0:0:
188,252,111475,2,0,L|136:252,1,50,8|0,0:0|0:0,0:0:0:0:
292,252,111925,2,0,L|208:196,1,100,2|0,0:0|0:0,0:0:0:0:
268,196,112375,1,0,0:0:0:0:
328,196,112525,1,0,0:0:0:0:
164,196,112675,1,8,0:0:0:0:
364,196,112975,1,0,0:0:0:0:
256,192,113275,12,6,115675,0:0:0:0:
