osu file format v14

[General]
AudioFilename: audio.mp3
AudioLeadIn: 0
PreviewTime: 77275
Countdown: 0
SampleSet: Soft
StackLeniency: 0.7
Mode: 2
LetterboxInBreaks: 0
WidescreenStoryboard: 1

[Editor]
DistanceSpacing: 1.1
BeatDivisor: 4
GridSize: 8
TimelineZoom: 1

[Metadata]
Title:Shelter
TitleUnicode:Shelter
Artist:Porter Robinson & Madeon
ArtistUnicode:Porter Robinson & Madeon
Creator:JBHyperion
Version:Absolute Zero's Cup
Source:Shelter
Tags:electro house dubstep rin absolute zero wildone94 magic bomb mbomb a-1 pictures crunchyroll
BeatmapID:1259884
BeatmapSetID:595730

[Difficulty]
HPDrainRate:3
CircleSize:2.5
OverallDifficulty:5.5
ApproachRate:5.5
SliderMultiplier:1.4
SliderTickRate:1

[Events]
//Background and Video events
0,0,"maxresdefault.jpg",0,0
//Break Periods
//Storyboard Layer 0 (Background)
//Storyboard Layer 1 (Fail)
//Storyboard Layer 2 (Pass)
//Storyboard Layer 3 (Foreground)
//Storyboard Sound Samples

[TimingPoints]
475,600,4,2,77,30,1,0
19075,-100,4,2,69,30,0,0
19675,-100,4,2,78,50,0,1
38275,-100,4,2,77,35,0,1
38875,-100,4,2,77,35,0,0
43075,-100,4,2,69,40,0,0
43675,-100,4,2,78,40,0,0
57475,-100,4,2,69,40,0,0
58075,-100,4,2,77,30,0,0
76075,-100,4,2,78,40,0,0
76675,-100,4,2,69,35,0,0
77275,-100,4,2,78,50,0,1
96325,-100,4,2,78,50,0,0
96475,-100,4,2,78,50,0,1
114475,-100,4,2,78,40,0,1
114775,-100,4,2,78,30,0,1
115075,-100,4,2,78,20,0,1
115375,-100,4,2,78,10,0,1
115675,-100,4,2,78,5,0,0

[Colours]
Combo1 : 30,165,158
Combo2 : 238,220,130
Combo3 : 69,139,116
Combo4 : 205,155,29

[HitObjects]
296,192,475,6,0,L|448:192,2,140,2|0|0,0:0|0:0|0:0,0:0:0:0:
144,88,2275,1,2,0:0:0:0:
288,168,2875,6,0,L|136:168,2,140,2|0|2,0:0|0:0|0:0,0:0:0:0:
432,168,4675,2,0,L|352:168,1,70,2|0,0:0|0:0,0:0:0:0:
296,168,5275,6,0,L|144:168,2,140,2|0|2,0:0|0:0|0:0,0:0:0:0:
192,88,7075,1,2,0:0:0:0:
104,88,7375,1,0,0:0:0:0:
192,88,7675,6,0,L|336:88,1,140,2|0,0:0|0:0,0:0:0:0:
208,184,8875,2,0,L|56:184,1,140,2|2,0:0|0:0,0:0:0:0:
240,72,10075,6,0,L|400:72,1,140,6|8,0:0|0:0,0:0:0:0:
272,176,11275,1,2,0:0:0:0:
152,176,11875,1,8,0:0:0:0:
256,176,12175,1,0,0:0:0:0:
152,104,12475,6,0,L|0:104,1,140,2|8,0:0|0:0,0:0:0:0:
152,192,13675,1,2,0:0:0:0:
264,56,14275,2,0,L|352:56,1,70,8|0,0:0|0:0,0:0:0:0:
400,136,14875,6,0,L|248:136,1,140,2|8,0:0|0:0,0:0:0:0:
120,128,16075,1,2,0:0:0:0:
296,128,16675,1,8,0:0:0:0:
216,128,16975,1,0,0:0:0:0:
296,128,17275,6,0,L|448:128,1,140,2|2,0:0|0:0,0:0:0:0:
296,232,18475,2,0,L|128:232,1,140,2|2,0:0|0:0,0:0:0:0:
216,128,19225,1,8,0:0:0:0:
384,128,19675,6,0,P|440:184|400:224,1,140,4|8,0:0|0:0,0:0:0:0:
256,208,20875,2,0,L|88:208,1,140,2|8,0:0|0:0,0:0:0:0:
200,104,21775,1,0,0:0:0:0:
296,104,22075,6,0,P|360:104|352:168,1,140,2|8,0:0|0:0,0:0:0:0:
176,192,23275,2,0,L|8:192,1,140,2|8,0:0|0:0,0:0:0:0:
112,104,24175,1,0,0:0:0:0:
208,104,24475,6,0,L|352:104,1,140,2|8,0:0|0:0,0:0:0:0:
184,200,25675,2,0,L|32:200,1,140,2|8,0:0|0:0,0:0:0:0:
144,104,26575,1,0,0:0:0:0:
240,104,26875,5,2,0:0:0:0:
72,104,27475,1,8,0:0:0:0:
224,104,28075,1,2,0:0:0:0:
144,104,28375,1,0,0:0:0:0:
64,104,28675,1,8,0:0:0:0:
224,104,29275,6,0,L|376:104,1,140,4|8,0:0|0:0,0:0:0:0:
232,104,30475,1,2,0:0:0:0:
376,104,31075,2,0,L|472:104,1,70,8|0,0:0|0:0,0:0:0:0:
312,200,31675,6,0,L|152:200,1,140,2|8,0:0|0:0,0:0:0:0:
64,96,32875,2,0,L|216:96,1,140,2|8,0:0|0:0,0:0:0:0:
296,96,33775,1,0,0:0:0:0:
184,168,34075,6,0,L|16:168,1,140,4|8,0:0|0:0,0:0:0:0:
184,168,35275,1,2,0:0:0:0:
328,168,35875,2,0,L|408:168,1,70,8|0,0:0|0:0,0:0:0:0:
288,64,36475,6,0,L|136:64,2,140,2|8|2,0:0|0:0|0:0,0:0:0:0:
384,64,37975,1,0,0:0:0:0:
296,64,38275,1,8,0:0:0:0:
416,64,38875,6,0,B|472:96|472:96|416:160,1,140,2|2,0:0|0:0,0:0:0:0:
256,144,40075,2,0,L|112:144,1,140,2|2,0:0|0:0,0:0:0:0:
264,224,41275,6,0,L|112:224,1,140,2|0,0:0|0:0,0:0:0:0:
208,112,42175,2,0,L|288:112,1,70,0|2,0:0|0:0,0:0:0:0:
432,216,43075,2,0,L|344:216,1,70,8|0,0:0|0:0,0:0:0:0:
464,96,43675,6,0,L|320:96,1,140,2|8,0:0|0:0,0:0:0:0:
176,96,44875,2,0,L|32:96,1,140,2|8,0:0|0:0,0:0:0:0:
176,200,46075,6,0,L|320:200,1,140,2|8,0:0|0:0,0:0:0:0:
464,88,47275,1,2,0:0:0:0:
384,88,47575,1,0,0:0:0:0:
288,88,47875,2,0,L|192:88,1,70,8|8,0:0|0:0,0:0:0:0:
160,192,48475,5,6,0:0:0:0:
320,192,49075,2,0,L|464:192,1,140,8|2,0:0|0:0,0:0:0:0:
312,80,50275,1,8,0:0:0:0:
88,88,50875,6,0,L|192:192,1,140,2|8,0:0|0:0,0:0:0:0:
288,80,52075,2,0,L|144:80,1,140,2|8,0:0|0:0,0:0:0:0:
336,80,53275,6,0,B|400:80|400:80|312:80,1,140,2|8,0:0|0:0,0:0:0:0:
208,80,54475,2,0,L|352:80,1,140,2|8,0:0|0:0,0:0:0:0:
216,80,55675,5,2,0:0:0:0:
24,136,56275,2,0,L|152:72,1,140,8|2,0:0|0:0,0:0:0:0:
280,80,57475,1,8,0:0:0:0:
192,80,57775,1,0,0:0:0:0:
88,80,58075,6,0,B|16:80|16:80|16:168,1,140,2|8,0:0|0:0,0:0:0:0:
144,184,59275,1,2,0:0:0:0:
272,184,59875,1,8,0:0:0:0:
144,64,60475,6,0,L|288:64,1,140,2|8,0:0|0:0,0:0:0:0:
400,64,61675,1,2,0:0:0:0:
264,64,62275,1,8,0:0:0:0:
328,64,62575,1,0,0:0:0:0:
400,64,62875,6,0,B|472:64|472:64|448:144,1,140,2|8,0:0|0:0,0:0:0:0:
328,160,64075,1,2,0:0:0:0:
200,160,64675,1,8,0:0:0:0:
344,160,65275,6,0,L|192:160,1,140,2|8,0:0|0:0,0:0:0:0:
96,160,66475,1,2,0:0:0:0:
232,192,67075,1,8,0:0:0:0:
128,192,67375,1,0,0:0:0:0:
232,192,67675,5,2,0:0:0:0:
360,72,68275,1,8,0:0:0:0:
448,72,68575,1,0,0:0:0:0:
360,72,68875,1,2,0:0:0:0:
144,192,69475,2,0,L|64:192,1,70,8|0,0:0|0:0,0:0:0:0:
144,192,70075,5,2,0:0:0:0:
288,192,70675,2,0,L|384:192,1,70,8|2,0:0|0:0,0:0:0:0:
408,192,71275,1,0,0:0:0:0:
240,80,71875,2,0,L|144:80,1,70,8|0,0:0|0:0,0:0:0:0:
280,80,72475,5,6,0:0:0:0:
104,192,73075,2,0,L|8:192,1,70,8|8,0:0|0:0,0:0:0:0:
272,280,74275,2,0,L|344:280,1,70,8|8,0:0|0:0,0:0:0:0:
96,104,76075,5,8,0:0:0:0:
216,104,76375,1,8,0:0:0:0:
336,104,76675,1,8,0:0:0:0:
96,104,77275,6,0,L|240:104,1,140,4|8,0:0|0:0,0:0:0:0:
336,192,78475,2,0,L|184:192,1,140,2|8,0:0|0:0,0:0:0:0:
120,96,79375,1,0,0:0:0:0:
232,96,79675,6,0,L|392:96,2,140,2|8|2,0:0|0:0|0:0,0:0:0:0:
368,192,81475,2,0,L|288:192,1,70,8|0,0:0|0:0,0:0:0:0:
188,192,82075,6,0,L|336:192,1,140,2|8,0:0|0:0,0:0:0:0:
428,192,83275,2,0,L|280:192,1,140,2|8,0:0|0:0,0:0:0:0:
216,192,84175,1,0,0:0:0:0:
336,192,84475,5,2,0:0:0:0:
476,192,85075,1,8,0:0:0:0:
316,192,85675,1,2,0:0:0:0:
460,192,86275,1,8,0:0:0:0:
240,80,86875,6,0,L|96:80,1,140,4|8,0:0|0:0,0:0:0:0:
240,200,88075,1,2,0:0:0:0:
384,200,88675,2,0,L|480:200,1,70,8|0,0:0|0:0,0:0:0:0:
496,112,89275,6,0,L|336:112,1,140,2|8,0:0|0:0,0:0:0:0:
200,112,90475,1,2,0:0:0:0:
344,112,91075,2,0,L|424:112,1,70,8|0,0:0|0:0,0:0:0:0:
312,112,91675,6,0,L|160:112,1,140,2|8,0:0|0:0,0:0:0:0:
88,192,92875,2,0,L|232:192,1,140,2|8,0:0|0:0,0:0:0:0:
312,192,93775,1,0,0:0:0:0:
216,192,94075,5,2,0:0:0:0:
80,192,94675,1,8,0:0:0:0:
224,192,95275,1,2,0:0:0:0:
88,192,95875,1,2,0:0:0:0:
168,192,96175,1,0,0:0:0:0:
272,80,96475,6,0,L|416:80,1,140,4|8,0:0|0:0,0:0:0:0:
248,192,97675,2,0,L|96:192,1,140,2|8,0:0|0:0,0:0:0:0:
200,96,98575,1,0,0:0:0:0:
288,96,98875,6,0,L|432:96,2,140,2|8|2,0:0|0:0|0:0,0:0:0:0:
136,96,100675,2,0,L|56:96,1,70,8|0,0:0|0:0,0:0:0:0:
160,192,101275,6,0,L|312:192,1,140,2|8,0:0|0:0,0:0:0:0:
136,192,102475,1,2,0:0:0:0:
312,192,103075,1,8,0:0:0:0:
216,192,103375,1,0,0:0:0:0:
96,72,103675,5,2,0:0:0:0:
264,72,104275,1,8,0:0:0:0:
72,72,104875,1,2,0:0:0:0:
264,72,105475,1,8,0:0:0:0:
104,72,106075,6,0,L|264:72,1,140,4|8,0:0|0:0,0:0:0:0:
96,144,107275,2,0,L|240:144,1,140,2|8,0:0|0:0,0:0:0:0:
360,144,108175,1,0,0:0:0:0:
464,296,108475,6,0,L|320:296,2,140,2|8|2,0:0|0:0|0:0,0:0:0:0:
320,184,110275,2,0,L|232:184,1,70,8|0,0:0|0:0,0:0:0:0:
160,184,110875,6,0,L|16:184,1,140,2|8,0:0|0:0,0:0:0:0:
160,184,112075,2,0,L|320:184,1,140,2|8,0:0|0:0,0:0:0:0:
208,80,112975,1,0,0:0:0:0:
256,192,113275,12,6,115675,0:0:0:0:
