osu file format v14

[General]
AudioFilename: audio.mp3
AudioLeadIn: 0
PreviewTime: 77275
Countdown: 0
SampleSet: Soft
StackLeniency: 0.7
Mode: 2
LetterboxInBreaks: 0
WidescreenStoryboard: 0

[Editor]
DistanceSpacing: 1.5
BeatDivisor: 8
GridSize: 4
TimelineZoom: 2.2

[Metadata]
Title:Shelter
TitleUnicode:Shelter
Artist:Porter Robinson & Madeon
ArtistUnicode:Porter Robinson & Madeon
Creator:JBHyperion
Version:Collab Rain
Source:Shelter
Tags:electro house dubstep rin absolute zero wildone94 magic bomb mbomb a-1 pictures crunchyroll
BeatmapID:1259885
BeatmapSetID:595730

[Difficulty]
HPDrainRate:6
CircleSize:4.5
OverallDifficulty:8.7
ApproachRate:8.7
SliderMultiplier:2
SliderTickRate:1

[Events]
//Background and Video events
0,0,"maxresdefault.jpg",0,0
//Break Periods
//Storyboard Layer 0 (Background)
//Storyboard Layer 1 (Fail)
//Storyboard Layer 2 (Pass)
//Storyboard Layer 3 (Foreground)
//Storyboard Sound Samples

[TimingPoints]
475,600,4,2,77,30,1,0
7675,-100,4,2,77,35,0,0
10075,-100,4,2,77,50,0,0
10375,-100,4,2,77,35,0,0
17275,-100,4,2,77,30,0,0
19075,-100,4,2,69,40,0,0
19675,-100,4,2,78,50,0,1
28225,-100,4,2,69,40,0,1
28525,-100,4,2,78,50,0,1
38275,-100,4,2,77,35,0,1
38500,-100,4,2,77,25,0,1
38875,-100,4,2,77,35,0,0
43075,-100,4,2,69,40,0,0
43675,-100,4,2,78,40,0,0
57475,-100,4,2,69,40,0,0
58075,-100,4,2,77,30,0,0
76075,-100,4,2,78,40,0,0
76675,-100,4,2,69,35,0,0
77275,-66.6666666666667,4,2,78,50,0,1
80425,-50,4,2,78,50,0,1
80725,-66.6666666666667,4,2,78,50,0,1
85825,-66.6666666666667,4,2,69,40,0,1
86125,-66.6666666666667,4,2,78,50,0,1
90025,-50,4,2,78,50,0,1
90325,-66.6666666666667,4,2,78,50,0,1
95425,-66.6666666666667,4,2,69,40,0,1
95725,-66.6666666666667,4,2,78,50,0,1
96325,-66.6666666666667,4,2,78,50,0,0
96475,-66.6666666666667,4,2,78,50,0,1
99625,-50,4,2,78,50,0,1
99925,-66.6666666666667,4,2,78,50,0,1
105025,-66.6666666666667,4,2,69,40,0,1
105325,-66.6666666666667,4,2,78,50,0,1
109225,-50,4,2,78,50,0,1
109525,-66.6666666666667,4,2,78,50,0,1
114475,-66.6666666666667,4,2,78,40,0,1
114775,-66.6666666666667,4,2,78,30,0,1
115075,-66.6666666666667,4,2,78,20,0,1
115375,-66.6666666666667,4,2,78,10,0,1
115675,-50,4,2,78,5,0,0

[Colours]
Combo1 : 30,165,158
Combo2 : 238,220,130
Combo3 : 69,139,116
Combo4 : 205,155,29

[HitObjects]
168,192,475,5,2,0:0:0:0:
448,192,1075,2,0,L|452:136,1,50
216,192,1525,2,0,P|80:160|96:64,1,250,2|2,0:0|0:0,0:0:0:0:
368,192,2875,5,2,0:0:0:0:
88,192,3475,2,0,L|84:140,1,50
320,192,3925,2,0,P|300:124|144:40,1,250,2|2,0:0|0:0,0:0:0:0:
28,192,4975,1,0,0:0:0:0:
404,192,5275,5,2,0:0:0:0:
124,192,5875,2,0,L|212:192,1,50
407,192,6325,2,0,P|484:111|397:41,1,250,2|2,0:0|0:0,0:0:0:0:
272,192,7375,1,0,0:0:0:0:
32,192,7675,6,0,L|108:192,2,75,2|0|0,0:0|0:0|0:0,0:0:0:0:
208,192,8275,1,2,0:0:0:0:
304,192,8500,1,0,0:0:0:0:
368,192,8725,1,0,0:0:0:0:
196,272,8875,2,0,L|272:272,2,75,2|0|0,0:0|0:0|0:0,0:0:0:0:
368,272,9475,2,0,L|289:272,2,75,2|0|0,0:0|0:0|0:0,0:0:0:0:
116,192,10075,5,4,0:0:0:0:
56,164,10225,1,0,0:0:0:0:
80,104,10375,1,0,0:0:0:0:
144,104,10525,1,0,0:0:0:0:
312,192,10675,2,0,L|368:192,2,50,8|0|0,0:0|0:0|0:0,0:0:0:0:
136,192,11125,1,0,0:0:0:0:
92,171,11275,5,2,0:0:0:0:
81,124,11425,1,2,0:0:0:0:
112,88,11575,1,2,0:0:0:0:
161,91,11725,1,2,0:0:0:0:
326,192,11875,2,0,L|254:192,1,50,8|0,0:0|0:0,0:0:0:0:
142,192,12175,2,0,L|198:192,1,50,0|0,0:0|0:0,0:0:0:0:
400,192,12475,5,2,0:0:0:0:
448,192,12625,1,0,0:0:0:0:
448,148,12775,1,0,0:0:0:0:
400,148,12925,1,0,0:0:0:0:
250,192,13075,1,8,0:0:0:0:
170,192,13225,2,0,L|234:192,1,50,0|0,0:0|0:0,0:0:0:0:
370,192,13525,1,2,0:0:0:0:
418,189,13675,5,0,0:0:0:0:
448,152,13825,1,0,0:0:0:0:
439,104,13975,1,0,0:0:0:0:
397,80,14125,1,0,0:0:0:0:
226,192,14275,2,0,L|170:192,1,50,8|0,0:0|0:0,0:0:0:0:
384,192,14575,2,0,L|456:192,1,50,0|0,0:0|0:0,0:0:0:0:
200,192,14875,5,2,0:0:0:0:
136,192,15025,1,0,0:0:0:0:
135,147,15175,1,0,0:0:0:0:
168,114,15325,1,0,0:0:0:0:
316,192,15475,1,8,0:0:0:0:
256,192,15625,2,0,L|192:192,1,50,0|0,0:0|0:0,0:0:0:0:
368,192,15925,1,0,0:0:0:0:
352,140,16075,5,2,0:0:0:0:
297,132,16225,1,2,0:0:0:0:
240,136,16375,1,2,0:0:0:0:
224,188,16525,1,2,0:0:0:0:
392,192,16675,2,0,L|336:192,1,50,8|0,0:0|0:0,0:0:0:0:
176,192,16975,2,0,L|240:192,1,50,0|0,0:0|0:0,0:0:0:0:
440,192,17275,6,0,L|348:192,2,75,2|0|0,0:0|0:0|0:0,0:0:0:0:
264,192,17875,2,0,L|356:192,2,75,2|0|0,0:0|0:0|0:0,0:0:0:0:
88,192,18475,2,0,L|8:192,2,75,2|0|0,0:0|0:0|0:0,0:0:0:0:
188,192,19075,1,2,0:0:0:0:
432,192,19225,1,8,0:0:0:0:
204,192,19525,1,0,0:0:0:0:
432,192,19675,5,4,0:0:0:0:
482,192,19825,1,0,0:0:0:0:
484,152,19975,1,0,0:0:0:0:
434,152,20125,1,0,0:0:0:0:
208,192,20275,1,8,0:0:0:0:
120,192,20425,2,0,L|120:128,1,50
208,192,20725,1,0,0:0:0:0:
376,192,20875,5,2,0:0:0:0:
422,188,21025,1,0,0:0:0:0:
431,143,21175,1,0,0:0:0:0:
389,122,21325,1,0,0:0:0:0:
176,192,21475,1,8,0:0:0:0:
376,192,21775,1,0,0:0:0:0:
16,192,22075,5,2,0:0:0:0:
24,136,22225,1,0,0:0:0:0:
68,112,22375,1,0,0:0:0:0:
128,112,22525,1,0,0:0:0:0:
352,192,22675,1,8,0:0:0:0:
452,192,22825,2,0,L|372:192,1,50
252,192,23125,1,2,0:0:0:0:
104,192,23275,5,0,0:0:0:0:
57,182,23425,1,0,0:0:0:0:
40,137,23575,1,0,0:0:0:0:
70,99,23725,1,0,0:0:0:0:
288,192,23875,1,8,0:0:0:0:
88,192,24175,1,0,0:0:0:0:
448,192,24475,5,2,0:0:0:0:
490,172,24625,1,0,0:0:0:0:
485,125,24775,1,0,0:0:0:0:
440,115,24925,1,0,0:0:0:0:
224,192,25075,1,8,0:0:0:0:
124,192,25225,2,0,L|52:192,1,50
184,192,25525,1,2,0:0:0:0:
352,192,25675,5,0,0:0:0:0:
408,188,25825,1,0,0:0:0:0:
452,164,25975,1,0,0:0:0:0:
463,115,26125,1,0,0:0:0:0:
256,192,26275,1,8,0:0:0:0:
456,192,26575,1,0,0:0:0:0:
96,192,26875,6,0,L|20:192,2,75,2|0|0,0:0|0:0|0:0,0:0:0:0:
368,192,27475,2,0,L|452:192,2,75,8|0|0,0:0|0:0|0:0,0:0:0:0:
96,192,28075,2,0,L|16:192,2,75,2|0|0,0:0|0:0|0:0,0:0:0:0:
392,192,28675,2,0,L|468:192,2,75,8|0|0,0:0|0:0|0:0,0:0:0:0:
120,192,29275,5,4,0:0:0:0:
71,193,29425,1,0,0:0:0:0:
36,159,29575,1,0,0:0:0:0:
37,111,29725,1,0,0:0:0:0:
256,192,29875,1,8,0:0:0:0:
348,192,30025,2,0,L|348:136,1,50
200,192,30325,1,0,0:0:0:0:
50,192,30475,5,2,0:0:0:0:
112,192,30625,1,0,0:0:0:0:
112,192,30775,1,0,0:0:0:0:
50,192,30925,1,0,0:0:0:0:
264,192,31075,1,8,0:0:0:0:
64,192,31375,1,0,0:0:0:0:
424,192,31675,5,2,0:0:0:0:
469,185,31825,1,0,0:0:0:0:
473,139,31975,1,0,0:0:0:0:
429,126,32125,1,0,0:0:0:0:
216,192,32275,1,8,0:0:0:0:
116,192,32425,2,0,L|28:192,1,50
216,192,32725,1,2,0:0:0:0:
364,192,32875,5,0,0:0:0:0:
411,187,33025,1,0,0:0:0:0:
436,145,33175,1,0,0:0:0:0:
192,192,33475,1,8,0:0:0:0:
456,192,33775,1,0,0:0:0:0:
56,192,34075,5,2,0:0:0:0:
19,161,34225,1,0,0:0:0:0:
27,115,34375,1,0,0:0:0:0:
72,99,34525,1,0,0:0:0:0:
284,192,34675,1,8,0:0:0:0:
384,192,34825,2,0,L|344:132,1,50
260,192,35125,1,2,0:0:0:0:
436,192,35275,6,0,L|492:192,2,50
364,192,35725,1,0,0:0:0:0:
152,192,35875,1,8,0:0:0:0:
376,192,36175,1,0,0:0:0:0:
16,192,36475,6,0,L|88:156,2,75,2|0|0,0:0|0:0|0:0,0:0:0:0:
288,192,37075,2,0,L|220:160,2,75,8|0|0,0:0|0:0|0:0,0:0:0:0:
16,192,37675,6,0,L|88:156,2,75,2|0|0,0:0|0:0|0:0,0:0:0:0:
224,192,38275,1,8,0:0:0:0:
344,192,38500,1,8,0:0:0:0:
432,192,38725,1,0,0:0:0:0:
128,192,38875,5,2,0:0:0:0:
288,192,39475,1,8,0:0:0:0:
80,192,39775,1,0,0:0:0:0:
328,192,40075,2,0,L|192:192,1,100
400,192,40675,2,0,P|397:140|320:128,1,100,8|0,0:0|0:0,0:0:0:0:
72,192,41275,6,0,P|126:118|224:88,1,150,2|0,0:0|0:0,0:0:0:0:
360,192,42175,1,0,0:0:0:0:
480,192,42475,1,2,0:0:0:0:
56,192,43075,2,0,L|112:192,2,50,8|0|0,0:0|0:0|0:0,0:0:0:0:
304,192,43675,5,2,0:0:0:0:
352,192,43825,1,0,0:0:0:0:
382,154,43975,1,0,0:0:0:0:
371,107,44125,1,0,0:0:0:0:
200,192,44275,1,8,0:0:0:0:
88,192,44425,2,0,L|160:192,1,50
352,192,44725,1,0,0:0:0:0:
416,192,44875,6,0,L|352:192,1,50,2|0,0:0|0:0,0:0:0:0:
208,192,45175,2,0,L|264:192,1,50,0|0,0:0|0:0,0:0:0:0:
432,192,45475,1,8,0:0:0:0:
432,136,45625,1,0,0:0:0:0:
392,96,45775,1,0,0:0:0:0:
320,88,45925,1,0,0:0:0:0:
96,192,46075,5,2,0:0:0:0:
32,192,46225,1,0,0:0:0:0:
32,192,46375,1,0,0:0:0:0:
96,192,46525,1,0,0:0:0:0:
248,192,46675,1,8,0:0:0:0:
112,192,46975,2,0,L|168:192,1,50,0|0,0:0|0:0,0:0:0:0:
320,192,47275,6,0,L|400:192,1,50,2|0,0:0|0:0,0:0:0:0:
212,192,47575,2,0,L|132:192,1,50,0|0,0:0|0:0,0:0:0:0:
370,192,47875,1,8,0:0:0:0:
403,192,47950,1,8,0:0:0:0:
436,192,48025,1,8,0:0:0:0:
232,192,48175,2,0,L|176:192,1,50,8|2,0:0|0:0,0:0:0:0:
400,192,48475,5,4,0:0:0:0:
464,192,48625,1,0,0:0:0:0:
464,192,48775,1,0,0:0:0:0:
400,192,48925,1,0,0:0:0:0:
192,192,49075,1,8,0:0:0:0:
64,192,49225,2,0,L|8:192,2,50,0|0|0,0:0|0:0|0:0,0:0:0:0:
224,192,49675,6,0,L|288:192,1,50,2|0,0:0|0:0,0:0:0:0:
114,192,49975,2,0,L|42:192,1,50,0|0,0:0|0:0,0:0:0:0:
288,192,50275,1,8,0:0:0:0:
232,192,50425,1,0,0:0:0:0:
176,192,50575,1,0,0:0:0:0:
144,192,50725,1,0,0:0:0:0:
348,192,50875,6,0,L|404:192,2,50,2|0|0,0:0|0:0|0:0,0:0:0:0:
220,192,51325,1,0,0:0:0:0:
424,192,51475,1,8,0:0:0:0:
496,192,51625,1,0,0:0:0:0:
440,192,51775,1,0,0:0:0:0:
376,192,51925,1,0,0:0:0:0:
224,192,52075,6,0,L|160:192,2,50,2|0|0,0:0|0:0|0:0,0:0:0:0:
92,192,52525,1,0,0:0:0:0:
296,192,52675,1,8,0:0:0:0:
384,192,52825,2,0,L|448:192,2,50,0|0|0,0:0|0:0|0:0,0:0:0:0:
168,192,53275,5,2,0:0:0:0:
88,192,53425,1,0,0:0:0:0:
40,160,53575,1,0,0:0:0:0:
16,112,53725,1,0,0:0:0:0:
232,192,53875,1,8,0:0:0:0:
352,192,54025,2,0,L|424:192,1,50,0|0,0:0|0:0,0:0:0:0:
280,192,54325,1,0,0:0:0:0:
368,192,54475,6,0,L|312:192,1,50,2|0,0:0|0:0,0:0:0:0:
456,192,54775,2,0,L|400:192,1,50,0|0,0:0|0:0,0:0:0:0:
176,192,55075,2,0,L|96:192,3,50,8|0|0|0,0:0|0:0|0:0|0:0,0:0:0:0:
336,192,55675,5,2,0:0:0:0:
357,149,55825,1,0,0:0:0:0:
337,105,55975,1,0,0:0:0:0:
290,94,56125,1,0,0:0:0:0:
80,192,56275,1,8,0:0:0:0:
59,149,56425,1,0,0:0:0:0:
79,105,56575,1,0,0:0:0:0:
126,94,56725,1,0,0:0:0:0:
280,192,56875,6,0,L|224:192,3,50,2|0|0|0,0:0|0:0|0:0|0:0,0:0:0:0:
448,192,57475,2,0,L|480:192,2,25,8|0|0,0:0|0:0|0:0,0:0:0:0:
224,192,57775,2,0,L|128:192,1,50
384,192,58075,6,0,P|488:128|496:96,1,150,2|0,0:0|0:0,0:0:0:0:
192,192,58975,2,0,L|296:192,2,100,0|2|0,0:0|0:0|0:0,0:0:0:0:
12,192,59875,1,8,0:0:0:0:
116,192,60175,1,0,0:0:0:0:
476,192,60475,6,0,P|364:112|324:112,2,150,2|0|0,0:0|0:0|0:0,0:0:0:0:
336,192,61675,1,2,0:0:0:0:
36,192,62275,2,0,L|132:112,1,100,8|0,0:0|0:0,0:0:0:0:
372,192,62875,6,0,B|468:192|468:192|388:192,1,150,2|0,0:0|0:0,0:0:0:0:
156,192,63775,2,0,P|224:244|156:304,1,200,2|0,0:0|0:0,0:0:0:0:
368,192,64675,2,0,L|480:192,1,100,8|0,0:0|0:0,0:0:0:0:
48,192,65275,6,0,P|160:112|200:112,2,150,2|0|0,0:0|0:0|0:0,0:0:0:0:
184,192,66475,1,2,0:0:0:0:
328,192,66775,1,2,0:0:0:0:
96,192,67075,1,8,0:0:0:0:
352,192,67375,1,0,0:0:0:0:
96,192,67675,6,0,L|16:192,3,50,2|0|0|0,0:0|0:0|0:0|0:0,0:0:0:0:
200,192,68275,2,0,L|256:192,1,50,8|0,0:0|0:0,0:0:0:0:
96,192,68575,2,0,L|160:192,1,50,0|0,0:0|0:0,0:0:0:0:
288,192,68875,5,2,0:0:0:0:
312,152,69025,1,0,0:0:0:0:
296,100,69175,1,0,0:0:0:0:
248,92,69325,1,0,0:0:0:0:
96,192,69475,2,0,L|152:192,1,50,8|0,0:0|0:0,0:0:0:0:
296,192,69775,2,0,L|392:192,1,50,0|0,0:0|0:0,0:0:0:0:
184,192,70075,5,2,0:0:0:0:
138,179,70225,1,0,0:0:0:0:
120,134,70375,1,0,0:0:0:0:
144,92,70525,1,0,0:0:0:0:
304,192,70675,2,0,L|368:192,1,50,8|0,0:0|0:0,0:0:0:0:
496,192,70975,2,0,L|424:192,1,50,0|0,0:0|0:0,0:0:0:0:
304,192,71275,6,0,L|232:192,1,50,2|0,0:0|0:0,0:0:0:0:
416,192,71575,2,0,L|488:192,1,50,0|0,0:0|0:0,0:0:0:0:
304,192,71875,1,8,0:0:0:0:
224,192,72025,1,0,0:0:0:0:
176,192,72175,1,0,0:0:0:0:
240,192,72325,1,0,0:0:0:0:
372,192,72475,6,0,P|412:160|408:112,1,100,2|0,0:0|0:0,0:0:0:0:
144,192,73075,1,8,0:0:0:0:
408,192,73375,1,2,0:0:0:0:
272,192,73675,2,0,L|376:192,1,100,0|0,0:0|0:0,0:0:0:0:
104,192,74275,1,8,0:0:0:0:
248,192,74575,1,2,0:0:0:0:
400,192,74875,6,0,P|507:144|396:96,1,300
96,192,76075,5,8,0:0:0:0:
56,192,76150,1,2,0:0:0:0:
96,192,76225,1,2,0:0:0:0:
248,192,76375,2,0,L|312:192,1,50,8|8,0:0|0:0,0:0:0:0:
80,192,76675,1,8,0:0:0:0:
36,174,76825,1,8,0:0:0:0:
42,127,76975,1,0,0:0:0:0:
88,120,77125,1,0,0:0:0:0:
328,120,77275,5,4,0:0:0:0:
404,120,77425,2,0,P|392:188|320:196,1,150.000005722046
108,188,77875,1,8,0:0:0:0:
32,188,78025,2,0,P|44:120|116:112,1,150.000005722046,0|0,0:0|0:0,0:0:0:0:
232,120,78475,6,0,L|296:164,1,75.0000028610231,2|0,0:0|0:0,0:0:0:0:
160,192,78775,2,0,L|224:236,1,75.0000028610231,0|0,0:0|0:0,0:0:0:0:
432,232,79075,1,8,0:0:0:0:
274,233,79375,2,0,L|200:224,1,75.0000028610231,0|0,0:0|0:0,0:0:0:0:
476,232,79675,6,0,B|432:296|432:296|348:296,1,150.000005722046,2|0,0:0|0:0,0:0:0:0:
288,296,80125,1,0,0:0:0:0:
64,292,80275,1,8,0:0:0:0:
132,292,80425,2,0,P|204:248|132:200,1,200,0|2,0:0|0:0,0:0:0:0:
12,192,80875,6,0,L|80:156,1,75.0000028610231
160,116,81175,2,0,L|92:80,1,75.0000028610231,0|0,0:0|0:0,0:0:0:0:
320,88,81475,1,8,0:0:0:0:
105,84,81775,1,0,0:0:0:0:
480,88,82075,5,2,0:0:0:0:
503,144,82225,1,0,0:0:0:0:
488,204,82375,1,0,0:0:0:0:
428,224,82525,1,0,0:0:0:0:
216,220,82675,1,8,0:0:0:0:
140,220,82825,2,0,P|72:232|60:304,1,150.000005722046,0|0,0:0|0:0,0:0:0:0:
192,304,83275,6,0,L|272:304,2,75.0000028610231,2|0|0,0:0|0:0|0:0,0:0:0:0:
116,304,83725,1,0,0:0:0:0:
328,228,83875,1,8,0:0:0:0:
170,229,84175,2,0,L|236:192,1,75.0000028610231,0|0,0:0|0:0,0:0:0:0:
468,192,84475,5,2,0:0:0:0:
420,80,84700,1,0,0:0:0:0:
306,35,84925,1,0,0:0:0:0:
44,192,85075,1,8,0:0:0:0:
91,80,85300,1,0,0:0:0:0:
205,35,85525,1,0,0:0:0:0:
468,192,85675,6,0,L|360:152,2,112.500004291535,2|0|0,0:0|0:0|0:0,0:0:0:0:
204,288,86275,2,0,L|308:244,2,112.500004291535,8|0|0,0:0|0:0|0:0,0:0:0:0:
468,192,86875,5,4,0:0:0:0:
392,192,87025,2,0,P|404:260|476:268,1,150.000005722046,0|0,0:0|0:0,0:0:0:0:
212,192,87475,1,8,0:0:0:0:
146,217,87625,1,0,0:0:0:0:
144,288,87775,1,0,0:0:0:0:
208,317,87925,1,0,0:0:0:0:
340,192,88075,6,0,L|278:149,1,75.0000028610231,2|0,0:0|0:0,0:0:0:0:
402,149,88375,2,0,L|338:193,1,75.0000028610231,0|0,0:0|0:0,0:0:0:0:
100,196,88675,1,8,0:0:0:0:
248,292,88975,2,0,L|174:301,1,75.0000028610231,0|0,0:0|0:0,0:0:0:0:
416,292,89275,5,2,0:0:0:0:
432,221,89425,1,0,0:0:0:0:
392,160,89575,1,0,0:0:0:0:
321,147,89725,1,0,0:0:0:0:
80,148,89875,1,8,0:0:0:0:
10,180,90025,2,0,P|92:224|156:156,1,200,0|2,0:0|0:0,0:0:0:0:
272,52,90475,6,0,L|204:16,1,75.0000028610231
331,120,90775,2,0,L|397:155,1,75.0000028610231,0|0,0:0|0:0,0:0:0:0:
155,156,91075,1,8,0:0:0:0:
397,155,91375,1,0,0:0:0:0:
16,156,91675,6,0,L|56:224,1,75.0000028610231,2|0,0:0|0:0,0:0:0:0:
152,220,91975,2,0,L|98:273,1,75.0000028610231
424,352,92275,1,8,0:0:0:0:
500,352,92425,2,0,P|488:284|416:272,1,150.000005722046,0|2,0:0|0:0,0:0:0:0:
292,272,92875,6,0,L|212:272,2,75.0000028610231
368,272,93325,1,0,0:0:0:0:
156,196,93475,1,8,0:0:0:0:
314,197,93775,2,0,L|248:160,1,75.0000028610231,0|0,0:0|0:0,0:0:0:0:
460,192,94075,5,2,0:0:0:0:
373,142,94300,1,0,0:0:0:0:
286,92,94525,1,0,0:0:0:0:
48,192,94675,1,8,0:0:0:0:
134,242,94900,1,0,0:0:0:0:
221,292,95125,1,0,0:0:0:0:
372,292,95275,5,2,0:0:0:0:
108,292,95425,2,0,P|44:284|28:208,1,150.000005722046,8|0,0:0|0:0,0:0:0:0:
340,192,95875,2,0,L|384:192,2,37.5000014305115,8|2|2,0:0|0:0|0:0,0:0:0:0:
212,192,96175,1,8,0:0:0:0:
356,192,96325,1,8,0:0:0:0:
116,192,96475,5,4,0:0:0:0:
40,192,96625,2,0,P|72:128|168:136,1,150.000005722046,0|0,0:0|0:0,0:0:0:0:
368,124,97075,2,0,L|444:124,2,75.0000028610231,8|0|0,0:0|0:0|0:0,0:0:0:0:
292,124,97525,1,0,0:0:0:0:
412,252,97675,6,0,L|348:208,1,75.0000028610231,2|0,0:0|0:0,0:0:0:0:
212,336,97975,2,0,L|276:292,1,75.0000028610231,0|0,0:0|0:0,0:0:0:0:
496,328,98275,1,8,0:0:0:0:
332,328,98575,2,0,L|258:337,1,75.0000028610231,0|0,0:0|0:0,0:0:0:0:
16,192,98875,5,2,0:0:0:0:
29,119,99025,1,0,0:0:0:0:
80,66,99175,1,0,0:0:0:0:
152,50,99325,1,0,0:0:0:0:
392,56,99475,1,8,0:0:0:0:
312,56,99625,2,0,P|220:96|192:192,1,200,0|2,0:0|0:0,0:0:0:0:
328,192,100075,6,0,L|396:228,1,75.0000028610231
256,256,100375,2,0,L|324:292,1,75.0000028610231,0|0,0:0|0:0,0:0:0:0:
107,287,100675,1,8,0:0:0:0:
332,364,100975,2,0,L|256:364,1,75.0000028610231,0|0,0:0|0:0,0:0:0:0:
16,288,101275,6,0,L|98:257,3,75.0000028610231,2|0|0|0,0:0|0:0|0:0|0:0,0:0:0:0:
328,264,101875,1,8,0:0:0:0:
404,264,102025,2,0,P|376:204|272:212,1,150.000005722046,0|0,0:0|0:0,0:0:0:0:
172,196,102475,5,2,0:0:0:0:
207,112,102625,1,0,0:0:0:0:
294,87,102775,1,0,0:0:0:0:
207,112,102925,1,0,0:0:0:0:
448,88,103075,1,8,0:0:0:0:
284,192,103375,2,0,L|350:155,1,75.0000028610231,0|0,0:0|0:0,0:0:0:0:
108,192,103675,6,0,L|208:140,2,112.500004291535,2|0|0,0:0|0:0|0:0,0:0:0:0:
372,284,104275,2,0,L|472:228,2,112.500004291535,8|0|0,0:0|0:0|0:0,0:0:0:0:
108,192,104875,6,0,L|8:248,2,112.500004291535,2|0|0,0:0|0:0|0:0,0:0:0:0:
372,284,105475,2,0,L|272:340,2,112.500004291535,8|0|0,0:0|0:0|0:0,0:0:0:0:
92,328,106075,5,4,0:0:0:0:
16,328,106225,2,0,P|48:264|136:264,1,150.000005722046,0|0,0:0|0:0,0:0:0:0:
364,260,106675,1,8,0:0:0:0:
381,189,106825,1,0,0:0:0:0:
344,126,106975,1,0,0:0:0:0:
273,107,107125,1,0,0:0:0:0:
136,108,107275,6,0,L|201:70,2,75.0000028610231,2|0|0,0:0|0:0|0:0,0:0:0:0:
56,112,107725,1,0,0:0:0:0:
296,112,107875,1,8,0:0:0:0:
126,79,108175,2,0,L|200:70,1,75.0000028610231,0|0,0:0|0:0,0:0:0:0:
432,72,108475,6,0,L|500:104,1,75.0000028610231,2|0,0:0|0:0,0:0:0:0:
396,160,108775,2,0,L|328:192,1,75.0000028610231,0|0,0:0|0:0,0:0:0:0:
96,192,109075,1,8,0:0:0:0:
176,192,109225,2,0,P|272:248|292:332,1,200,0|2,0:0|0:0,0:0:0:0:
140,324,109675,6,0,L|206:288,1,75.0000028610231
360,324,109975,2,0,L|426:289,1,75.0000028610231,0|0,0:0|0:0,0:0:0:0:
200,192,110275,1,8,0:0:0:0:
424,192,110575,1,0,0:0:0:0:
32,192,110875,6,0,L|108:192,1,75.0000028610231,2|0,0:0|0:0,0:0:0:0:
200,192,111175,2,0,L|280:192,1,75.0000028610231
48,112,111475,1,8,0:0:0:0:
128,113,111625,2,0,P|116:181|44:193,1,150.000005722046,0|2,0:0|0:0,0:0:0:0:
200,192,112075,6,0,L|280:192,2,75.0000028610231
472,192,112675,1,8,0:0:0:0:
320,192,112975,2,0,L|254:229,1,75.0000028610231
256,192,113275,12,6,115675,0:0:0:0:
