osu file format v14

[General]
AudioFilename: audio.mp3
AudioLeadIn: 0
PreviewTime: 77255
Countdown: 0
SampleSet: Soft
StackLeniency: 0.7
Mode: 3
LetterboxInBreaks: 0
SpecialStyle: 0
WidescreenStoryboard: 0

[Editor]
DistanceSpacing: 0.8
BeatDivisor: 8
GridSize: 4
TimelineZoom: 1

[Metadata]
Title:Shelter
TitleUnicode:Shelter
Artist:Porter Robinson & Madeon
ArtistUnicode:Porter Robinson & Madeon
Creator:E x e
Version:Home
Source:Shelter
Tags:thievley -genesis absolute zero jbhyperion wildone94 magic bomb mbomb a-1 pictures crunchyroll
BeatmapID:1069756
BeatmapSetID:502681

[Difficulty]
HPDrainRate:8
CircleSize:4
OverallDifficulty:8
ApproachRate:5
SliderMultiplier:1.4
SliderTickRate:1

[Events]
//Background and Video events
0,0,"68747470733a2f2f6b696e6f626c65732e732d756c2e65752f317157524d4b354e.png",0,0
//Break Periods
//Storyboard Layer 0 (Background)
//Storyboard Layer 1 (Fail)
//Storyboard Layer 2 (Pass)
//Storyboard Layer 3 (Foreground)
//Storyboard Sound Samples

[TimingPoints]
455,600,4,2,4,30,1,0
10055,-100,4,2,0,35,0,0
19055,-100,4,2,4,35,0,0
19655,-100,4,2,4,40,0,1
38855,-100,4,2,4,30,0,0
43655,-100,4,2,4,35,0,0
58055,-100,4,2,0,20,0,0
67655,-100,4,2,0,30,0,0
76055,-100,4,2,4,35,0,0
77255,-100,4,2,4,40,0,1
113255,-100,4,2,4,30,0,0

[HitObjects]
448,192,455,5,0,0:0:0:0:
64,192,455,1,0,0:0:0:0:
448,192,1055,1,0,0:0:0:0:
192,192,1055,1,0,0:0:0:0:
320,192,1205,1,0,0:0:0:0:
64,192,1505,1,0,0:0:0:0:
320,192,1655,1,0,0:0:0:0:
448,192,1655,1,0,0:0:0:0:
64,192,2255,1,0,0:0:0:0:
192,192,2255,1,0,0:0:0:0:
192,192,2855,1,0,0:0:0:0:
448,192,2855,1,0,0:0:0:0:
320,192,3455,1,0,0:0:0:0:
64,192,3455,1,0,0:0:0:0:
192,192,3605,1,0,0:0:0:0:
448,192,3905,1,0,0:0:0:0:
320,192,4055,1,0,0:0:0:0:
64,192,4055,1,0,0:0:0:0:
320,192,4655,1,0,0:0:0:0:
192,192,4655,1,0,0:0:0:0:
64,192,4955,1,0,0:0:0:0:
448,192,5255,1,0,0:0:0:0:
192,192,5255,1,0,0:0:0:0:
448,192,5855,1,0,0:0:0:0:
64,192,5855,1,0,0:0:0:0:
320,192,6005,1,0,0:0:0:0:
192,192,6305,1,0,0:0:0:0:
320,192,6455,1,0,0:0:0:0:
448,192,6455,1,0,0:0:0:0:
192,192,7055,1,0,0:0:0:0:
448,192,7055,1,0,0:0:0:0:
64,192,7355,128,0,7655:0:0:0:0:
192,192,7655,128,0,7855:0:0:0:0:
320,192,7880,128,0,8480:0:0:0:0:
448,192,8105,128,0,8480:0:0:0:0:
192,192,8255,128,0,8480:0:0:0:0:
64,192,8480,128,0,9080:0:0:0:0:
448,192,8705,128,0,9080:0:0:0:0:
320,192,8855,128,0,9080:0:0:0:0:
192,192,9080,128,0,9680:0:0:0:0:
320,192,9305,128,0,9680:0:0:0:0:
64,192,9455,128,0,9680:0:0:0:0:
448,192,9680,128,0,10055:0:0:0:0:
64,192,9905,128,0,10055:0:0:0:0:
192,192,10055,1,0,0:0:0:0:
320,192,10055,1,0,0:0:0:0:
64,192,10205,1,0,0:0:0:0:
192,192,10355,1,0,0:0:0:0:
448,192,10505,1,0,0:0:0:0:
64,192,10655,1,2,2:2:0:0:
192,192,10655,1,0,2:2:0:0:
320,192,10805,1,0,0:0:0:0:
448,192,10955,1,0,0:0:0:0:
64,192,11105,1,0,0:0:0:0:
320,192,11255,1,0,0:0:0:0:
192,192,11405,1,0,0:0:0:0:
64,192,11555,1,0,0:0:0:0:
448,192,11705,1,0,0:0:0:0:
64,192,11855,1,0,0:0:0:0:
320,192,11855,1,2,0:0:0:0:
192,192,12005,1,0,0:0:0:0:
320,192,12155,1,0,0:0:0:0:
448,192,12305,1,0,0:0:0:0:
64,192,12455,1,0,0:0:0:0:
192,192,12455,1,0,0:0:0:0:
448,192,12605,1,0,0:0:0:0:
192,192,12755,1,0,0:0:0:0:
320,192,12905,1,0,0:0:0:0:
64,192,13055,1,0,0:0:0:0:
448,192,13055,1,2,0:0:0:0:
192,192,13205,1,0,0:0:0:0:
64,192,13355,1,0,0:0:0:0:
320,192,13505,1,0,0:0:0:0:
448,192,13655,1,0,0:0:0:0:
64,192,13805,1,0,0:0:0:0:
192,192,13955,1,0,0:0:0:0:
448,192,14105,1,0,0:0:0:0:
64,192,14255,1,2,0:0:0:0:
192,192,14255,1,0,0:0:0:0:
448,192,14405,1,0,0:0:0:0:
320,192,14555,1,0,0:0:0:0:
192,192,14705,1,0,0:0:0:0:
64,192,14855,1,0,0:0:0:0:
448,192,14855,1,0,0:0:0:0:
320,192,15005,1,0,0:0:0:0:
64,192,15155,1,0,0:0:0:0:
192,192,15305,1,0,0:0:0:0:
320,192,15455,1,0,0:0:0:0:
448,192,15455,1,2,0:0:0:0:
64,192,15605,1,0,0:0:0:0:
320,192,15755,1,0,0:0:0:0:
448,192,15905,1,0,0:0:0:0:
64,192,16055,1,0,0:0:0:0:
192,192,16205,1,0,0:0:0:0:
448,192,16355,1,0,0:0:0:0:
320,192,16505,1,0,0:0:0:0:
64,192,16655,1,2,0:0:0:0:
448,192,16655,1,0,0:0:0:0:
192,192,16805,1,0,0:0:0:0:
448,192,16955,128,0,17255:0:0:0:0:
320,192,17255,128,0,17480:0:0:0:0:
192,192,17480,128,0,18080:0:0:0:0:
64,192,17705,128,0,18080:0:0:0:0:
320,192,17855,128,0,18080:0:0:0:0:
448,192,18080,128,0,18680:0:0:0:0:
64,192,18305,128,0,18680:0:0:0:0:
192,192,18455,128,0,18680:0:0:0:0:
320,192,18680,128,0,19055:0:0:0:0:
448,192,18905,128,0,19055:0:0:0:0:
64,192,19055,1,8,0:0:0:0:
192,192,19055,1,0,0:0:0:0:
320,192,19205,1,0,0:0:0:0:
448,192,19205,1,8,0:0:0:0:
192,192,19355,1,0,0:0:0:0:
64,192,19505,1,0,0:0:0:0:
320,192,19655,1,0,0:0:0:0:
448,192,19655,1,2,0:0:0:0:
192,192,19655,1,4,0:0:0:0:
64,192,19730,1,0,0:0:0:0:
192,192,19805,1,0,0:0:0:0:
320,192,19880,1,0,0:0:0:0:
448,192,19955,1,0,0:0:0:0:
64,192,20030,1,0,0:0:0:0:
192,192,20105,1,0,0:0:0:0:
320,192,20180,1,0,0:0:0:0:
448,192,20255,1,0,0:0:0:0:
64,192,20255,1,8,0:0:0:0:
192,192,20405,1,0,0:0:0:0:
448,192,20555,1,0,0:0:0:0:
320,192,20705,1,0,0:0:0:0:
64,192,20855,1,0,0:0:0:0:
448,192,20855,1,2,0:0:0:0:
192,192,21005,1,0,0:0:0:0:
320,192,21155,1,0,0:0:0:0:
192,192,21305,1,0,0:0:0:0:
64,192,21455,1,0,0:0:0:0:
448,192,21455,1,8,0:0:0:0:
320,192,21455,1,0,0:0:0:0:
64,192,21755,128,0,22055:0:0:0:0:
192,192,22055,1,2,0:0:0:0:
320,192,22055,1,0,0:0:0:0:
448,192,22130,1,0,0:0:0:0:
320,192,22205,1,0,0:0:0:0:
192,192,22280,1,0,0:0:0:0:
64,192,22355,1,0,0:0:0:0:
448,192,22430,1,0,0:0:0:0:
320,192,22505,1,0,0:0:0:0:
192,192,22580,1,0,0:0:0:0:
64,192,22655,1,0,0:0:0:0:
448,192,22655,1,8,0:0:0:0:
192,192,22805,1,0,0:0:0:0:
448,192,22955,1,0,0:0:0:0:
320,192,23105,1,0,0:0:0:0:
64,192,23255,1,0,0:0:0:0:
192,192,23255,1,2,0:0:0:0:
320,192,23405,1,0,0:0:0:0:
64,192,23555,1,0,0:0:0:0:
320,192,23705,1,0,0:0:0:0:
64,192,23855,1,8,0:0:0:0:
192,192,23855,1,0,0:0:0:0:
448,192,23855,1,0,0:0:0:0:
448,192,24155,128,0,24455:0:0:0:0:
192,192,24455,1,2,0:0:0:0:
320,192,24455,1,0,0:0:0:0:
64,192,24530,1,0,0:0:0:0:
192,192,24605,1,0,0:0:0:0:
448,192,24680,1,0,0:0:0:0:
320,192,24755,1,0,0:0:0:0:
64,192,24830,1,0,0:0:0:0:
192,192,24905,1,0,0:0:0:0:
320,192,24980,1,0,0:0:0:0:
64,192,25055,1,0,0:0:0:0:
448,192,25055,1,8,0:0:0:0:
192,192,25205,1,0,0:0:0:0:
448,192,25355,1,0,0:0:0:0:
192,192,25505,1,0,0:0:0:0:
320,192,25655,1,2,0:0:0:0:
448,192,25655,1,0,0:0:0:0:
64,192,25805,1,0,0:0:0:0:
192,192,25955,1,0,0:0:0:0:
320,192,26105,1,0,0:0:0:0:
64,192,26255,1,8,0:0:0:0:
192,192,26255,1,0,0:0:0:0:
448,192,26255,1,0,0:0:0:0:
320,192,26555,128,0,26855:0:0:0:0:
64,192,26855,1,2,0:0:0:0:
192,192,26855,1,0,0:0:0:0:
448,192,27005,1,0,0:0:0:0:
320,192,27080,1,0,0:0:0:0:
192,192,27155,1,0,0:0:0:0:
448,192,27305,1,0,0:0:0:0:
64,192,27455,1,0,0:0:0:0:
320,192,27455,1,8,0:0:0:0:
192,192,27605,1,0,0:0:0:0:
320,192,27680,1,0,0:0:0:0:
448,192,27755,1,0,0:0:0:0:
64,192,27905,1,0,0:0:0:0:
320,192,28055,1,0,0:0:0:0:
448,192,28055,1,2,0:0:0:0:
64,192,28205,1,8,0:0:0:0:
192,192,28205,1,0,0:0:0:0:
448,192,28280,1,0,0:0:0:0:
320,192,28355,1,0,0:0:0:0:
192,192,28505,1,0,0:0:0:0:
64,192,28655,1,0,0:0:0:0:
448,192,28655,1,8,0:0:0:0:
192,192,28805,1,8,0:0:0:0:
320,192,28805,1,0,0:0:0:0:
64,192,28955,1,0,0:0:0:0:
192,192,29105,1,0,0:0:0:0:
448,192,29255,1,2,0:0:0:0:
320,192,29255,1,0,0:0:0:0:
64,192,29255,1,4,0:0:0:0:
192,192,29330,1,0,0:0:0:0:
64,192,29405,1,0,0:0:0:0:
320,192,29480,1,0,0:0:0:0:
448,192,29555,1,0,0:0:0:0:
192,192,29630,1,0,0:0:0:0:
64,192,29705,1,0,0:0:0:0:
320,192,29780,1,0,0:0:0:0:
448,192,29855,1,0,0:0:0:0:
192,192,29855,1,8,0:0:0:0:
64,192,30005,1,0,0:0:0:0:
448,192,30155,1,0,0:0:0:0:
320,192,30305,1,0,0:0:0:0:
64,192,30455,1,2,0:0:0:0:
192,192,30455,1,0,0:0:0:0:
448,192,30605,1,0,0:0:0:0:
320,192,30680,1,0,0:0:0:0:
192,192,30755,1,0,0:0:0:0:
64,192,30905,1,0,0:0:0:0:
320,192,31055,1,0,0:0:0:0:
448,192,31055,1,8,0:0:0:0:
192,192,31055,1,0,0:0:0:0:
448,192,31355,128,0,31655:0:0:0:0:
320,192,31655,1,0,0:0:0:0:
192,192,31655,1,2,0:0:0:0:
64,192,31730,1,0,0:0:0:0:
192,192,31805,1,0,0:0:0:0:
320,192,31880,1,0,0:0:0:0:
448,192,31955,1,0,0:0:0:0:
64,192,32030,1,0,0:0:0:0:
192,192,32105,1,0,0:0:0:0:
320,192,32180,1,0,0:0:0:0:
448,192,32255,1,0,0:0:0:0:
64,192,32255,1,8,0:0:0:0:
192,192,32405,1,0,0:0:0:0:
320,192,32555,1,0,0:0:0:0:
448,192,32705,1,0,0:0:0:0:
64,192,32855,1,0,0:0:0:0:
192,192,32855,1,2,0:0:0:0:
448,192,33005,1,0,0:0:0:0:
320,192,33080,1,0,0:0:0:0:
192,192,33155,1,0,0:0:0:0:
448,192,33305,1,0,0:0:0:0:
64,192,33455,1,8,0:0:0:0:
320,192,33455,1,0,0:0:0:0:
192,192,33455,1,0,0:0:0:0:
192,192,33755,128,0,34055:0:0:0:0:
320,192,34055,1,0,0:0:0:0:
448,192,34055,1,2,0:0:0:0:
64,192,34130,1,0,0:0:0:0:
192,192,34205,1,0,0:0:0:0:
320,192,34280,1,0,0:0:0:0:
448,192,34355,1,0,0:0:0:0:
64,192,34430,1,0,0:0:0:0:
192,192,34505,1,0,0:0:0:0:
320,192,34580,1,0,0:0:0:0:
448,192,34655,1,0,0:0:0:0:
64,192,34655,1,8,0:0:0:0:
192,192,34805,1,0,0:0:0:0:
448,192,34955,1,0,0:0:0:0:
320,192,35105,1,0,0:0:0:0:
64,192,35255,1,0,0:0:0:0:
448,192,35255,1,2,0:0:0:0:
192,192,35405,1,0,0:0:0:0:
320,192,35555,1,0,0:0:0:0:
192,192,35705,1,0,0:0:0:0:
64,192,35855,1,8,0:0:0:0:
448,192,35855,1,0,0:0:0:0:
320,192,35855,1,0,0:0:0:0:
64,192,36155,128,0,36455:0:0:0:0:
192,192,36455,128,2,36680:0:0:0:0:
320,192,36680,128,0,37280:0:0:0:0:
448,192,36905,128,0,37280:0:0:0:0:
192,192,37055,128,8,37280:0:0:0:0:
64,192,37280,128,0,37880:0:0:0:0:
448,192,37505,128,0,37880:0:0:0:0:
320,192,37655,128,2,37880:0:0:0:0:
192,192,37880,128,0,38480:0:0:0:0:
320,192,38105,128,0,38480:0:0:0:0:
64,192,38255,128,8,38480:0:0:0:0:
448,192,38480,128,0,38855:0:0:0:0:
64,192,38705,128,0,38855:0:0:0:0:
192,192,38855,1,0,0:0:0:0:
320,192,38855,128,0,41255:0:0:0:0:
448,192,40655,128,0,41255:0:0:0:0:
64,192,41255,128,0,43055:0:0:0:0:
192,192,41855,1,0,0:0:0:0:
320,192,42155,128,0,43055:0:0:0:0:
192,192,42455,1,0,0:0:0:0:
192,192,43055,1,0,0:0:0:0:
448,192,43055,1,2,0:0:0:0:
320,192,43205,1,0,0:0:0:0:
192,192,43355,1,0,0:0:0:0:
320,192,43655,1,0,0:0:0:0:
448,192,43655,1,2,0:0:0:0:
192,192,43805,1,0,0:0:0:0:
64,192,43955,1,0,0:0:0:0:
192,192,44105,1,0,0:0:0:0:
64,192,44255,1,0,0:0:0:0:
448,192,44255,1,8,0:0:0:0:
320,192,44405,1,0,0:0:0:0:
192,192,44555,1,0,0:0:0:0:
320,192,44705,1,0,0:0:0:0:
64,192,44855,1,2,0:0:0:0:
192,192,44855,1,0,0:0:0:0:
320,192,45005,1,0,0:0:0:0:
448,192,45155,1,0,0:0:0:0:
320,192,45305,1,0,0:0:0:0:
192,192,45455,1,0,0:0:0:0:
448,192,45455,1,8,0:0:0:0:
64,192,45605,1,0,0:0:0:0:
320,192,45755,1,0,0:0:0:0:
64,192,45905,1,0,0:0:0:0:
320,192,46055,1,2,0:0:0:0:
448,192,46055,1,0,0:0:0:0:
192,192,46205,1,0,0:0:0:0:
64,192,46355,1,0,0:0:0:0:
192,192,46505,1,0,0:0:0:0:
64,192,46655,1,8,0:0:0:0:
448,192,46655,1,0,0:0:0:0:
320,192,46805,1,0,0:0:0:0:
192,192,46955,1,0,0:0:0:0:
320,192,47105,1,0,0:0:0:0:
448,192,47105,1,8,0:0:0:0:
192,192,47255,1,0,0:0:0:0:
64,192,47255,1,8,0:0:0:0:
320,192,47405,1,0,0:0:0:0:
64,192,47555,1,0,0:0:0:0:
448,192,47555,1,8,0:0:0:0:
192,192,47705,1,0,0:0:0:0:
320,192,47855,1,0,0:0:0:0:
448,192,47855,1,8,0:0:0:0:
64,192,47930,1,8,0:0:0:0:
320,192,48005,1,8,0:0:0:0:
448,192,48005,1,0,0:0:0:0:
192,192,48155,1,8,0:0:0:0:
64,192,48155,1,0,0:0:0:0:
320,192,48305,1,0,0:0:0:0:
448,192,48305,1,8,0:0:0:0:
64,192,48455,1,4,0:0:0:0:
448,192,48455,1,2,0:0:0:0:
320,192,48455,1,0,0:0:0:0:
192,192,48530,1,0,0:0:0:0:
320,192,48605,1,0,0:0:0:0:
448,192,48680,1,0,0:0:0:0:
64,192,48755,1,0,0:0:0:0:
192,192,48830,1,0,0:0:0:0:
320,192,48905,1,0,0:0:0:0:
448,192,48980,1,0,0:0:0:0:
64,192,49055,1,0,0:0:0:0:
192,192,49055,1,8,0:0:0:0:
320,192,49205,1,0,0:0:0:0:
64,192,49355,1,0,0:0:0:0:
320,192,49505,1,0,0:0:0:0:
64,192,49655,1,2,0:0:0:0:
448,192,49655,1,0,0:0:0:0:
192,192,49805,1,0,0:0:0:0:
320,192,49955,1,0,0:0:0:0:
192,192,50105,1,0,0:0:0:0:
320,192,50255,1,0,0:0:0:0:
448,192,50255,1,8,0:0:0:0:
64,192,50405,1,0,0:0:0:0:
448,192,50555,1,0,0:0:0:0:
64,192,50705,1,0,0:0:0:0:
448,192,50855,1,0,0:0:0:0:
320,192,50855,1,2,0:0:0:0:
64,192,50930,1,0,0:0:0:0:
192,192,51005,1,0,0:0:0:0:
448,192,51080,1,0,0:0:0:0:
320,192,51155,1,0,0:0:0:0:
64,192,51230,1,0,0:0:0:0:
192,192,51305,1,0,0:0:0:0:
320,192,51380,1,0,0:0:0:0:
192,192,51455,1,8,0:0:0:0:
64,192,51455,1,0,0:0:0:0:
320,192,51605,1,0,0:0:0:0:
448,192,51755,1,0,0:0:0:0:
192,192,51905,1,0,0:0:0:0:
64,192,52055,1,2,0:0:0:0:
448,192,52055,1,0,0:0:0:0:
320,192,52205,1,0,0:0:0:0:
192,192,52355,1,0,0:0:0:0:
448,192,52505,1,0,0:0:0:0:
64,192,52655,1,0,0:0:0:0:
192,192,52655,1,8,0:0:0:0:
448,192,52805,1,0,0:0:0:0:
64,192,52955,1,0,0:0:0:0:
448,192,53105,1,0,0:0:0:0:
192,192,53255,1,0,0:0:0:0:
64,192,53255,1,2,0:0:0:0:
320,192,53330,1,0,0:0:0:0:
448,192,53405,1,0,0:0:0:0:
64,192,53480,1,0,0:0:0:0:
192,192,53555,1,0,0:0:0:0:
448,192,53630,1,0,0:0:0:0:
320,192,53705,1,0,0:0:0:0:
192,192,53780,1,0,0:0:0:0:
64,192,53855,1,0,0:0:0:0:
448,192,53855,1,8,0:0:0:0:
320,192,54005,1,0,0:0:0:0:
192,192,54155,1,0,0:0:0:0:
320,192,54305,1,0,0:0:0:0:
64,192,54455,1,0,0:0:0:0:
192,192,54455,1,2,0:0:0:0:
448,192,54605,1,0,0:0:0:0:
64,192,54755,1,0,0:0:0:0:
448,192,54905,1,0,0:0:0:0:
320,192,55055,1,8,0:0:0:0:
64,192,55055,1,0,0:0:0:0:
192,192,55205,1,0,0:0:0:0:
320,192,55355,1,0,0:0:0:0:
192,192,55505,1,0,0:0:0:0:
320,192,55655,1,0,0:0:0:0:
448,192,55655,1,2,0:0:0:0:
64,192,55730,1,0,0:0:0:0:
192,192,55805,1,0,0:0:0:0:
448,192,55880,1,0,0:0:0:0:
320,192,55955,1,0,0:0:0:0:
64,192,56030,1,0,0:0:0:0:
192,192,56105,1,0,0:0:0:0:
320,192,56180,1,0,0:0:0:0:
64,192,56255,1,8,0:0:0:0:
448,192,56255,1,0,0:0:0:0:
192,192,56405,1,0,0:0:0:0:
64,192,56555,1,0,0:0:0:0:
192,192,56705,1,0,0:0:0:0:
320,192,56855,1,2,0:0:0:0:
448,192,56855,1,0,0:0:0:0:
64,192,57005,1,0,0:0:0:0:
448,192,57155,1,0,0:0:0:0:
64,192,57305,1,0,0:0:0:0:
192,192,57455,1,0,0:0:0:0:
320,192,57455,1,0,0:0:0:0:
448,192,57455,1,8,0:0:0:0:
64,192,57530,1,8,0:0:0:0:
448,192,57605,1,0,0:0:0:0:
320,192,57605,1,8,0:0:0:0:
192,192,57755,1,8,0:0:0:0:
320,192,57905,1,8,0:0:0:0:
64,192,58055,128,0,59255:0:0:0:0:
448,192,58055,1,0,0:0:0:0:
320,192,58655,1,2,0:0:0:0:
448,192,59255,128,0,60455:0:0:0:0:
192,192,59855,1,2,0:0:0:0:
320,192,60455,128,0,61655:0:0:0:0:
64,192,61055,1,2,0:0:0:0:
192,192,61655,128,0,62855:0:0:0:0:
448,192,62255,1,2,0:0:0:0:
320,192,62855,128,0,64055:0:0:0:0:
64,192,63455,1,2,0:0:0:0:
64,192,64055,128,0,65255:0:0:0:0:
448,192,64655,1,2,0:0:0:0:
192,192,65255,128,0,66455:0:0:0:0:
320,192,65855,1,2,0:0:0:0:
448,192,66455,128,0,67655:0:0:0:0:
64,192,67055,1,2,0:0:0:0:
64,192,67655,1,0,0:0:0:0:
192,192,67805,1,0,0:0:0:0:
320,192,67955,1,0,0:0:0:0:
448,192,68105,1,0,0:0:0:0:
64,192,68255,1,2,0:0:0:0:
320,192,68255,1,0,0:0:0:0:
448,192,68405,1,0,0:0:0:0:
320,192,68555,1,0,0:0:0:0:
64,192,68705,1,0,0:0:0:0:
192,192,68855,1,0,0:0:0:0:
320,192,69005,1,0,0:0:0:0:
448,192,69155,1,0,0:0:0:0:
320,192,69305,1,0,0:0:0:0:
64,192,69455,1,0,0:0:0:0:
192,192,69455,1,2,0:0:0:0:
448,192,69605,1,0,0:0:0:0:
320,192,69755,1,0,0:0:0:0:
64,192,69905,1,0,0:0:0:0:
448,192,70055,1,0,0:0:0:0:
320,192,70205,1,0,0:0:0:0:
192,192,70355,1,0,0:0:0:0:
64,192,70505,1,0,0:0:0:0:
448,192,70655,1,0,0:0:0:0:
192,192,70655,1,2,0:0:0:0:
64,192,70805,1,0,0:0:0:0:
192,192,70955,1,0,0:0:0:0:
448,192,71105,1,0,0:0:0:0:
320,192,71255,1,0,0:0:0:0:
192,192,71405,1,0,0:0:0:0:
64,192,71555,1,0,0:0:0:0:
192,192,71705,1,0,0:0:0:0:
448,192,71855,1,0,0:0:0:0:
320,192,71855,1,2,0:0:0:0:
64,192,72005,1,0,0:0:0:0:
192,192,72155,1,0,0:0:0:0:
320,192,72305,1,0,0:0:0:0:
448,192,72455,1,0,0:0:0:0:
64,192,72455,128,0,73655:0:0:0:0:
192,192,73055,1,0,0:0:0:0:
448,192,73655,128,0,74855:0:0:0:0:
192,192,74855,128,0,76055:0:0:0:0:
64,192,75455,1,0,0:0:0:0:
320,192,76055,1,0,0:0:0:0:
448,192,76055,1,8,0:0:0:0:
64,192,76130,1,8,0:0:0:0:
448,192,76205,1,0,0:0:0:0:
320,192,76205,1,8,0:0:0:0:
192,192,76355,1,8,0:0:0:0:
64,192,76355,1,0,0:0:0:0:
192,192,76505,1,0,0:0:0:0:
320,192,76505,1,8,0:0:0:0:
448,192,76655,1,8,0:0:0:0:
64,192,76655,1,0,0:0:0:0:
448,192,76805,1,0,0:0:0:0:
192,192,76805,1,8,0:0:0:0:
320,192,76955,1,2,0:0:0:0:
448,192,76955,1,0,0:0:0:0:
192,192,77255,1,2,0:0:0:0:
64,192,77255,1,4,0:0:0:0:
320,192,77255,1,0,0:0:0:0:
448,192,77330,1,0,0:0:0:0:
320,192,77405,1,0,0:0:0:0:
192,192,77480,1,0,0:0:0:0:
64,192,77555,1,0,0:0:0:0:
448,192,77630,1,0,0:0:0:0:
320,192,77705,1,0,0:0:0:0:
192,192,77780,1,0,0:0:0:0:
64,192,77855,1,0,0:0:0:0:
448,192,77855,1,8,0:0:0:0:
320,192,78005,1,0,0:0:0:0:
64,192,78155,1,0,0:0:0:0:
192,192,78305,1,0,0:0:0:0:
448,192,78455,1,0,0:0:0:0:
64,192,78455,1,2,0:0:0:0:
320,192,78605,1,0,0:0:0:0:
192,192,78755,1,0,0:0:0:0:
320,192,78905,1,0,0:0:0:0:
448,192,79055,1,0,0:0:0:0:
64,192,79055,1,0,0:0:0:0:
192,192,79055,1,8,0:0:0:0:
448,192,79355,128,0,79655:0:0:0:0:
192,192,79655,1,0,0:0:0:0:
320,192,79655,1,2,0:0:0:0:
64,192,79730,1,0,0:0:0:0:
192,192,79805,1,0,0:0:0:0:
320,192,79880,1,0,0:0:0:0:
448,192,79955,1,0,0:0:0:0:
64,192,80030,1,0,0:0:0:0:
192,192,80105,1,0,0:0:0:0:
320,192,80180,1,0,0:0:0:0:
448,192,80255,1,0,0:0:0:0:
64,192,80255,1,8,0:0:0:0:
320,192,80405,1,0,0:0:0:0:
64,192,80555,1,0,0:0:0:0:
192,192,80705,1,0,0:0:0:0:
448,192,80855,1,2,0:0:0:0:
320,192,80855,1,0,0:0:0:0:
192,192,81005,1,0,0:0:0:0:
448,192,81155,1,0,0:0:0:0:
192,192,81305,1,0,0:0:0:0:
448,192,81455,1,0,0:0:0:0:
320,192,81455,1,8,0:0:0:0:
64,192,81455,1,0,0:0:0:0:
64,192,81755,128,0,82055:0:0:0:0:
320,192,82055,1,0,0:0:0:0:
192,192,82055,1,2,0:0:0:0:
448,192,82130,1,0,0:0:0:0:
320,192,82205,1,0,0:0:0:0:
64,192,82280,1,0,0:0:0:0:
192,192,82355,1,0,0:0:0:0:
448,192,82430,1,0,0:0:0:0:
320,192,82505,1,0,0:0:0:0:
192,192,82580,1,0,0:0:0:0:
448,192,82655,1,8,0:0:0:0:
64,192,82655,1,0,0:0:0:0:
320,192,82805,1,0,0:0:0:0:
64,192,82955,1,0,0:0:0:0:
320,192,83105,1,0,0:0:0:0:
192,192,83255,1,0,0:0:0:0:
64,192,83255,1,2,0:0:0:0:
448,192,83405,1,0,0:0:0:0:
320,192,83555,1,0,0:0:0:0:
192,192,83705,1,0,0:0:0:0:
448,192,83855,1,0,0:0:0:0:
320,192,83855,1,8,0:0:0:0:
64,192,83855,1,0,0:0:0:0:
192,192,84155,128,0,84455:0:0:0:0:
448,192,84455,1,2,0:0:0:0:
320,192,84455,1,0,0:0:0:0:
64,192,84605,1,0,0:0:0:0:
192,192,84680,1,0,0:0:0:0:
320,192,84755,1,0,0:0:0:0:
64,192,84905,1,0,0:0:0:0:
448,192,85055,1,0,0:0:0:0:
192,192,85055,1,8,0:0:0:0:
320,192,85205,1,0,0:0:0:0:
192,192,85280,1,0,0:0:0:0:
64,192,85355,1,0,0:0:0:0:
448,192,85505,1,0,0:0:0:0:
192,192,85655,1,2,0:0:0:0:
64,192,85655,1,0,0:0:0:0:
448,192,85805,1,0,0:0:0:0:
320,192,85805,1,8,0:0:0:0:
64,192,85880,1,0,0:0:0:0:
192,192,85955,1,0,0:0:0:0:
320,192,86105,1,0,0:0:0:0:
448,192,86255,1,8,0:0:0:0:
64,192,86255,1,0,0:0:0:0:
192,192,86405,1,8,0:0:0:0:
320,192,86405,1,0,0:0:0:0:
64,192,86555,1,0,0:0:0:0:
64,192,86855,1,2,0:0:0:0:
192,192,86855,1,4,0:0:0:0:
448,192,86855,1,0,0:0:0:0:
320,192,86930,1,0,0:0:0:0:
448,192,87005,1,0,0:0:0:0:
192,192,87080,1,0,0:0:0:0:
64,192,87155,1,0,0:0:0:0:
320,192,87230,1,0,0:0:0:0:
448,192,87305,1,0,0:0:0:0:
192,192,87380,1,0,0:0:0:0:
64,192,87455,1,0,0:0:0:0:
320,192,87455,1,8,0:0:0:0:
448,192,87605,1,0,0:0:0:0:
64,192,87755,1,0,0:0:0:0:
192,192,87905,1,0,0:0:0:0:
448,192,88055,1,2,0:0:0:0:
320,192,88055,1,0,0:0:0:0:
64,192,88205,1,0,0:0:0:0:
192,192,88280,1,0,0:0:0:0:
320,192,88355,1,0,0:0:0:0:
448,192,88505,1,0,0:0:0:0:
64,192,88655,1,8,0:0:0:0:
320,192,88655,1,0,0:0:0:0:
192,192,88655,1,0,0:0:0:0:
64,192,88955,128,0,89255:0:0:0:0:
192,192,89255,1,0,0:0:0:0:
320,192,89255,1,2,0:0:0:0:
448,192,89330,1,0,0:0:0:0:
320,192,89405,1,0,0:0:0:0:
64,192,89480,1,0,0:0:0:0:
192,192,89555,1,0,0:0:0:0:
448,192,89630,1,0,0:0:0:0:
320,192,89705,1,0,0:0:0:0:
64,192,89780,1,0,0:0:0:0:
448,192,89855,1,0,0:0:0:0:
192,192,89855,1,8,0:0:0:0:
320,192,90005,1,0,0:0:0:0:
192,192,90155,1,0,0:0:0:0:
64,192,90305,1,0,0:0:0:0:
448,192,90455,1,2,0:0:0:0:
320,192,90455,1,0,0:0:0:0:
64,192,90605,1,0,0:0:0:0:
192,192,90680,1,0,0:0:0:0:
320,192,90755,1,0,0:0:0:0:
64,192,90905,1,0,0:0:0:0:
448,192,91055,1,0,0:0:0:0:
192,192,91055,1,8,0:0:0:0:
320,192,91055,1,0,0:0:0:0:
320,192,91355,128,0,91655:0:0:0:0:
192,192,91655,1,0,0:0:0:0:
448,192,91655,1,2,0:0:0:0:
64,192,91730,1,0,0:0:0:0:
192,192,91805,1,0,0:0:0:0:
320,192,91880,1,0,0:0:0:0:
448,192,91955,1,0,0:0:0:0:
64,192,92030,1,0,0:0:0:0:
192,192,92105,1,0,0:0:0:0:
320,192,92180,1,0,0:0:0:0:
64,192,92255,1,8,0:0:0:0:
448,192,92255,1,0,0:0:0:0:
320,192,92405,1,0,0:0:0:0:
64,192,92555,1,0,0:0:0:0:
192,192,92705,1,0,0:0:0:0:
448,192,92855,1,2,0:0:0:0:
64,192,92855,1,0,0:0:0:0:
320,192,93005,1,0,0:0:0:0:
192,192,93155,1,0,0:0:0:0:
320,192,93305,1,0,0:0:0:0:
448,192,93455,1,0,0:0:0:0:
64,192,93455,1,0,0:0:0:0:
192,192,93455,1,8,0:0:0:0:
448,192,93755,128,0,94055:0:0:0:0:
320,192,94055,128,2,94255:0:0:0:0:
192,192,94280,128,0,94880:0:0:0:0:
64,192,94505,128,0,94880:0:0:0:0:
320,192,94655,128,8,94880:0:0:0:0:
448,192,94880,128,0,95480:0:0:0:0:
64,192,95105,128,0,95480:0:0:0:0:
192,192,95255,128,2,95480:0:0:0:0:
320,192,95480,128,0,95855:0:0:0:0:
448,192,95705,128,0,95855:0:0:0:0:
64,192,95855,1,8,0:0:0:0:
192,192,95855,1,0,0:0:0:0:
320,192,95930,1,8,0:0:0:0:
64,192,96005,1,0,0:0:0:0:
192,192,96005,1,8,0:0:0:0:
64,192,96155,1,0,0:0:0:0:
448,192,96155,1,8,0:0:0:0:
320,192,96305,1,8,0:0:0:0:
192,192,96305,1,0,0:0:0:0:
64,192,96455,1,2,0:0:0:0:
448,192,96455,1,4,0:0:0:0:
320,192,96455,1,0,0:0:0:0:
192,192,96530,1,0,0:0:0:0:
448,192,96605,1,0,0:0:0:0:
320,192,96680,1,0,0:0:0:0:
64,192,96755,1,0,0:0:0:0:
192,192,96830,1,0,0:0:0:0:
448,192,96905,1,0,0:0:0:0:
320,192,96980,1,0,0:0:0:0:
64,192,97055,1,0,0:0:0:0:
192,192,97055,1,8,0:0:0:0:
320,192,97205,1,0,0:0:0:0:
192,192,97355,1,0,0:0:0:0:
64,192,97505,1,0,0:0:0:0:
192,192,97655,1,0,0:0:0:0:
448,192,97655,1,2,0:0:0:0:
64,192,97805,1,0,0:0:0:0:
320,192,97955,1,0,0:0:0:0:
448,192,98105,1,0,0:0:0:0:
64,192,98255,1,8,0:0:0:0:
192,192,98255,1,0,0:0:0:0:
448,192,98555,128,0,98855:0:0:0:0:
64,192,98855,1,0,0:0:0:0:
320,192,98855,1,2,0:0:0:0:
192,192,98930,1,0,0:0:0:0:
320,192,99005,1,0,0:0:0:0:
448,192,99080,1,0,0:0:0:0:
64,192,99155,1,0,0:0:0:0:
192,192,99230,1,0,0:0:0:0:
320,192,99305,1,0,0:0:0:0:
448,192,99380,1,0,0:0:0:0:
64,192,99455,1,0,0:0:0:0:
192,192,99455,1,8,0:0:0:0:
320,192,99605,1,0,0:0:0:0:
448,192,99755,1,0,0:0:0:0:
64,192,99905,1,0,0:0:0:0:
192,192,100055,1,0,0:0:0:0:
448,192,100055,1,2,0:0:0:0:
320,192,100205,1,0,0:0:0:0:
192,192,100355,1,0,0:0:0:0:
64,192,100505,1,0,0:0:0:0:
320,192,100655,1,8,0:0:0:0:
448,192,100655,1,0,0:0:0:0:
192,192,100955,128,0,101255:0:0:0:0:
64,192,101255,1,2,0:0:0:0:
320,192,101255,1,0,0:0:0:0:
448,192,101330,1,0,0:0:0:0:
192,192,101405,1,0,0:0:0:0:
64,192,101480,1,0,0:0:0:0:
320,192,101555,1,0,0:0:0:0:
448,192,101630,1,0,0:0:0:0:
192,192,101705,1,0,0:0:0:0:
64,192,101780,1,0,0:0:0:0:
448,192,101855,1,8,0:0:0:0:
320,192,101855,1,0,0:0:0:0:
64,192,102005,1,0,0:0:0:0:
192,192,102155,1,0,0:0:0:0:
320,192,102305,1,0,0:0:0:0:
64,192,102455,1,2,0:0:0:0:
448,192,102455,1,0,0:0:0:0:
192,192,102605,1,0,0:0:0:0:
448,192,102755,1,0,0:0:0:0:
320,192,102905,1,0,0:0:0:0:
64,192,103055,1,0,0:0:0:0:
192,192,103055,1,8,0:0:0:0:
448,192,103355,128,0,103655:0:0:0:0:
64,192,103655,1,2,0:0:0:0:
320,192,103655,128,0,103855:0:0:0:0:
64,192,103880,128,0,104255:0:0:0:0:
192,192,104105,128,0,104255:0:0:0:0:
448,192,104255,1,8,0:0:0:0:
320,192,104255,128,0,104480:0:0:0:0:
448,192,104480,128,0,104855:0:0:0:0:
320,192,104705,128,0,104855:0:0:0:0:
192,192,104855,128,0,105080:0:0:0:0:
64,192,104855,1,2,0:0:0:0:
320,192,105005,1,8,0:0:0:0:
448,192,105005,1,0,0:0:0:0:
64,192,105080,128,0,105455:0:0:0:0:
192,192,105305,128,0,105455:0:0:0:0:
448,192,105455,128,0,105680:0:0:0:0:
320,192,105455,1,8,0:0:0:0:
64,192,105605,1,8,0:0:0:0:
192,192,105605,1,0,0:0:0:0:
320,192,105680,128,0,105830:0:0:0:0:
448,192,105830,128,0,106055:0:0:0:0:
64,192,106055,1,2,0:0:0:0:
192,192,106055,1,4,0:0:0:0:
320,192,106055,1,0,0:0:0:0:
448,192,106130,1,0,0:0:0:0:
320,192,106205,1,0,0:0:0:0:
64,192,106280,1,0,0:0:0:0:
192,192,106355,1,0,0:0:0:0:
448,192,106430,1,0,0:0:0:0:
320,192,106505,1,0,0:0:0:0:
192,192,106580,1,0,0:0:0:0:
64,192,106655,1,0,0:0:0:0:
320,192,106655,1,8,0:0:0:0:
192,192,106805,1,0,0:0:0:0:
448,192,106955,1,0,0:0:0:0:
64,192,107105,1,0,0:0:0:0:
320,192,107255,1,0,0:0:0:0:
448,192,107255,1,2,0:0:0:0:
64,192,107405,1,0,0:0:0:0:
192,192,107480,1,0,0:0:0:0:
320,192,107555,1,0,0:0:0:0:
192,192,107705,1,0,0:0:0:0:
64,192,107855,1,8,0:0:0:0:
448,192,107855,1,0,0:0:0:0:
192,192,108155,128,0,108455:0:0:0:0:
320,192,108455,1,2,0:0:0:0:
448,192,108455,1,0,0:0:0:0:
64,192,108530,1,0,0:0:0:0:
192,192,108605,1,0,0:0:0:0:
448,192,108680,1,0,0:0:0:0:
320,192,108755,1,0,0:0:0:0:
64,192,108830,1,0,0:0:0:0:
192,192,108905,1,0,0:0:0:0:
320,192,108980,1,0,0:0:0:0:
448,192,109055,1,0,0:0:0:0:
64,192,109055,1,8,0:0:0:0:
192,192,109205,1,0,0:0:0:0:
448,192,109355,1,0,0:0:0:0:
320,192,109505,1,0,0:0:0:0:
64,192,109655,1,0,0:0:0:0:
192,192,109655,1,2,0:0:0:0:
448,192,109805,1,0,0:0:0:0:
320,192,109880,1,0,0:0:0:0:
192,192,109955,1,0,0:0:0:0:
448,192,110105,1,0,0:0:0:0:
64,192,110255,1,0,0:0:0:0:
320,192,110255,1,8,0:0:0:0:
448,192,110555,128,0,110855:0:0:0:0:
64,192,110855,1,2,0:0:0:0:
192,192,110855,1,0,0:0:0:0:
320,192,110930,1,0,0:0:0:0:
448,192,111005,1,0,0:0:0:0:
192,192,111080,1,0,0:0:0:0:
64,192,111155,1,0,0:0:0:0:
320,192,111230,1,0,0:0:0:0:
448,192,111305,1,0,0:0:0:0:
64,192,111380,1,0,0:0:0:0:
192,192,111455,1,0,0:0:0:0:
448,192,111455,1,8,0:0:0:0:
64,192,111605,1,0,0:0:0:0:
320,192,111755,1,0,0:0:0:0:
448,192,111905,1,0,0:0:0:0:
64,192,112055,1,0,0:0:0:0:
192,192,112055,1,2,0:0:0:0:
448,192,112205,1,0,0:0:0:0:
320,192,112280,1,0,0:0:0:0:
192,192,112355,1,0,0:0:0:0:
64,192,112505,1,0,0:0:0:0:
192,192,112655,1,0,0:0:0:0:
448,192,112655,1,8,0:0:0:0:
320,192,112955,128,0,113255:0:0:0:0:
64,192,113255,1,2,0:0:0:0:
448,192,113255,1,0,0:0:0:0:
320,192,113480,1,0,0:0:0:0:
192,192,113705,1,0,0:0:0:0:
64,192,113855,1,0,0:0:0:0:
448,192,113855,1,8,0:0:0:0:
192,192,114080,1,0,0:0:0:0:
320,192,114305,1,0,0:0:0:0:
64,192,114455,1,2,0:0:0:0:
448,192,114455,1,0,0:0:0:0:
320,192,114680,5,0,0:0:0:0:
192,192,114905,1,0,0:0:0:0:
448,192,115055,1,8,0:0:0:0:
64,192,115055,1,0,0:0:0:0:
192,192,115280,1,0,0:0:0:0:
320,192,115505,1,0,0:0:0:0:
64,192,115655,5,4,0:0:0:0:
448,192,115655,1,0,0:0:0:0:
192,192,115655,1,0,0:0:0:0:
