osu file format v14

[General]
AudioFilename: audio.mp3
AudioLeadIn: 0
PreviewTime: 77255
Countdown: 0
SampleSet: Soft
StackLeniency: 0.7
Mode: 3
LetterboxInBreaks: 0
SpecialStyle: 0
WidescreenStoryboard: 0

[Editor]
DistanceSpacing: 0.8
BeatDivisor: 8
GridSize: 4
TimelineZoom: 1

[Metadata]
Title:Shelter
TitleUnicode:Shelter
Artist:Porter Robinson & Madeon
ArtistUnicode:Porter Robinson & Madeon
Creator:E x e
Version:Easy
Source:Shelter
Tags:thievley -genesis absolute zero jbhyperion wildone94 magic bomb mbomb a-1 pictures crunchyroll
BeatmapID:1069807
BeatmapSetID:502681

[Difficulty]
HPDrainRate:7
CircleSize:4
OverallDifficulty:7
ApproachRate:5
SliderMultiplier:1.4
SliderTickRate:1

[Events]
//Background and Video events
0,0,"68747470733a2f2f6b696e6f626c65732e732d756c2e65752f317157524d4b354e.png",0,0
//Break Periods
//Storyboard Layer 0 (Background)
//Storyboard Layer 1 (Fail)
//Storyboard Layer 2 (Pass)
//Storyboard Layer 3 (Foreground)
//Storyboard Sound Samples

[TimingPoints]
455,600,4,2,4,30,1,0
10055,-100,4,2,0,35,0,0
19055,-100,4,2,4,35,0,0
19655,-100,4,2,4,40,0,1
38855,-100,4,2,4,30,0,0
43655,-100,4,2,4,35,0,0
58055,-100,4,2,0,20,0,0
67655,-100,4,2,0,30,0,0
76055,-100,4,2,4,35,0,0
77255,-100,4,2,4,40,0,1
113255,-100,4,2,4,30,0,0

[HitObjects]
64,192,455,128,0,2855:0:0:0:0:
448,192,2855,128,0,5255:0:0:0:0:
192,192,5255,128,0,7655:0:0:0:0:
448,192,7655,1,0,0:0:0:0:
320,192,7880,1,0,0:0:0:0:
192,192,8105,1,0,0:0:0:0:
64,192,8255,1,0,0:0:0:0:
320,192,8480,1,0,0:0:0:0:
448,192,8705,1,0,0:0:0:0:
192,192,8855,1,0,0:0:0:0:
320,192,9080,1,0,0:0:0:0:
64,192,9305,1,0,0:0:0:0:
448,192,9455,1,0,0:0:0:0:
320,192,9680,1,0,0:0:0:0:
192,192,9905,1,0,0:0:0:0:
448,192,10055,1,0,0:0:0:0:
64,192,10055,1,0,0:0:0:0:
320,192,10655,1,2,0:0:0:0:
192,192,11855,1,2,0:0:0:0:
448,192,12455,1,0,0:0:0:0:
320,192,13055,1,2,0:0:0:0:
64,192,14255,1,2,0:0:0:0:
448,192,14855,1,0,0:0:0:0:
192,192,15455,1,2,0:0:0:0:
320,192,16655,1,2,0:0:0:0:
64,192,17255,1,0,0:0:0:0:
192,192,17480,1,0,0:0:0:0:
320,192,17705,1,0,0:0:0:0:
448,192,17855,1,0,0:0:0:0:
64,192,18080,1,0,0:0:0:0:
192,192,18305,1,0,0:0:0:0:
448,192,18455,1,0,0:0:0:0:
64,192,18680,1,0,0:0:0:0:
320,192,18905,1,0,0:0:0:0:
448,192,19055,1,0,0:0:0:0:
192,192,19280,1,0,0:0:0:0:
320,192,19505,1,0,0:0:0:0:
64,192,19655,1,4,0:0:0:0:
448,192,19655,1,2,0:0:0:0:
320,192,20255,1,8,0:0:0:0:
192,192,20855,1,2,0:0:0:0:
448,192,21455,1,8,0:0:0:0:
64,192,21455,1,0,0:0:0:0:
320,192,22055,1,2,0:0:0:0:
192,192,22655,1,8,0:0:0:0:
448,192,23255,1,2,0:0:0:0:
64,192,23855,1,8,0:0:0:0:
192,192,23855,1,0,0:0:0:0:
320,192,24155,1,0,0:0:0:0:
448,192,24455,1,2,0:0:0:0:
192,192,25055,1,8,0:0:0:0:
448,192,25655,1,2,0:0:0:0:
64,192,26255,1,8,0:0:0:0:
192,192,26255,1,0,0:0:0:0:
448,192,26855,1,2,0:0:0:0:
320,192,27080,1,0,0:0:0:0:
192,192,27305,1,0,0:0:0:0:
64,192,27455,1,8,0:0:0:0:
448,192,27680,1,0,0:0:0:0:
192,192,27905,1,0,0:0:0:0:
64,192,28055,1,2,0:0:0:0:
448,192,28280,1,0,0:0:0:0:
320,192,28505,1,0,0:0:0:0:
64,192,28655,1,0,0:0:0:0:
320,192,28880,1,0,0:0:0:0:
192,192,29105,1,0,0:0:0:0:
448,192,29255,1,4,0:0:0:0:
64,192,29255,1,2,0:0:0:0:
192,192,29855,1,8,0:0:0:0:
448,192,30455,1,2,0:0:0:0:
64,192,31055,1,8,0:0:0:0:
192,192,31055,1,0,0:0:0:0:
320,192,31655,1,2,0:0:0:0:
64,192,32255,1,8,0:0:0:0:
320,192,32855,1,2,0:0:0:0:
64,192,33455,1,8,0:0:0:0:
448,192,33455,1,0,0:0:0:0:
320,192,33755,1,0,0:0:0:0:
192,192,34055,1,2,0:0:0:0:
320,192,34655,1,8,0:0:0:0:
64,192,35255,1,2,0:0:0:0:
448,192,35855,1,8,0:0:0:0:
320,192,35855,1,0,0:0:0:0:
64,192,36455,1,2,0:0:0:0:
192,192,36680,1,0,0:0:0:0:
320,192,36905,1,0,0:0:0:0:
448,192,37055,1,8,0:0:0:0:
64,192,37280,1,0,0:0:0:0:
192,192,37505,1,0,0:0:0:0:
448,192,37655,1,2,0:0:0:0:
64,192,37880,1,0,0:0:0:0:
320,192,38105,1,0,0:0:0:0:
448,192,38255,1,8,0:0:0:0:
64,192,38480,1,0,0:0:0:0:
192,192,38705,1,0,0:0:0:0:
448,192,38855,128,0,41255:0:0:0:0:
320,192,38855,1,0,0:0:0:0:
192,192,40655,128,0,41255:0:0:0:0:
64,192,41255,128,0,43055:0:0:0:0:
320,192,43055,1,0,0:0:0:0:
192,192,43655,1,0,0:0:0:0:
64,192,43655,1,2,0:0:0:0:
448,192,44255,1,8,0:0:0:0:
64,192,44855,1,2,0:0:0:0:
320,192,45455,1,8,0:0:0:0:
192,192,46055,1,2,0:0:0:0:
448,192,46655,1,8,0:0:0:0:
64,192,47255,1,2,0:0:0:0:
448,192,47855,1,8,0:0:0:0:
320,192,48155,1,8,0:0:0:0:
64,192,48455,1,2,0:0:0:0:
192,192,48455,1,4,0:0:0:0:
448,192,49055,1,8,0:0:0:0:
192,192,49655,1,2,0:0:0:0:
320,192,50255,1,8,0:0:0:0:
64,192,50855,1,2,0:0:0:0:
448,192,51455,1,8,0:0:0:0:
320,192,52055,1,2,0:0:0:0:
64,192,52655,1,8,0:0:0:0:
192,192,53255,1,2,0:0:0:0:
448,192,53855,1,8,0:0:0:0:
64,192,54455,1,2,0:0:0:0:
320,192,55055,1,8,0:0:0:0:
192,192,55655,1,2,0:0:0:0:
448,192,56255,1,8,0:0:0:0:
64,192,56855,1,2,0:0:0:0:
320,192,57455,1,0,0:0:0:0:
448,192,57455,1,8,0:0:0:0:
192,192,57755,1,8,0:0:0:0:
64,192,58055,128,0,59255:0:0:0:0:
448,192,59255,128,0,60455:0:0:0:0:
192,192,60455,128,0,61655:0:0:0:0:
320,192,61655,128,0,62855:0:0:0:0:
64,192,62855,128,0,64055:0:0:0:0:
448,192,64055,128,0,65255:0:0:0:0:
192,192,65255,128,0,66455:0:0:0:0:
64,192,66455,128,0,67655:0:0:0:0:
320,192,67655,128,0,68855:0:0:0:0:
64,192,68255,1,2,0:0:0:0:
448,192,68855,128,0,70055:0:0:0:0:
192,192,69455,1,2,0:0:0:0:
64,192,70055,128,0,71255:0:0:0:0:
320,192,70655,1,2,0:0:0:0:
192,192,71255,128,0,72455:0:0:0:0:
448,192,71855,1,2,0:0:0:0:
448,192,72455,128,0,73655:0:0:0:0:
64,192,73655,128,0,74855:0:0:0:0:
320,192,74855,128,0,76055:0:0:0:0:
64,192,76055,1,8,0:0:0:0:
192,192,76355,1,8,0:0:0:0:
448,192,76655,1,8,0:0:0:0:
320,192,76955,1,2,0:0:0:0:
64,192,77255,1,2,0:0:0:0:
192,192,77255,1,4,0:0:0:0:
320,192,77855,1,8,0:0:0:0:
192,192,78455,1,2,0:0:0:0:
448,192,79055,1,8,0:0:0:0:
64,192,79055,1,0,0:0:0:0:
320,192,79655,1,2,0:0:0:0:
192,192,80255,1,8,0:0:0:0:
448,192,80855,1,2,0:0:0:0:
64,192,81455,1,8,0:0:0:0:
192,192,81455,1,0,0:0:0:0:
320,192,81755,1,0,0:0:0:0:
448,192,82055,1,2,0:0:0:0:
192,192,82655,1,8,0:0:0:0:
448,192,83255,1,2,0:0:0:0:
64,192,83855,1,8,0:0:0:0:
320,192,83855,1,0,0:0:0:0:
448,192,84455,1,2,0:0:0:0:
320,192,84680,1,0,0:0:0:0:
192,192,84905,1,0,0:0:0:0:
64,192,85055,1,8,0:0:0:0:
448,192,85280,1,0,0:0:0:0:
320,192,85505,1,0,0:0:0:0:
64,192,85655,1,2,0:0:0:0:
448,192,85880,1,0,0:0:0:0:
192,192,86105,1,0,0:0:0:0:
64,192,86255,1,0,0:0:0:0:
320,192,86480,1,0,0:0:0:0:
192,192,86705,1,0,0:0:0:0:
448,192,86855,1,4,0:0:0:0:
64,192,86855,1,2,0:0:0:0:
192,192,87455,1,8,0:0:0:0:
448,192,88055,1,2,0:0:0:0:
64,192,88655,1,8,0:0:0:0:
192,192,88655,1,0,0:0:0:0:
320,192,89255,1,2,0:0:0:0:
64,192,89855,1,8,0:0:0:0:
320,192,90455,1,2,0:0:0:0:
64,192,91055,1,0,0:0:0:0:
448,192,91055,1,8,0:0:0:0:
320,192,91355,1,0,0:0:0:0:
192,192,91655,1,2,0:0:0:0:
320,192,92255,1,8,0:0:0:0:
64,192,92855,1,2,0:0:0:0:
448,192,93455,1,8,0:0:0:0:
192,192,93455,1,0,0:0:0:0:
64,192,94055,1,2,0:0:0:0:
192,192,94280,1,0,0:0:0:0:
320,192,94505,1,0,0:0:0:0:
448,192,94655,1,8,0:0:0:0:
64,192,94880,1,0,0:0:0:0:
320,192,95105,1,0,0:0:0:0:
448,192,95255,1,2,0:0:0:0:
64,192,95480,1,0,0:0:0:0:
192,192,95705,1,0,0:0:0:0:
320,192,95855,1,0,0:0:0:0:
448,192,95855,1,8,0:0:0:0:
192,192,96155,1,8,0:0:0:0:
64,192,96155,1,0,0:0:0:0:
320,192,96455,1,2,0:0:0:0:
448,192,96455,1,4,0:0:0:0:
320,192,97055,1,8,0:0:0:0:
192,192,97655,1,2,0:0:0:0:
64,192,98255,1,8,0:0:0:0:
448,192,98255,1,0,0:0:0:0:
320,192,98855,1,2,0:0:0:0:
192,192,99455,1,8,0:0:0:0:
448,192,100055,1,2,0:0:0:0:
192,192,100655,1,0,0:0:0:0:
64,192,100655,1,8,0:0:0:0:
320,192,100955,1,0,0:0:0:0:
448,192,101255,1,2,0:0:0:0:
192,192,101855,1,8,0:0:0:0:
448,192,102455,1,2,0:0:0:0:
64,192,103055,1,8,0:0:0:0:
320,192,103055,1,0,0:0:0:0:
448,192,103655,1,2,0:0:0:0:
320,192,103880,1,0,0:0:0:0:
192,192,104105,1,0,0:0:0:0:
64,192,104255,1,8,0:0:0:0:
448,192,104480,1,0,0:0:0:0:
192,192,104705,1,0,0:0:0:0:
64,192,104855,1,2,0:0:0:0:
448,192,105080,1,0,0:0:0:0:
320,192,105305,1,0,0:0:0:0:
64,192,105455,1,8,0:0:0:0:
192,192,105680,1,0,0:0:0:0:
320,192,105905,1,0,0:0:0:0:
448,192,106055,1,4,0:0:0:0:
64,192,106055,1,2,0:0:0:0:
192,192,106655,1,8,0:0:0:0:
448,192,107255,1,2,0:0:0:0:
192,192,107855,1,0,0:0:0:0:
64,192,107855,1,8,0:0:0:0:
320,192,108455,1,2,0:0:0:0:
64,192,109055,1,8,0:0:0:0:
320,192,109655,1,2,0:0:0:0:
448,192,110255,1,0,0:0:0:0:
64,192,110255,1,8,0:0:0:0:
320,192,110555,1,0,0:0:0:0:
192,192,110855,1,2,0:0:0:0:
320,192,111455,1,8,0:0:0:0:
64,192,112055,1,2,0:0:0:0:
448,192,112655,1,8,0:0:0:0:
192,192,112655,1,0,0:0:0:0:
64,192,113255,1,2,0:0:0:0:
192,192,113480,1,0,0:0:0:0:
320,192,113705,1,0,0:0:0:0:
448,192,113855,1,8,0:0:0:0:
64,192,114080,1,0,0:0:0:0:
192,192,114305,1,0,0:0:0:0:
448,192,114455,1,2,0:0:0:0:
64,192,114755,1,0,0:0:0:0:
320,192,114905,1,0,0:0:0:0:
448,192,115055,1,8,0:0:0:0:
192,192,115280,1,0,0:0:0:0:
320,192,115505,1,0,0:0:0:0:
448,192,115655,1,4,0:0:0:0:
64,192,115655,1,0,0:0:0:0:
