osu file format v14

[General]
AudioFilename: shelter.mp3
AudioLeadIn: 0
PreviewTime: 19527
Countdown: 0
SampleSet: Soft
StackLeniency: 0.7
Mode: 3
LetterboxInBreaks: 0
SpecialStyle: 0
WidescreenStoryboard: 0

[Editor]
DistanceSpacing: 0.8
BeatDivisor: 4
GridSize: 4
TimelineZoom: 2.1

[Metadata]
Title:Shelter
TitleUnicode:Shelter
Artist:Porter Robinson & Madeon
ArtistUnicode:Porter Robinson & Madeon
Creator:Dellvangel
Version:Easy
Source:Shelter
Tags:A-1 Pictures Crunchyroll EDM Electronic Dance Music cut short version
BeatmapID:1110993
BeatmapSetID:522660

[Difficulty]
HPDrainRate:7
CircleSize:4
OverallDifficulty:7
ApproachRate:5
SliderMultiplier:1.4
SliderTickRate:1

[Events]
//Background and Video events
0,0,"BG2.jpg",0,0
//Break Periods
//Storyboard Layer 0 (Background)
//Storyboard Layer 1 (Fail)
//Storyboard Layer 2 (Pass)
//Storyboard Layer 3 (Foreground)
//Storyboard Sound Samples

[TimingPoints]
402,600,4,2,1,25,1,0
10002,-100,4,2,1,40,0,0
19602,-100,4,2,1,40,0,1
38802,-100,4,2,1,40,0,0
77202,-100,4,2,1,40,0,1
95802,-100,4,2,1,40,0,0
96402,-100,4,2,1,40,0,1
113202,-100,4,2,1,35,0,1
113802,-100,4,2,1,30,0,1
114402,-100,4,2,1,25,0,1
115002,-100,4,2,1,20,0,1
115602,-100,4,2,1,15,0,0

[HitObjects]
64,192,402,128,2,2802:3:0:0:0:
448,192,2802,128,2,3702:3:0:0:0:
192,192,3702,128,0,5202:0:0:0:0:
320,192,5202,128,2,6102:3:0:0:0:
64,192,6102,128,0,7302:0:0:0:0:
192,192,7302,1,0,0:0:0:0:
448,192,7602,128,0,8202:0:0:0:0:
320,192,8202,128,0,8802:0:0:0:0:
64,192,8802,128,0,9402:0:0:0:0:
192,192,9402,128,0,10002:0:0:0:0:
448,192,10002,1,0,0:0:0:0:
320,192,10302,1,0,0:0:0:0:
64,192,10602,1,2,3:0:0:0:
448,192,10902,1,0,0:0:0:0:
192,192,11202,1,0,0:0:0:0:
64,192,11502,1,0,0:0:0:0:
320,192,11802,1,2,3:0:0:0:
448,192,12102,1,0,0:0:0:0:
64,192,12402,1,0,0:0:0:0:
320,192,12702,1,0,0:0:0:0:
192,192,13002,1,2,3:0:0:0:
448,192,13302,1,0,0:0:0:0:
64,192,13602,1,0,0:0:0:0:
320,192,13902,1,0,0:0:0:0:
448,192,14202,1,2,3:0:0:0:
192,192,14502,1,0,0:0:0:0:
64,192,14802,1,0,0:0:0:0:
448,192,15102,1,0,0:0:0:0:
192,192,15402,1,2,3:0:0:0:
320,192,15702,1,0,0:0:0:0:
64,192,16002,1,0,0:0:0:0:
192,192,16302,1,0,0:0:0:0:
448,192,16602,1,2,3:0:0:0:
320,192,16902,1,0,0:0:0:0:
64,192,17202,128,0,17802:0:0:0:0:
192,192,17802,128,0,18402:0:0:0:0:
448,192,18402,128,0,19002:0:0:0:0:
320,192,19002,128,0,19602:0:0:0:0:
64,192,19602,1,4,0:0:0:0:
192,192,19602,1,2,0:0:0:0:
448,192,19902,1,0,0:0:0:0:
320,192,20202,1,0,0:0:0:0:
64,192,20202,1,8,0:0:0:0:
192,192,20502,1,0,0:0:0:0:
320,192,20802,1,2,0:0:0:0:
448,192,20802,1,0,0:0:0:0:
64,192,21102,1,0,0:0:0:0:
192,192,21402,1,0,0:0:0:0:
448,192,21402,1,8,0:0:0:0:
64,192,22002,1,0,0:0:0:0:
320,192,22002,1,2,0:0:0:0:
448,192,22302,1,0,0:0:0:0:
320,192,22602,1,0,0:0:0:0:
192,192,22602,1,8,0:0:0:0:
64,192,22902,1,0,0:0:0:0:
448,192,23202,1,0,0:0:0:0:
192,192,23202,1,2,0:0:0:0:
320,192,23502,1,0,0:0:0:0:
64,192,23802,128,8,24102:0:0:0:0:
448,192,24102,128,0,24402:0:0:0:0:
192,192,24402,1,0,0:0:0:0:
320,192,24402,1,2,0:0:0:0:
64,192,24702,1,0,0:0:0:0:
448,192,25002,1,0,0:0:0:0:
320,192,25002,1,8,0:0:0:0:
192,192,25302,1,0,0:0:0:0:
64,192,25602,1,0,0:0:0:0:
448,192,25602,1,2,0:0:0:0:
320,192,25902,1,0,0:0:0:0:
64,192,26202,1,8,0:0:0:0:
192,192,26202,1,0,0:0:0:0:
320,192,26502,1,0,0:0:0:0:
448,192,26802,128,2,27402:0:0:0:0:
64,192,27402,128,8,28002:0:0:0:0:
320,192,28002,128,2,28602:0:0:0:0:
192,192,28602,128,8,29202:0:0:0:0:
64,192,29202,1,4,0:0:0:0:
448,192,29202,1,2,0:0:0:0:
320,192,29502,1,0,0:0:0:0:
192,192,29802,1,0,0:0:0:0:
64,192,29802,1,8,0:0:0:0:
448,192,30102,1,0,0:0:0:0:
320,192,30402,1,2,0:0:0:0:
192,192,30402,1,0,0:0:0:0:
64,192,30702,1,0,0:0:0:0:
320,192,31002,1,0,0:0:0:0:
448,192,31002,1,8,0:0:0:0:
64,192,31602,1,2,0:0:0:0:
192,192,31602,1,0,0:0:0:0:
448,192,31902,1,0,0:0:0:0:
320,192,32202,1,8,0:0:0:0:
64,192,32202,1,0,0:0:0:0:
192,192,32502,1,0,0:0:0:0:
448,192,32802,1,2,0:0:0:0:
320,192,32802,1,0,0:0:0:0:
64,192,33102,1,0,0:0:0:0:
192,192,33402,128,8,33702:0:0:0:0:
320,192,33702,128,0,34002:0:0:0:0:
448,192,34002,1,0,0:0:0:0:
64,192,34002,1,2,0:0:0:0:
192,192,34302,1,0,0:0:0:0:
64,192,34602,1,8,0:0:0:0:
320,192,34602,1,0,0:0:0:0:
448,192,34902,1,0,0:0:0:0:
192,192,35202,1,2,0:0:0:0:
320,192,35202,1,0,0:0:0:0:
64,192,35502,1,0,0:0:0:0:
192,192,35802,1,0,0:0:0:0:
448,192,35802,1,8,0:0:0:0:
320,192,36102,1,0,0:0:0:0:
64,192,36402,128,2,37002:0:0:0:0:
448,192,37002,128,8,37602:0:0:0:0:
192,192,37602,128,2,38202:0:0:0:0:
320,192,38202,1,0,0:0:0:0:
64,192,38802,128,2,39702:0:0:0:0:
448,192,40602,128,0,41202:0:0:0:0:
192,192,41202,128,0,42102:0:0:0:0:
320,192,42102,128,0,43002:0:0:0:0:
64,192,43002,1,8,0:0:0:0:
448,192,43002,1,0,0:0:0:0:
192,192,43302,1,0,0:0:0:0:
320,192,43602,1,2,0:0:0:0:
64,192,43902,1,0,0:0:0:0:
192,192,44202,1,8,0:0:0:0:
448,192,44202,1,0,0:0:0:0:
320,192,44502,1,0,0:0:0:0:
64,192,44802,1,2,0:0:0:0:
448,192,45102,1,0,0:0:0:0:
64,192,45402,1,0,0:0:0:0:
192,192,45402,1,8,0:0:0:0:
320,192,45702,1,0,0:0:0:0:
448,192,46002,1,2,0:0:0:0:
192,192,46302,1,0,0:0:0:0:
320,192,46602,1,8,0:0:0:0:
64,192,46602,1,0,0:0:0:0:
448,192,46902,1,0,0:0:0:0:
192,192,47202,1,2,0:0:0:0:
64,192,47502,1,0,0:0:0:0:
320,192,47802,128,8,48402:3:0:0:0:
192,192,48402,128,2,49002:0:0:0:0:
64,192,49002,1,8,0:0:0:0:
448,192,49002,1,0,0:0:0:0:
320,192,49302,1,0,0:0:0:0:
64,192,49602,1,2,0:0:0:0:
192,192,49902,1,0,0:0:0:0:
320,192,50202,1,0,0:0:0:0:
448,192,50202,1,8,0:0:0:0:
64,192,50502,1,0,0:0:0:0:
448,192,50802,128,2,51402:0:0:0:0:
192,192,51402,1,8,0:0:0:0:
64,192,51402,1,0,0:0:0:0:
320,192,51702,1,0,0:0:0:0:
64,192,52002,1,2,0:0:0:0:
448,192,52302,1,0,0:0:0:0:
320,192,52602,1,0,0:0:0:0:
192,192,52602,1,8,0:0:0:0:
64,192,52902,1,0,0:0:0:0:
320,192,53202,128,2,53802:0:0:0:0:
64,192,53802,1,8,0:0:0:0:
448,192,53802,1,0,0:0:0:0:
192,192,54102,1,0,0:0:0:0:
448,192,54402,1,2,0:0:0:0:
64,192,54702,1,0,0:0:0:0:
448,192,55002,1,0,0:0:0:0:
320,192,55002,1,8,0:0:0:0:
192,192,55302,1,0,0:0:0:0:
64,192,55602,128,2,56202:0:0:0:0:
192,192,56202,1,0,0:0:0:0:
320,192,56202,1,8,0:0:0:0:
448,192,56502,1,0,0:0:0:0:
64,192,56802,1,2,0:0:0:0:
320,192,57102,1,0,0:0:0:0:
192,192,57402,128,8,58002:0:0:0:0:
448,192,58002,128,2,59202:0:0:0:0:
320,192,59202,128,0,60402:0:0:0:0:
64,192,60402,128,0,61602:0:0:0:0:
192,192,61602,128,0,62802:0:0:0:0:
448,192,62802,128,0,64002:0:0:0:0:
64,192,64002,128,0,65202:0:0:0:0:
320,192,65202,128,0,66402:0:0:0:0:
448,192,66402,128,0,67602:0:0:0:0:
64,192,67602,1,0,0:0:0:0:
320,192,67902,1,0,0:0:0:0:
192,192,68202,1,2,3:0:0:0:
448,192,68502,1,0,0:0:0:0:
64,192,68802,1,0,0:0:0:0:
192,192,69102,1,0,0:0:0:0:
448,192,69402,1,2,3:0:0:0:
320,192,69702,1,0,0:0:0:0:
64,192,70002,1,0,0:0:0:0:
448,192,70302,1,0,0:0:0:0:
192,192,70602,1,2,3:0:0:0:
64,192,70902,1,0,0:0:0:0:
320,192,71202,1,0,0:0:0:0:
448,192,71502,1,0,0:0:0:0:
64,192,71802,1,2,3:0:0:0:
320,192,72102,1,0,0:0:0:0:
192,192,72402,128,0,73602:0:0:0:0:
64,192,73602,128,0,74802:0:0:0:0:
448,192,74802,128,0,76002:0:0:0:0:
192,192,76002,128,8,76602:3:0:0:0:
320,192,76602,128,0,77202:0:0:0:0:
448,192,77202,1,4,0:0:0:0:
64,192,77202,1,2,0:0:0:0:
192,192,77502,1,0,0:0:0:0:
320,192,77802,1,8,0:0:0:0:
64,192,77802,1,0,0:0:0:0:
448,192,78102,1,0,0:0:0:0:
192,192,78402,1,2,0:0:0:0:
320,192,78402,1,0,0:0:0:0:
64,192,78702,1,0,0:0:0:0:
448,192,79002,1,8,0:0:0:0:
192,192,79002,1,0,0:0:0:0:
320,192,79602,1,2,0:0:0:0:
64,192,79602,1,0,0:0:0:0:
448,192,79902,1,0,0:0:0:0:
192,192,80202,1,0,0:0:0:0:
64,192,80202,1,8,0:0:0:0:
320,192,80502,1,0,0:0:0:0:
192,192,80802,1,2,0:0:0:0:
448,192,80802,1,0,0:0:0:0:
64,192,81102,1,0,0:0:0:0:
448,192,81402,128,8,81702:0:0:0:0:
64,192,81702,128,0,82002:0:0:0:0:
192,192,82002,1,2,0:0:0:0:
320,192,82002,1,0,0:0:0:0:
448,192,82302,1,0,0:0:0:0:
192,192,82602,1,8,0:0:0:0:
64,192,82602,1,0,0:0:0:0:
320,192,82902,1,0,0:0:0:0:
64,192,83202,1,2,0:0:0:0:
448,192,83202,1,0,0:0:0:0:
192,192,83502,1,0,0:0:0:0:
448,192,83802,1,8,0:0:0:0:
320,192,83802,1,0,0:0:0:0:
192,192,84102,1,0,0:0:0:0:
64,192,84402,128,2,85002:0:0:0:0:
320,192,85002,128,8,85602:0:0:0:0:
192,192,85602,128,2,86202:0:0:0:0:
448,192,86202,128,8,86802:0:0:0:0:
64,192,86802,1,4,0:0:0:0:
320,192,86802,1,2,0:0:0:0:
192,192,87102,1,0,0:0:0:0:
448,192,87402,1,0,0:0:0:0:
320,192,87402,1,8,0:0:0:0:
64,192,87702,1,0,0:0:0:0:
192,192,88002,1,2,0:0:0:0:
448,192,88002,1,0,0:0:0:0:
320,192,88302,1,0,0:0:0:0:
192,192,88602,1,0,0:0:0:0:
64,192,88602,1,8,0:0:0:0:
320,192,89202,1,0,0:0:0:0:
448,192,89202,1,2,0:0:0:0:
192,192,89502,1,0,0:0:0:0:
64,192,89802,1,8,0:0:0:0:
448,192,89802,1,0,0:0:0:0:
320,192,90102,1,0,0:0:0:0:
64,192,90402,1,2,0:0:0:0:
192,192,90402,1,0,0:0:0:0:
448,192,90702,1,0,0:0:0:0:
320,192,91002,128,8,91302:0:0:0:0:
192,192,91302,128,0,91602:0:0:0:0:
448,192,91602,1,2,0:0:0:0:
64,192,91602,1,0,0:0:0:0:
320,192,91902,1,0,0:0:0:0:
192,192,92202,1,8,0:0:0:0:
448,192,92202,1,0,0:0:0:0:
64,192,92502,1,0,0:0:0:0:
192,192,92802,1,0,0:0:0:0:
320,192,92802,1,2,0:0:0:0:
448,192,93102,1,0,0:0:0:0:
320,192,93402,1,8,0:0:0:0:
64,192,93402,1,0,0:0:0:0:
192,192,93702,1,0,0:0:0:0:
448,192,94002,128,2,94602:0:0:0:0:
320,192,94602,128,8,95202:0:0:0:0:
64,192,95202,128,2,95802:0:0:0:0:
192,192,95802,128,8,96402:0:0:0:0:
448,192,96402,1,4,0:0:0:0:
320,192,96402,1,2,0:0:0:0:
64,192,96702,1,0,0:0:0:0:
320,192,97002,1,8,0:0:0:0:
192,192,97002,1,0,0:0:0:0:
448,192,97302,1,0,0:0:0:0:
64,192,97602,1,0,0:0:0:0:
192,192,97602,1,2,0:0:0:0:
320,192,97902,1,0,0:0:0:0:
192,192,98202,1,0,0:0:0:0:
448,192,98202,1,8,0:0:0:0:
64,192,98502,1,0,0:0:0:0:
320,192,98802,1,2,0:0:0:0:
192,192,98802,1,0,0:0:0:0:
448,192,99102,1,0,0:0:0:0:
64,192,99402,1,0,0:0:0:0:
320,192,99402,1,8,0:0:0:0:
192,192,99702,1,0,0:0:0:0:
448,192,100002,1,0,0:0:0:0:
320,192,100002,1,2,0:0:0:0:
64,192,100302,1,0,0:0:0:0:
192,192,100602,128,8,100902:0:0:0:0:
320,192,100902,128,0,101202:0:0:0:0:
64,192,101202,1,0,0:0:0:0:
448,192,101202,1,2,0:0:0:0:
192,192,101502,1,0,0:0:0:0:
64,192,101802,1,8,0:0:0:0:
320,192,101802,1,0,0:0:0:0:
448,192,102102,1,0,0:0:0:0:
320,192,102402,1,0,0:0:0:0:
192,192,102402,1,2,0:0:0:0:
64,192,102702,1,0,0:0:0:0:
448,192,103002,1,8,0:0:0:0:
192,192,103002,1,0,0:0:0:0:
320,192,103302,1,0,0:0:0:0:
64,192,103602,128,2,104202:0:0:0:0:
320,192,104202,128,8,104802:0:0:0:0:
192,192,104802,128,2,105402:0:0:0:0:
448,192,105402,128,8,106002:0:0:0:0:
64,192,106002,1,4,0:0:0:0:
320,192,106002,1,2,0:0:0:0:
192,192,106302,1,0,0:0:0:0:
448,192,106602,1,8,0:0:0:0:
320,192,106602,1,0,0:0:0:0:
64,192,106902,1,0,0:0:0:0:
320,192,107202,1,0,0:0:0:0:
192,192,107202,1,2,0:0:0:0:
448,192,107502,1,0,0:0:0:0:
64,192,107802,1,8,0:0:0:0:
192,192,107802,1,0,0:0:0:0:
320,192,108102,1,0,0:0:0:0:
448,192,108402,1,2,0:0:0:0:
192,192,108402,1,0,0:0:0:0:
64,192,108702,1,0,0:0:0:0:
320,192,109002,1,0,0:0:0:0:
448,192,109002,1,8,0:0:0:0:
192,192,109302,1,0,0:0:0:0:
64,192,109602,1,2,0:0:0:0:
320,192,109602,1,0,0:0:0:0:
448,192,109902,1,0,0:0:0:0:
64,192,110202,128,8,110502:0:0:0:0:
448,192,110502,128,0,110802:0:0:0:0:
320,192,110802,1,2,0:0:0:0:
192,192,110802,1,0,0:0:0:0:
64,192,111102,1,0,0:0:0:0:
192,192,111402,1,0,0:0:0:0:
448,192,111402,1,8,0:0:0:0:
320,192,111702,1,0,0:0:0:0:
64,192,112002,1,0,0:0:0:0:
448,192,112002,1,2,0:0:0:0:
192,192,112302,1,0,0:0:0:0:
320,192,112602,1,8,0:0:0:0:
64,192,112602,1,0,0:0:0:0:
448,192,112902,1,0,0:0:0:0:
192,192,113202,128,2,113802:0:0:0:0:
448,192,113802,128,8,114402:0:0:0:0:
64,192,114402,128,2,115002:0:0:0:0:
320,192,115002,128,8,115602:0:0:0:0:
448,192,115602,1,2,0:0:0:0:
64,192,115602,1,0,0:0:0:0:
