osu file format v14

[General]
AudioFilename: audio.mp3
AudioLeadIn: 0
PreviewTime: 126442
Countdown: 1
SampleSet: Normal
StackLeniency: 0.7
Mode: 1
LetterboxInBreaks: 0
WidescreenStoryboard: 0

[Editor]
DistanceSpacing: 0.1
BeatDivisor: 3
GridSize: 32
TimelineZoom: 2.2

[Metadata]
Title:Shelter
TitleUnicode:Shelter
Artist:Porter Robinson & Madeon
ArtistUnicode:Porter Robinson & Madeon
Creator:[Eve]
Version:Oni
Source:Shelter
Tags:edm electronic dance music a-1 pictures crunchyroll
BeatmapID:1142378
BeatmapSetID:539101

[Difficulty]
HPDrainRate:5
CircleSize:2
OverallDifficulty:5
ApproachRate:5
SliderMultiplier:1.39753545375445
SliderTickRate:1

[Events]
//Background and Video events
0,0,"Untitled.png",0,0
//Break Periods
//Storyboard Layer 0 (Background)
//Storyboard Layer 1 (Fail)
//Storyboard Layer 2 (Pass)
//Storyboard Layer 3 (Foreground)
//Storyboard Sound Samples

[TimingPoints]
49642,600,4,1,0,50,1,0
49742,-66.6666666666667,4,1,0,50,0,0
59242,-66.6666666666667,4,1,0,80,0,0
68842,-50,4,1,0,100,0,1
88042,-66.6666666666667,4,1,0,50,0,0
97042,-66.6666666666667,4,1,0,75,0,0
107392,-66.6666666666667,4,1,0,50,0,0
116842,-66.6666666666667,4,1,0,75,0,0
126442,-50,4,1,0,100,0,1
162442,-52.6315789473684,4,1,0,100,0,0
163042,-55.5555555555556,4,1,0,100,0,0
163642,-58.8235294117647,4,1,0,100,0,0
164242,-62.5,4,1,0,100,0,0
164842,-66.6666666666667,4,1,0,50,0,0
202492,-66.6666666666667,4,1,0,75,0,0
220042,-76.9230769230769,4,1,0,75,0,0
220242,-75.7575757575758,4,1,0,75,0,0
220442,-74.6268656716418,4,1,0,75,0,0
220642,-73.5294117647059,4,1,0,75,0,0
220842,-72.463768115942,4,1,0,75,0,0
221042,-71.4285714285714,4,1,0,75,0,0
221242,-70.4225352112676,4,1,0,75,0,0
221442,-69.4444444444444,4,1,0,75,0,0
221642,-68.4931506849315,4,1,0,90,0,0
221842,-66.6666666666667,4,1,0,90,0,0
221992,-62.5,4,1,0,90,0,0
222142,-58.8235294117647,4,1,0,90,0,0
222292,-55.5555555555556,4,1,0,90,0,0
222442,-50,4,1,0,100,0,1
258442,-55.5555555555556,4,1,0,90,0,0
260842,-50,4,1,0,100,0,1
270442,-50,4,1,0,100,0,0
275242,-50,4,1,0,75,0,0
283255,600,4,1,0,65,1,0
283870,600,4,1,0,65,1,0
284039,600,4,1,0,65,1,0
284354,600,4,1,0,65,1,0
285819,600,4,1,0,65,1,0
286474,600,4,1,0,65,1,0
286643,600,4,1,0,65,1,0
286955,600,4,1,0,65,1,0
287840,600,4,1,0,65,1,0
288168,600,4,1,0,65,1,0
288497,600,4,1,0,65,1,0
289154,600,4,1,0,65,1,0
289318,600,4,1,0,65,1,0
289621,600,4,1,0,65,1,0
290823,600,4,1,0,65,1,0
291126,600,4,1,0,65,1,0
291362,631.578947368421,4,1,0,65,1,0
291362,-95.2380952380952,4,1,0,65,0,0
293768,600,4,1,0,65,1,0
294602,600,4,1,0,65,1,0
294950,600,4,1,0,65,1,0
296430,600,4,1,0,65,1,0
297086,600,4,1,0,65,1,0
297245,600,4,1,0,65,1,0
297563,600,4,1,0,65,1,0
298387,600,4,1,0,65,1,0
298718,600,4,1,0,65,1,0
299033,600,4,1,0,65,1,0
299699,600,4,1,0,65,1,0
299855,600,4,1,0,65,1,0
300193,600,4,1,0,65,1,0
301028,600,4,1,0,65,1,0
301334,600,4,1,0,65,1,0
301634,600,4,1,0,65,1,0
301887,600,4,1,0,65,1,0
302141,600,4,1,0,65,1,0
302310,600,4,1,0,65,1,0
302587,600,4,1,0,65,1,0
302865,600,4,1,0,65,1,0
303050,600,4,1,0,65,1,0
303421,600,4,1,0,65,1,0
303767,600,4,1,0,65,1,0
304183,600,4,1,0,65,1,0
304542,600,4,1,0,65,1,0
305044,600,4,1,0,65,1,0
305527,600,4,1,0,65,1,0
306203,600,4,1,0,65,1,0
307203,600,4,1,0,65,1,0
307714,600,4,1,0,65,1,0
308187,600,4,1,0,65,1,0
308552,600,4,1,0,65,1,0
309877,600,4,1,0,65,1,0
310348,600,4,1,0,65,1,0
310871,600,4,1,0,65,1,0
311536,600,4,1,0,65,1,0
311874,600,4,1,0,65,1,0
312212,600,4,1,0,65,1,0
312539,600,4,1,0,65,1,0
313036,600,4,1,0,65,1,0
313533,600,4,1,0,65,1,0
314215,600,4,1,0,65,1,0
314546,600,4,1,0,65,1,0
314877,600,4,1,0,65,1,0
315207,600,4,1,0,65,1,0
315859,600,4,1,0,65,1,0
316220,600,4,1,0,65,1,0
316562,600,4,1,0,65,1,0
317162,600,4,1,0,65,1,0
317521,600,4,1,0,65,1,0
318535,600,4,1,0,65,1,0
318835,600,4,1,0,65,1,0
319032,600,4,1,0,65,1,0
319529,600,4,1,0,65,1,0
319705,600,4,1,0,65,1,0
320294,600,4,1,0,65,1,0
320463,600,4,1,0,65,1,0
321192,600,4,1,0,65,1,0
321538,600,4,1,0,65,1,0
321885,600,4,1,0,65,1,0
321885,600,4,1,0,65,1,0
322503,600,4,1,0,65,1,0
322858,600,4,1,0,65,1,0
323213,600,4,1,0,65,1,0
325258,600,4,1,0,65,1,0
325940,600,4,1,0,65,1,0
326622,600,4,1,0,65,1,0
326773,600,4,1,0,65,1,0
327138,600,4,1,0,65,1,0

[HitObjects]
256,192,49642,5,0,0:0:0:0:
256,192,50242,1,2,0:0:0:0:
256,192,50392,1,0,0:0:0:0:
256,192,50692,1,0,0:0:0:0:
256,192,52042,1,0,0:0:0:0:
256,192,52642,1,2,0:0:0:0:
256,192,52792,1,0,0:0:0:0:
256,192,53092,1,2,0:0:0:0:
256,192,53842,1,2,0:0:0:0:
256,192,54142,1,0,0:0:0:0:
256,192,54442,1,0,0:0:0:0:
256,192,55042,1,2,0:0:0:0:
256,192,55192,1,0,0:0:0:0:
256,192,55492,1,0,0:0:0:0:
256,192,56542,1,0,0:0:0:0:
256,192,56842,1,2,0:0:0:0:
256,192,57067,1,0,0:0:0:0:
256,192,57292,1,2,0:0:0:0:
256,192,57442,1,2,0:0:0:0:
256,192,57667,1,0,0:0:0:0:
256,192,57892,1,2,0:0:0:0:
256,192,58042,1,2,0:0:0:0:
256,192,58267,1,0,0:0:0:0:
256,192,58492,1,2,0:0:0:0:
256,192,58642,1,2,0:0:0:0:
256,192,58867,1,0,0:0:0:0:
256,192,59092,1,2,0:0:0:0:
256,192,59242,1,0,0:0:0:0:
256,192,59842,1,2,0:0:0:0:
256,192,59992,1,2,0:0:0:0:
256,192,60292,1,0,0:0:0:0:
256,192,61042,1,0,0:0:0:0:
256,192,61342,1,2,0:0:0:0:
256,192,61642,1,0,0:0:0:0:
256,192,62242,1,2,0:0:0:0:
256,192,62392,1,0,0:0:0:0:
256,192,62692,1,2,0:0:0:0:
256,192,63442,1,0,0:0:0:0:
256,192,63742,1,2,0:0:0:0:
256,192,64042,1,2,0:0:0:0:
256,192,64642,1,2,0:0:0:0:
256,192,64792,1,0,0:0:0:0:
256,192,65092,1,0,0:0:0:0:
256,192,65842,1,2,0:0:0:0:
256,192,66142,1,0,0:0:0:0:
256,192,66442,1,2,0:0:0:0:
256,192,66667,1,0,0:0:0:0:
256,192,66892,1,0,0:0:0:0:
256,192,67042,1,2,0:0:0:0:
256,192,67267,1,0,0:0:0:0:
256,192,67492,1,0,0:0:0:0:
256,192,67642,1,2,0:0:0:0:
256,192,67867,1,0,0:0:0:0:
256,192,68092,1,0,0:0:0:0:
256,192,68242,1,2,0:0:0:0:
256,192,68467,1,0,0:0:0:0:
256,192,68692,1,2,0:0:0:0:
256,192,68842,1,0,0:0:0:0:
256,192,68917,1,0,0:0:0:0:
256,192,68992,1,0,0:0:0:0:
256,192,69142,1,0,0:0:0:0:
256,192,69217,1,2,0:0:0:0:
256,192,69292,1,0,0:0:0:0:
256,192,69367,1,0,0:0:0:0:
256,192,69442,1,2,0:0:0:0:
256,192,69592,1,0,0:0:0:0:
256,192,69667,1,0,0:0:0:0:
256,192,69742,1,2,0:0:0:0:
256,192,69892,1,2,0:0:0:0:
256,192,70042,1,0,0:0:0:0:
256,192,70117,1,0,0:0:0:0:
256,192,70192,1,0,0:0:0:0:
256,192,70342,1,0,0:0:0:0:
256,192,70417,1,0,0:0:0:0:
256,192,70492,1,2,0:0:0:0:
256,192,70567,1,0,0:0:0:0:
256,192,70642,1,2,0:0:0:0:
256,192,70942,1,2,0:0:0:0:
256,192,71242,1,0,0:0:0:0:
256,192,71317,1,0,0:0:0:0:
256,192,71392,1,0,0:0:0:0:
256,192,71467,1,0,0:0:0:0:
256,192,71542,1,0,0:0:0:0:
256,192,71692,1,0,0:0:0:0:
256,192,71767,1,0,0:0:0:0:
256,192,71842,1,2,0:0:0:0:
256,192,71992,1,0,0:0:0:0:
256,192,72067,1,2,0:0:0:0:
256,192,72142,1,0,0:0:0:0:
256,192,72217,1,0,0:0:0:0:
256,192,72292,1,2,0:0:0:0:
256,192,72442,1,0,0:0:0:0:
256,192,72592,1,0,0:0:0:0:
256,192,72667,1,0,0:0:0:0:
256,192,72742,1,0,0:0:0:0:
256,192,72892,1,0,0:0:0:0:
256,192,72967,1,0,0:0:0:0:
256,192,73042,1,2,0:0:0:0:
256,192,73342,1,2,0:0:0:0:
256,192,73642,1,0,0:0:0:0:
256,192,73717,1,0,0:0:0:0:
256,192,73792,1,0,0:0:0:0:
256,192,73942,1,2,0:0:0:0:
256,192,74017,1,0,0:0:0:0:
256,192,74092,1,0,0:0:0:0:
256,192,74167,1,0,0:0:0:0:
256,192,74242,1,2,0:0:0:0:
256,192,74392,1,0,0:0:0:0:
256,192,74542,1,2,0:0:0:0:
256,192,74617,1,0,0:0:0:0:
256,192,74692,1,0,0:0:0:0:
256,192,74842,1,0,0:0:0:0:
256,192,74917,1,0,0:0:0:0:
256,192,74992,1,0,0:0:0:0:
256,192,75067,1,0,0:0:0:0:
256,192,75142,1,2,0:0:0:0:
256,192,75292,1,0,0:0:0:0:
256,192,75367,1,0,0:0:0:0:
256,192,75442,1,2,0:0:0:0:
256,192,75742,1,0,0:0:0:0:
256,192,76042,1,2,0:0:0:0:
256,192,76192,1,0,0:0:0:0:
256,192,76267,1,0,0:0:0:0:
256,192,76342,1,0,0:0:0:0:
256,192,76492,1,2,0:0:0:0:
256,192,76642,1,2,0:0:0:0:
256,192,76792,1,0,0:0:0:0:
256,192,76867,1,0,0:0:0:0:
256,192,76942,1,0,0:0:0:0:
256,192,77092,1,2,0:0:0:0:
256,192,77242,1,2,0:0:0:0:
256,192,77392,1,0,0:0:0:0:
256,192,77467,1,0,0:0:0:0:
256,192,77542,1,0,0:0:0:0:
256,192,77692,1,2,0:0:0:0:
256,192,77842,1,2,0:0:0:0:
256,192,77992,1,0,0:0:0:0:
256,192,78067,1,0,0:0:0:0:
256,192,78142,1,0,0:0:0:0:
256,192,78292,1,2,0:0:0:0:
256,192,78442,1,0,0:0:0:0:
256,192,78517,1,0,0:0:0:0:
256,192,78592,1,2,0:0:0:0:
256,192,78667,1,0,0:0:0:0:
256,192,78742,1,2,0:0:0:0:
256,192,78892,1,0,0:0:0:0:
256,192,78967,1,0,0:0:0:0:
256,192,79042,1,2,0:0:0:0:
256,192,79192,1,0,0:0:0:0:
256,192,79342,1,0,0:0:0:0:
256,192,79417,1,2,0:0:0:0:
256,192,79492,1,0,0:0:0:0:
256,192,79567,1,0,0:0:0:0:
256,192,79642,1,2,0:0:0:0:
256,192,79792,1,0,0:0:0:0:
256,192,79867,1,0,0:0:0:0:
256,192,79942,1,0,0:0:0:0:
256,192,80092,1,0,0:0:0:0:
256,192,80242,1,2,0:0:0:0:
256,192,80542,1,2,0:0:0:0:
256,192,80842,1,0,0:0:0:0:
256,192,80917,1,0,0:0:0:0:
256,192,80992,1,0,0:0:0:0:
256,192,81142,1,0,0:0:0:0:
256,192,81217,1,0,0:0:0:0:
256,192,81292,1,0,0:0:0:0:
256,192,81367,1,0,0:0:0:0:
256,192,81442,1,2,0:0:0:0:
256,192,81592,1,0,0:0:0:0:
256,192,81742,1,2,0:0:0:0:
256,192,81817,1,0,0:0:0:0:
256,192,81892,1,0,0:0:0:0:
256,192,82042,1,0,0:0:0:0:
256,192,82117,1,0,0:0:0:0:
256,192,82192,1,2,0:0:0:0:
256,192,82267,1,0,0:0:0:0:
256,192,82342,1,2,0:0:0:0:
256,192,82492,1,0,0:0:0:0:
256,192,82567,1,0,0:0:0:0:
256,192,82642,1,2,0:0:0:0:
256,192,82942,1,2,0:0:0:0:
256,192,83242,1,0,0:0:0:0:
256,192,83317,1,2,0:0:0:0:
256,192,83392,1,0,0:0:0:0:
256,192,83467,1,0,0:0:0:0:
256,192,83542,1,2,0:0:0:0:
256,192,83692,1,0,0:0:0:0:
256,192,83767,1,0,0:0:0:0:
256,192,83842,1,2,0:0:0:0:
256,192,83992,1,0,0:0:0:0:
256,192,84142,1,2,0:0:0:0:
256,192,84217,1,0,0:0:0:0:
256,192,84292,1,0,0:0:0:0:
256,192,84367,1,0,0:0:0:0:
256,192,84442,1,2,0:0:0:0:
256,192,84592,1,0,0:0:0:0:
256,192,84667,1,0,0:0:0:0:
256,192,84742,1,2,0:0:0:0:
256,192,84892,1,2,0:0:0:0:
256,192,85042,1,0,0:0:0:0:
256,192,85342,1,2,0:0:0:0:
256,192,85642,1,2,0:0:0:0:
256,192,85717,1,0,0:0:0:0:
256,192,85792,1,0,0:0:0:0:
256,192,85867,1,0,0:0:0:0:
256,192,86092,1,0,0:0:0:0:
256,192,86242,1,2,0:0:0:0:
256,192,86317,1,0,0:0:0:0:
256,192,86392,1,0,0:0:0:0:
256,192,86467,1,0,0:0:0:0:
256,192,86692,1,0,0:0:0:0:
256,192,86842,1,2,0:0:0:0:
256,192,86917,1,0,0:0:0:0:
256,192,86992,1,0,0:0:0:0:
256,192,87067,1,0,0:0:0:0:
256,192,87292,1,0,0:0:0:0:
256,192,87442,1,2,0:0:0:0:
256,192,87517,1,0,0:0:0:0:
256,192,87592,1,0,0:0:0:0:
256,192,87667,1,0,0:0:0:0:
256,192,87892,1,2,0:0:0:0:
256,192,88042,1,0,0:0:0:0:
256,192,88192,8,2,92092,0:0:0:0:
256,192,92242,5,2,0:0:0:0:
256,192,92392,1,0,0:0:0:0:
256,192,92542,1,0,0:0:0:0:
256,192,92692,1,0,0:0:0:0:
256,192,92842,1,0,0:0:0:0:
256,192,93142,1,0,0:0:0:0:
256,192,93292,1,0,0:0:0:0:
256,192,93442,1,2,0:0:0:0:
256,192,93742,1,0,0:0:0:0:
256,192,93892,1,2,0:0:0:0:
256,192,94042,1,0,0:0:0:0:
256,192,94342,1,0,0:0:0:0:
256,192,94492,1,0,0:0:0:0:
256,192,94642,1,2,0:0:0:0:
256,192,94792,1,0,0:0:0:0:
256,192,94942,1,2,0:0:0:0:
256,192,95092,1,2,0:0:0:0:
256,192,95242,1,0,0:0:0:0:
256,192,95542,1,0,0:0:0:0:
256,192,95692,1,0,0:0:0:0:
256,192,95842,1,2,0:0:0:0:
256,192,96142,1,0,0:0:0:0:
256,192,96292,1,2,0:0:0:0:
256,192,96442,1,0,0:0:0:0:
256,192,96742,1,0,0:0:0:0:
256,192,97042,1,2,0:0:0:0:
256,192,97192,1,2,0:0:0:0:
256,192,97342,1,2,0:0:0:0:
256,192,97492,1,2,0:0:0:0:
256,192,97642,1,0,0:0:0:0:
256,192,97717,1,0,0:0:0:0:
256,192,97792,1,0,0:0:0:0:
256,192,98242,1,2,0:0:0:0:
256,192,98392,1,0,0:0:0:0:
256,192,98542,1,2,0:0:0:0:
256,192,98692,1,2,0:0:0:0:
256,192,98842,1,0,0:0:0:0:
256,192,99142,1,0,0:0:0:0:
256,192,99292,1,0,0:0:0:0:
256,192,99442,1,2,0:0:0:0:
256,192,99742,1,0,0:0:0:0:
256,192,99892,1,2,0:0:0:0:
256,192,100042,1,0,0:0:0:0:
256,192,100192,1,2,0:0:0:0:
256,192,100267,1,2,0:0:0:0:
256,192,100342,1,2,0:0:0:0:
256,192,100417,1,2,0:0:0:0:
256,192,100492,1,2,0:0:0:0:
256,192,100567,1,2,0:0:0:0:
256,192,100642,1,0,0:0:0:0:
256,192,100792,1,2,0:0:0:0:
256,192,100942,1,2,0:0:0:0:
256,192,101092,1,2,0:0:0:0:
256,192,101242,1,0,0:0:0:0:
256,192,101542,1,0,0:0:0:0:
256,192,101692,1,0,0:0:0:0:
256,192,101842,1,2,0:0:0:0:
256,192,101992,1,0,0:0:0:0:
256,192,102142,1,2,0:0:0:0:
256,192,102292,1,2,0:0:0:0:
256,192,102442,1,0,0:0:0:0:
256,192,102517,1,0,0:0:0:0:
256,192,102592,1,0,0:0:0:0:
256,192,102667,1,0,0:0:0:0:
256,192,102742,1,0,0:0:0:0:
256,192,102817,1,0,0:0:0:0:
256,192,102892,1,0,0:0:0:0:
256,192,102967,1,0,0:0:0:0:
256,192,103042,1,2,0:0:0:0:
256,192,103192,1,0,0:0:0:0:
256,192,103342,1,0,0:0:0:0:
256,192,103492,1,2,0:0:0:0:
256,192,103642,1,0,0:0:0:0:
256,192,103942,1,0,0:0:0:0:
256,192,104092,1,0,0:0:0:0:
256,192,104242,1,2,0:0:0:0:
256,192,104542,1,0,0:0:0:0:
256,192,104692,1,2,0:0:0:0:
256,192,104842,1,0,0:0:0:0:
256,192,104992,1,2,0:0:0:0:
256,192,105067,1,2,0:0:0:0:
256,192,105142,1,2,0:0:0:0:
256,192,105217,1,2,0:0:0:0:
256,192,105292,1,2,0:0:0:0:
256,192,105367,1,2,0:0:0:0:
256,192,105442,1,0,0:0:0:0:
288,192,105592,1,0,0:0:0:0:
288,192,105742,1,2,0:0:0:0:
256,192,106042,1,0,0:0:0:0:
256,192,106192,1,0,0:0:0:0:
256,192,106342,1,2,0:0:0:0:
256,192,106492,1,2,0:0:0:0:
256,192,106642,1,6,0:0:0:0:
256,192,106942,1,2,0:0:0:0:
256,192,107092,1,2,0:0:0:0:
256,192,107242,1,0,0:0:0:0:
0,32,107392,2,0,L|160:32,1,157.500006008148
0,32,108442,2,0,L|224:32,1,210.000008010865
0,32,109642,2,0,L|224:32,1,210.000008010865
0,32,110842,2,0,L|224:32,1,210.000008010865
256,192,112042,1,0,0:0:0:0:
256,192,112642,1,2,0:0:0:0:
256,192,113242,1,2,0:0:0:0:
256,192,113842,1,0,0:0:0:0:
256,192,114442,1,0,0:0:0:0:
256,192,115042,1,2,0:0:0:0:
256,192,115642,1,2,0:0:0:0:
256,192,116242,1,0,0:0:0:0:
256,192,116842,1,0,0:0:0:0:
256,192,116992,1,2,0:0:0:0:
256,192,117142,1,0,0:0:0:0:
256,192,117292,1,0,0:0:0:0:
256,192,117442,1,2,0:0:0:0:
256,192,117742,1,0,0:0:0:0:
256,192,117892,1,2,0:0:0:0:
256,192,118042,1,0,0:0:0:0:
256,192,118192,1,2,0:0:0:0:
256,192,118342,1,0,0:0:0:0:
256,192,118417,1,0,0:0:0:0:
256,192,118492,1,0,0:0:0:0:
256,192,118642,1,2,0:0:0:0:
256,192,118942,1,0,0:0:0:0:
256,192,119092,1,2,0:0:0:0:
256,192,119242,1,0,0:0:0:0:
256,192,119317,1,0,0:0:0:0:
256,192,119392,1,2,0:0:0:0:
256,192,119542,1,0,0:0:0:0:
256,192,119617,1,0,0:0:0:0:
256,192,119692,1,0,0:0:0:0:
256,192,119842,1,2,0:0:0:0:
256,192,120142,1,0,0:0:0:0:
256,192,120292,1,2,0:0:0:0:
256,192,120442,1,0,0:0:0:0:
256,192,120592,1,2,0:0:0:0:
256,192,120667,1,2,0:0:0:0:
256,192,120742,1,2,0:0:0:0:
256,192,120892,1,0,0:0:0:0:
256,192,121042,1,2,0:0:0:0:
256,192,121342,1,0,0:0:0:0:
256,192,121492,1,2,0:0:0:0:
256,192,121642,1,0,0:0:0:0:
256,192,121792,8,0,125092,0:0:0:0:
256,192,125242,5,2,0:0:0:0:
256,192,125317,1,2,0:0:0:0:
256,192,125392,1,2,0:0:0:0:
256,192,125542,1,2,0:0:0:0:
256,192,125692,1,2,0:0:0:0:
256,192,125842,1,0,0:0:0:0:
256,192,125992,1,2,0:0:0:0:
256,192,126142,1,0,0:0:0:0:
256,192,126442,1,0,0:0:0:0:
256,192,126517,1,2,0:0:0:0:
256,192,126592,1,0,0:0:0:0:
256,192,126667,1,0,0:0:0:0:
256,192,126742,1,2,0:0:0:0:
256,192,126892,1,0,0:0:0:0:
256,192,126967,1,0,0:0:0:0:
256,192,127042,1,2,0:0:0:0:
256,192,127192,1,0,0:0:0:0:
256,192,127342,1,2,0:0:0:0:
256,192,127417,1,0,0:0:0:0:
256,192,127492,1,0,0:0:0:0:
256,192,127642,1,2,0:0:0:0:
256,192,127717,1,0,0:0:0:0:
256,192,127792,1,0,0:0:0:0:
256,192,127867,1,0,0:0:0:0:
256,192,127942,1,0,0:0:0:0:
256,192,128092,1,0,0:0:0:0:
256,192,128167,1,0,0:0:0:0:
256,192,128242,1,2,0:0:0:0:
256,192,128542,1,2,0:0:0:0:
256,192,128842,1,0,0:0:0:0:
256,192,128917,1,0,0:0:0:0:
256,192,128992,1,0,0:0:0:0:
256,192,129142,1,0,0:0:0:0:
256,192,129217,1,0,0:0:0:0:
256,192,129292,1,2,0:0:0:0:
256,192,129367,1,0,0:0:0:0:
256,192,129442,1,2,0:0:0:0:
256,192,129592,1,0,0:0:0:0:
256,192,129667,1,0,0:0:0:0:
256,192,129742,1,2,0:0:0:0:
256,192,129892,1,0,0:0:0:0:
256,192,130042,1,0,0:0:0:0:
256,192,130117,1,2,0:0:0:0:
256,192,130192,1,0,0:0:0:0:
256,192,130342,1,2,0:0:0:0:
256,192,130417,1,0,0:0:0:0:
256,192,130492,1,0,0:0:0:0:
256,192,130567,1,0,0:0:0:0:
256,192,130642,1,2,0:0:0:0:
256,192,130942,1,2,0:0:0:0:
256,192,131242,1,2,0:0:0:0:
256,192,131317,1,0,0:0:0:0:
256,192,131392,1,0,0:0:0:0:
256,192,131467,1,0,0:0:0:0:
256,192,131542,1,2,0:0:0:0:
256,192,131692,1,0,0:0:0:0:
256,192,131767,1,0,0:0:0:0:
256,192,131842,1,2,0:0:0:0:
256,192,131992,1,0,0:0:0:0:
256,192,132142,1,0,0:0:0:0:
256,192,132217,1,0,0:0:0:0:
256,192,132292,1,0,0:0:0:0:
256,192,132442,1,0,0:0:0:0:
256,192,132517,1,0,0:0:0:0:
256,192,132592,1,2,0:0:0:0:
256,192,132742,1,0,0:0:0:0:
256,192,132817,1,2,0:0:0:0:
256,192,132892,1,0,0:0:0:0:
256,192,132967,1,0,0:0:0:0:
256,192,133042,1,2,0:0:0:0:
256,192,133192,1,0,0:0:0:0:
256,192,133267,1,0,0:0:0:0:
256,192,133342,1,2,0:0:0:0:
256,192,133567,1,0,0:0:0:0:
256,192,133642,1,2,0:0:0:0:
256,192,133867,1,0,0:0:0:0:
256,192,133942,1,0,0:0:0:0:
256,192,134092,1,2,0:0:0:0:
256,192,134167,1,0,0:0:0:0:
256,192,134242,1,2,0:0:0:0:
256,192,134467,1,0,0:0:0:0:
256,192,134542,1,0,0:0:0:0:
256,192,134692,1,2,0:0:0:0:
256,192,134767,1,0,0:0:0:0:
256,192,134842,1,2,0:0:0:0:
256,192,135067,1,0,0:0:0:0:
256,192,135142,1,0,0:0:0:0:
256,192,135292,1,2,0:0:0:0:
256,192,135367,1,0,0:0:0:0:
256,192,135442,1,2,0:0:0:0:
256,192,135667,1,0,0:0:0:0:
256,192,135742,1,0,0:0:0:0:
256,192,135892,1,0,0:0:0:0:
256,192,135967,1,2,0:0:0:0:
256,192,136042,1,0,0:0:0:0:
256,192,136117,1,0,0:0:0:0:
256,192,136192,1,2,0:0:0:0:
256,192,136342,1,0,0:0:0:0:
256,192,136417,1,0,0:0:0:0:
256,192,136492,1,2,0:0:0:0:
256,192,136567,1,0,0:0:0:0:
256,192,136642,1,2,0:0:0:0:
256,192,136792,1,0,0:0:0:0:
256,192,136867,1,0,0:0:0:0:
256,192,136942,1,2,0:0:0:0:
256,192,137092,1,0,0:0:0:0:
256,192,137242,1,2,0:0:0:0:
256,192,137317,1,0,0:0:0:0:
256,192,137392,1,0,0:0:0:0:
256,192,137542,1,0,0:0:0:0:
256,192,137617,1,0,0:0:0:0:
256,192,137692,1,2,0:0:0:0:
256,192,137767,1,0,0:0:0:0:
256,192,137842,1,2,0:0:0:0:
256,192,138142,1,2,0:0:0:0:
256,192,138442,1,0,0:0:0:0:
256,192,138517,1,0,0:0:0:0:
256,192,138592,1,0,0:0:0:0:
256,192,138667,1,0,0:0:0:0:
256,192,138742,1,2,0:0:0:0:
256,192,138892,1,0,0:0:0:0:
256,192,138967,1,0,0:0:0:0:
256,192,139042,1,2,0:0:0:0:
256,192,139192,1,0,0:0:0:0:
256,192,139342,1,2,0:0:0:0:
256,192,139417,1,0,0:0:0:0:
256,192,139492,1,0,0:0:0:0:
256,192,139642,1,2,0:0:0:0:
256,192,139717,1,0,0:0:0:0:
256,192,139792,1,0,0:0:0:0:
256,192,139867,1,2,0:0:0:0:
256,192,139942,1,0,0:0:0:0:
256,192,140092,1,0,0:0:0:0:
256,192,140167,1,0,0:0:0:0:
256,192,140242,1,2,0:0:0:0:
256,192,140542,1,2,0:0:0:0:
256,192,140842,1,2,0:0:0:0:
256,192,140917,1,0,0:0:0:0:
256,192,140992,1,0,0:0:0:0:
256,192,141142,1,0,0:0:0:0:
256,192,141217,1,0,0:0:0:0:
256,192,141292,1,2,0:0:0:0:
256,192,141442,1,0,0:0:0:0:
256,192,141517,1,2,0:0:0:0:
256,192,141592,1,0,0:0:0:0:
256,192,141667,1,0,0:0:0:0:
256,192,141742,1,2,0:0:0:0:
256,192,141892,1,0,0:0:0:0:
256,192,142042,1,2,0:0:0:0:
256,192,142117,1,0,0:0:0:0:
256,192,142192,1,0,0:0:0:0:
256,192,142342,1,0,0:0:0:0:
256,192,142492,1,0,0:0:0:0:
256,192,142567,1,0,0:0:0:0:
256,192,142642,1,2,0:0:0:0:
256,192,142792,1,2,0:0:0:0:
256,192,142942,1,0,0:0:0:0:
256,192,143242,1,2,0:0:0:0:
256,192,143467,1,0,0:0:0:0:
256,192,143617,1,0,0:0:0:0:
256,192,143692,1,0,0:0:0:0:
256,192,143767,1,0,0:0:0:0:
256,192,143842,1,2,0:0:0:0:
256,192,144067,1,0,0:0:0:0:
256,192,144217,1,0,0:0:0:0:
256,192,144292,1,0,0:0:0:0:
256,192,144367,1,0,0:0:0:0:
256,192,144442,1,2,0:0:0:0:
256,192,144667,1,0,0:0:0:0:
256,192,144817,1,0,0:0:0:0:
256,192,144892,1,0,0:0:0:0:
256,192,144967,1,0,0:0:0:0:
256,192,145042,1,2,0:0:0:0:
256,192,145117,1,2,0:0:0:0:
256,192,145192,1,2,0:0:0:0:
256,192,145342,1,2,0:0:0:0:
256,192,145492,1,2,0:0:0:0:
256,192,145642,1,0,0:0:0:0:
256,192,145717,1,0,0:0:0:0:
256,192,145792,1,0,0:0:0:0:
256,192,145867,1,0,0:0:0:0:
256,192,145942,1,2,0:0:0:0:
256,192,146092,1,0,0:0:0:0:
256,192,146167,1,0,0:0:0:0:
256,192,146242,1,2,0:0:0:0:
256,192,146392,1,2,0:0:0:0:
256,192,146467,1,0,0:0:0:0:
256,192,146542,1,2,0:0:0:0:
256,192,146617,1,0,0:0:0:0:
256,192,146692,1,0,0:0:0:0:
256,192,146842,1,2,0:0:0:0:
256,192,146992,1,0,0:0:0:0:
256,192,147067,1,2,0:0:0:0:
256,192,147142,1,0,0:0:0:0:
256,192,147217,1,0,0:0:0:0:
256,192,147292,1,2,0:0:0:0:
256,192,147442,1,2,0:0:0:0:
256,192,147742,1,2,0:0:0:0:
256,192,148042,1,2,0:0:0:0:
256,192,148192,1,0,0:0:0:0:
256,192,148267,1,0,0:0:0:0:
256,192,148342,1,2,0:0:0:0:
256,192,148417,1,0,0:0:0:0:
256,192,148492,1,2,0:0:0:0:
256,192,148642,1,0,0:0:0:0:
256,192,148792,1,2,0:0:0:0:
256,192,148867,1,0,0:0:0:0:
256,192,148942,1,0,0:0:0:0:
256,192,149017,1,0,0:0:0:0:
256,192,149092,1,2,0:0:0:0:
256,192,149242,1,2,0:0:0:0:
256,192,149317,1,0,0:0:0:0:
256,192,149392,1,0,0:0:0:0:
256,192,149542,1,0,0:0:0:0:
256,192,149617,1,0,0:0:0:0:
256,192,149692,1,0,0:0:0:0:
256,192,149767,1,0,0:0:0:0:
256,192,149842,1,2,0:0:0:0:
256,192,150142,1,0,0:0:0:0:
256,192,150442,1,2,0:0:0:0:
256,192,150517,1,0,0:0:0:0:
256,192,150592,1,2,0:0:0:0:
256,192,150667,1,0,0:0:0:0:
256,192,150742,1,0,0:0:0:0:
256,192,150892,1,0,0:0:0:0:
256,192,150967,1,0,0:0:0:0:
256,192,151042,1,2,0:0:0:0:
256,192,151192,1,2,0:0:0:0:
256,192,151267,1,0,0:0:0:0:
256,192,151342,1,0,0:0:0:0:
256,192,151417,1,0,0:0:0:0:
256,192,151492,1,0,0:0:0:0:
256,192,151642,1,2,0:0:0:0:
256,192,151717,1,0,0:0:0:0:
256,192,151792,1,0,0:0:0:0:
256,192,151942,1,2,0:0:0:0:
256,192,152017,1,0,0:0:0:0:
256,192,152092,1,0,0:0:0:0:
256,192,152242,1,2,0:0:0:0:
256,192,152542,1,0,0:0:0:0:
256,192,152842,1,2,0:0:0:0:
256,192,153067,1,0,0:0:0:0:
256,192,153142,1,0,0:0:0:0:
256,192,153217,1,0,0:0:0:0:
256,192,153292,1,2,0:0:0:0:
256,192,153442,1,2,0:0:0:0:
256,192,153667,1,0,0:0:0:0:
256,192,153742,1,0,0:0:0:0:
256,192,153817,1,0,0:0:0:0:
256,192,153892,1,2,0:0:0:0:
256,192,154042,1,2,0:0:0:0:
256,192,154267,1,0,0:0:0:0:
256,192,154342,1,0,0:0:0:0:
256,192,154417,1,0,0:0:0:0:
256,192,154492,1,2,0:0:0:0:
256,192,154642,1,2,0:0:0:0:
256,192,154867,1,0,0:0:0:0:
256,192,154942,1,0,0:0:0:0:
256,192,155017,1,2,0:0:0:0:
256,192,155092,1,0,0:0:0:0:
256,192,155242,1,0,0:0:0:0:
256,192,155392,1,2,0:0:0:0:
256,192,155467,1,0,0:0:0:0:
256,192,155542,1,0,0:0:0:0:
256,192,155692,1,0,0:0:0:0:
256,192,155767,1,0,0:0:0:0:
256,192,155842,1,2,0:0:0:0:
256,192,155992,1,2,0:0:0:0:
256,192,156067,1,0,0:0:0:0:
256,192,156142,1,2,0:0:0:0:
256,192,156217,1,0,0:0:0:0:
256,192,156292,1,0,0:0:0:0:
256,192,156442,1,0,0:0:0:0:
256,192,156517,1,0,0:0:0:0:
256,192,156592,1,0,0:0:0:0:
256,192,156742,1,0,0:0:0:0:
256,192,156817,1,2,0:0:0:0:
256,192,156892,1,0,0:0:0:0:
256,192,156967,1,0,0:0:0:0:
256,192,157042,1,2,0:0:0:0:
256,192,157342,1,2,0:0:0:0:
256,192,157642,1,0,0:0:0:0:
256,192,157717,1,2,0:0:0:0:
256,192,157792,1,0,0:0:0:0:
256,192,157867,1,0,0:0:0:0:
256,192,157942,1,2,0:0:0:0:
256,192,158092,1,0,0:0:0:0:
256,192,158167,1,0,0:0:0:0:
256,192,158242,1,2,0:0:0:0:
256,192,158392,1,2,0:0:0:0:
256,192,158467,1,0,0:0:0:0:
256,192,158542,1,0,0:0:0:0:
256,192,158617,1,0,0:0:0:0:
256,192,158692,1,2,0:0:0:0:
256,192,158842,1,0,0:0:0:0:
256,192,158917,1,0,0:0:0:0:
256,192,158992,1,2,0:0:0:0:
256,192,159142,1,2,0:0:0:0:
256,192,159217,1,0,0:0:0:0:
256,192,159292,1,0,0:0:0:0:
256,192,159442,1,2,0:0:0:0:
256,192,159742,1,2,0:0:0:0:
256,192,160042,1,0,0:0:0:0:
256,192,160192,1,0,0:0:0:0:
256,192,160267,1,0,0:0:0:0:
256,192,160342,1,2,0:0:0:0:
256,192,160492,1,0,0:0:0:0:
256,192,160567,1,0,0:0:0:0:
256,192,160642,1,2,0:0:0:0:
256,192,160792,1,0,0:0:0:0:
256,192,160867,1,2,0:0:0:0:
256,192,160942,1,0,0:0:0:0:
256,192,161017,1,0,0:0:0:0:
256,192,161092,1,2,0:0:0:0:
256,192,161242,1,2,0:0:0:0:
256,192,161317,1,0,0:0:0:0:
256,192,161392,1,0,0:0:0:0:
256,192,161542,1,0,0:0:0:0:
256,192,161617,1,0,0:0:0:0:
256,192,161692,1,0,0:0:0:0:
256,192,161767,1,0,0:0:0:0:
256,192,161842,1,2,0:0:0:0:
256,192,162142,1,2,0:0:0:0:
256,192,162442,1,2,0:0:0:0:
256,192,162667,1,0,0:0:0:0:
256,192,162892,1,0,0:0:0:0:
256,192,163042,1,2,0:0:0:0:
256,192,163267,1,0,0:0:0:0:
256,192,163492,1,0,0:0:0:0:
256,192,163642,1,2,0:0:0:0:
256,192,163867,1,0,0:0:0:0:
256,192,164092,1,0,0:0:0:0:
256,192,164242,1,2,0:0:0:0:
256,192,164467,1,0,0:0:0:0:
256,192,164692,1,2,0:0:0:0:
256,192,164842,1,0,0:0:0:0:
256,192,164992,8,0,174292,0:0:0:0:
256,192,174442,8,0,183892,0:0:0:0:
0,32,184042,6,0,L|224:32,1,210.000008010865
0,32,185242,2,0,L|224:32,1,210.000008010865
0,32,186442,2,0,L|224:32,1,210.000008010865
0,32,187642,2,0,L|224:32,1,210.000008010865
256,192,188842,1,0,0:0:0:0:
256,192,189442,1,2,0:0:0:0:
256,192,190042,1,2,0:0:0:0:
256,192,190642,1,0,0:0:0:0:
256,192,191242,1,0,0:0:0:0:
256,192,191842,1,2,0:0:0:0:
256,192,192442,1,2,0:0:0:0:
256,192,193042,1,0,0:0:0:0:
256,192,193642,1,0,0:0:0:0:
256,192,194242,1,2,0:0:0:0:
256,192,194842,1,0,0:0:0:0:
256,192,195442,1,2,0:0:0:0:
256,192,196042,1,0,0:0:0:0:
256,192,196642,1,2,0:0:0:0:
256,192,197242,1,0,0:0:0:0:
256,192,197842,1,2,0:0:0:0:
256,192,198442,8,0,202042,0:0:0:0:
256,192,202492,5,2,0:0:0:0:
256,192,202567,1,2,0:0:0:0:
256,192,202642,1,2,0:0:0:0:
256,192,202792,1,2,0:0:0:0:
256,192,202942,1,2,0:0:0:0:
256,192,203092,1,2,0:0:0:0:
256,192,203242,1,0,0:0:0:0:
256,192,203842,1,2,0:0:0:0:
256,192,203992,1,2,0:0:0:0:
256,192,204292,1,0,0:0:0:0:
256,192,205642,1,0,0:0:0:0:
256,192,206242,1,2,0:0:0:0:
256,192,206392,1,0,0:0:0:0:
256,192,206692,1,2,0:0:0:0:
256,192,207442,1,2,0:0:0:0:
256,192,207742,1,0,0:0:0:0:
256,192,208042,1,0,0:0:0:0:
256,192,208642,1,2,0:0:0:0:
256,192,208792,1,0,0:0:0:0:
256,192,209092,1,0,0:0:0:0:
256,192,210142,1,0,0:0:0:0:
256,192,210442,1,2,0:0:0:0:
256,192,210667,1,0,0:0:0:0:
256,192,210892,1,2,0:0:0:0:
256,192,211042,1,2,0:0:0:0:
256,192,211267,1,0,0:0:0:0:
256,192,211492,1,2,0:0:0:0:
256,192,211642,1,2,0:0:0:0:
256,192,211867,1,0,0:0:0:0:
256,192,212092,1,2,0:0:0:0:
256,192,212242,1,2,0:0:0:0:
256,192,212467,1,0,0:0:0:0:
256,192,212692,1,2,0:0:0:0:
256,192,212842,1,0,0:0:0:0:
256,192,213442,1,2,0:0:0:0:
256,192,213592,1,0,0:0:0:0:
256,192,213892,1,0,0:0:0:0:
256,192,215242,1,0,0:0:0:0:
256,192,215842,1,2,0:0:0:0:
256,192,215992,1,0,0:0:0:0:
256,192,216292,1,2,0:0:0:0:
256,192,217042,1,2,0:0:0:0:
256,192,217342,1,2,0:0:0:0:
256,192,217642,1,2,0:0:0:0:
256,192,218242,1,2,0:0:0:0:
256,192,218392,1,0,0:0:0:0:
256,192,218692,1,0,0:0:0:0:
256,192,218842,8,2,219742,0:0:0:0:
256,192,220042,5,2,0:0:0:0:
256,192,220242,1,2,0:0:0:0:
256,192,220442,1,2,0:0:0:0:
256,192,220642,1,2,0:0:0:0:
256,192,220842,1,2,0:0:0:0:
256,192,221042,1,2,0:0:0:0:
256,192,221242,1,2,0:0:0:0:
256,192,221442,1,2,0:0:0:0:
256,192,221642,1,2,0:0:0:0:
256,192,221842,1,4,0:0:0:0:
256,192,221992,1,4,0:0:0:0:
256,192,222142,1,4,0:0:0:0:
256,192,222292,1,4,0:0:0:0:
256,192,222442,1,0,0:0:0:0:
256,192,222517,1,0,0:0:0:0:
256,192,222592,1,2,0:0:0:0:
256,192,222667,1,0,0:0:0:0:
256,192,222742,1,2,0:0:0:0:
256,192,222892,1,2,0:0:0:0:
256,192,222967,1,0,0:0:0:0:
256,192,223042,1,2,0:0:0:0:
256,192,223192,1,2,0:0:0:0:
256,192,223267,1,0,0:0:0:0:
256,192,223342,1,0,0:0:0:0:
256,192,223492,1,0,0:0:0:0:
256,192,223567,1,0,0:0:0:0:
256,192,223642,1,2,0:0:0:0:
256,192,223717,1,0,0:0:0:0:
256,192,223792,1,0,0:0:0:0:
256,192,223867,1,0,0:0:0:0:
256,192,223942,1,2,0:0:0:0:
256,192,224092,1,0,0:0:0:0:
256,192,224167,1,0,0:0:0:0:
256,192,224242,1,2,0:0:0:0:
256,192,224392,1,0,0:0:0:0:
256,192,224467,1,0,0:0:0:0:
256,192,224542,1,2,0:0:0:0:
256,192,224842,1,0,0:0:0:0:
256,192,224917,1,0,0:0:0:0:
256,192,224992,1,2,0:0:0:0:
256,192,225142,1,0,0:0:0:0:
256,192,225217,1,2,0:0:0:0:
256,192,225292,1,0,0:0:0:0:
256,192,225367,1,0,0:0:0:0:
256,192,225442,1,2,0:0:0:0:
256,192,225517,1,0,0:0:0:0:
256,192,225592,1,2,0:0:0:0:
256,192,225742,1,0,0:0:0:0:
256,192,225817,1,0,0:0:0:0:
256,192,225892,1,2,0:0:0:0:
256,192,226042,1,2,0:0:0:0:
256,192,226117,1,0,0:0:0:0:
256,192,226192,1,0,0:0:0:0:
256,192,226342,1,0,0:0:0:0:
256,192,226417,1,2,0:0:0:0:
256,192,226492,1,0,0:0:0:0:
256,192,226567,1,0,0:0:0:0:
256,192,226642,1,2,0:0:0:0:
256,192,226792,1,0,0:0:0:0:
256,192,226867,1,0,0:0:0:0:
256,192,226942,1,2,0:0:0:0:
256,192,227092,1,0,0:0:0:0:
256,192,227167,1,0,0:0:0:0:
256,192,227242,1,2,0:0:0:0:
256,192,227317,1,0,0:0:0:0:
256,192,227392,1,0,0:0:0:0:
256,192,227542,1,0,0:0:0:0:
256,192,227617,1,0,0:0:0:0:
256,192,227692,1,2,0:0:0:0:
256,192,227767,1,0,0:0:0:0:
256,192,227842,1,2,0:0:0:0:
256,192,227992,1,2,0:0:0:0:
256,192,228067,1,0,0:0:0:0:
256,192,228142,1,0,0:0:0:0:
256,192,228292,1,2,0:0:0:0:
256,192,228367,1,0,0:0:0:0:
256,192,228442,1,0,0:0:0:0:
256,192,228517,1,2,0:0:0:0:
256,192,228592,1,0,0:0:0:0:
256,192,228667,1,0,0:0:0:0:
256,192,228742,1,2,0:0:0:0:
256,192,228892,1,0,0:0:0:0:
256,192,228967,1,0,0:0:0:0:
256,192,229042,1,2,0:0:0:0:
256,192,229342,1,0,0:0:0:0:
256,192,229492,1,0,0:0:0:0:
256,192,229642,1,2,0:0:0:0:
256,192,229792,1,0,0:0:0:0:
256,192,229867,1,0,0:0:0:0:
256,192,229942,1,0,0:0:0:0:
256,192,230092,1,2,0:0:0:0:
256,192,230242,1,2,0:0:0:0:
256,192,230392,1,0,0:0:0:0:
256,192,230467,1,0,0:0:0:0:
256,192,230542,1,0,0:0:0:0:
256,192,230692,1,2,0:0:0:0:
256,192,230842,1,2,0:0:0:0:
256,192,230992,1,0,0:0:0:0:
256,192,231067,1,0,0:0:0:0:
256,192,231142,1,0,0:0:0:0:
256,192,231292,1,2,0:0:0:0:
256,192,231442,1,2,0:0:0:0:
256,192,231592,1,0,0:0:0:0:
256,192,231667,1,0,0:0:0:0:
256,192,231742,1,0,0:0:0:0:
256,192,231892,1,2,0:0:0:0:
256,192,232042,1,2,0:0:0:0:
256,192,232117,1,0,0:0:0:0:
256,192,232192,1,0,0:0:0:0:
256,192,232342,1,0,0:0:0:0:
256,192,232417,1,0,0:0:0:0:
256,192,232492,1,0,0:0:0:0:
256,192,232567,1,0,0:0:0:0:
256,192,232642,1,2,0:0:0:0:
256,192,232717,1,0,0:0:0:0:
256,192,232792,1,0,0:0:0:0:
256,192,232942,1,2,0:0:0:0:
256,192,233017,1,0,0:0:0:0:
256,192,233092,1,0,0:0:0:0:
256,192,233242,1,2,0:0:0:0:
256,192,233317,1,0,0:0:0:0:
256,192,233392,1,0,0:0:0:0:
256,192,233542,1,0,0:0:0:0:
256,192,233617,1,2,0:0:0:0:
256,192,233692,1,0,0:0:0:0:
256,192,233767,1,0,0:0:0:0:
256,192,233842,1,2,0:0:0:0:
256,192,233992,1,0,0:0:0:0:
256,192,234067,1,0,0:0:0:0:
256,192,234142,1,2,0:0:0:0:
256,192,234442,1,2,0:0:0:0:
256,192,234517,1,0,0:0:0:0:
256,192,234592,1,0,0:0:0:0:
256,192,234667,1,0,0:0:0:0:
256,192,234742,1,0,0:0:0:0:
256,192,234892,1,2,0:0:0:0:
256,192,234967,1,0,0:0:0:0:
256,192,235042,1,2,0:0:0:0:
256,192,235192,1,0,0:0:0:0:
256,192,235267,1,0,0:0:0:0:
256,192,235342,1,2,0:0:0:0:
256,192,235492,1,2,0:0:0:0:
256,192,235567,1,0,0:0:0:0:
256,192,235642,1,0,0:0:0:0:
256,192,235717,1,0,0:0:0:0:
256,192,235792,1,2,0:0:0:0:
256,192,235867,1,0,0:0:0:0:
256,192,235942,1,2,0:0:0:0:
256,192,236092,1,0,0:0:0:0:
256,192,236167,1,0,0:0:0:0:
256,192,236242,1,2,0:0:0:0:
256,192,236392,1,0,0:0:0:0:
256,192,236467,1,0,0:0:0:0:
256,192,236542,1,2,0:0:0:0:
256,192,236617,1,0,0:0:0:0:
256,192,236692,1,2,0:0:0:0:
256,192,236842,1,2,0:0:0:0:
256,192,236917,1,0,0:0:0:0:
256,192,236992,1,0,0:0:0:0:
256,192,237142,1,0,0:0:0:0:
256,192,237217,1,2,0:0:0:0:
256,192,237292,1,0,0:0:0:0:
256,192,237367,1,0,0:0:0:0:
256,192,237442,1,2,0:0:0:0:
256,192,237517,1,0,0:0:0:0:
256,192,237592,1,0,0:0:0:0:
256,192,237742,1,0,0:0:0:0:
256,192,237817,1,0,0:0:0:0:
256,192,237892,1,2,0:0:0:0:
256,192,238042,1,2,0:0:0:0:
256,192,238117,1,0,0:0:0:0:
256,192,238192,1,0,0:0:0:0:
256,192,238342,1,0,0:0:0:0:
256,192,238417,1,2,0:0:0:0:
256,192,238492,1,0,0:0:0:0:
256,192,238567,1,0,0:0:0:0:
256,192,238642,1,2,0:0:0:0:
256,192,238942,1,2,0:0:0:0:
256,192,239242,1,2,0:0:0:0:
256,192,239467,1,0,0:0:0:0:
256,192,239542,1,0,0:0:0:0:
256,192,239692,1,0,0:0:0:0:
256,192,239767,1,0,0:0:0:0:
256,192,239842,1,2,0:0:0:0:
256,192,240067,1,0,0:0:0:0:
256,192,240142,1,0,0:0:0:0:
256,192,240292,1,0,0:0:0:0:
256,192,240367,1,0,0:0:0:0:
256,192,240442,1,2,0:0:0:0:
256,192,240667,1,0,0:0:0:0:
256,192,240742,1,0,0:0:0:0:
256,192,240892,1,0,0:0:0:0:
256,192,240967,1,0,0:0:0:0:
256,192,241042,1,2,0:0:0:0:
256,192,241117,1,2,0:0:0:0:
256,192,241192,1,2,0:0:0:0:
256,192,241342,1,2,0:0:0:0:
256,192,241492,1,2,0:0:0:0:
256,192,241642,1,0,0:0:0:0:
256,192,241717,1,0,0:0:0:0:
256,192,241792,1,2,0:0:0:0:
256,192,241867,1,0,0:0:0:0:
256,192,241942,1,0,0:0:0:0:
256,192,242017,1,0,0:0:0:0:
256,192,242092,1,0,0:0:0:0:
256,192,242167,1,0,0:0:0:0:
256,192,242242,1,2,0:0:0:0:
256,192,242392,1,0,0:0:0:0:
256,192,242542,1,0,0:0:0:0:
256,192,242692,1,0,0:0:0:0:
256,192,242842,1,0,0:0:0:0:
256,192,242917,1,0,0:0:0:0:
256,192,242992,1,0,0:0:0:0:
256,192,243067,1,2,0:0:0:0:
256,192,243142,1,0,0:0:0:0:
256,192,243217,1,0,0:0:0:0:
256,192,243292,1,2,0:0:0:0:
256,192,243442,1,0,0:0:0:0:
256,192,243517,1,0,0:0:0:0:
256,192,243592,1,2,0:0:0:0:
256,192,243742,1,2,0:0:0:0:
256,192,243817,1,0,0:0:0:0:
256,192,243892,1,0,0:0:0:0:
256,192,244042,1,2,0:0:0:0:
256,192,244117,1,0,0:0:0:0:
256,192,244192,1,0,0:0:0:0:
256,192,244342,1,2,0:0:0:0:
256,192,244417,1,0,0:0:0:0:
256,192,244492,1,0,0:0:0:0:
256,192,244567,1,0,0:0:0:0:
256,192,244642,1,2,0:0:0:0:
256,192,244717,1,0,0:0:0:0:
256,192,244792,1,0,0:0:0:0:
256,192,244942,1,0,0:0:0:0:
256,192,245092,1,2,0:0:0:0:
256,192,245242,1,0,0:0:0:0:
256,192,245392,1,2,0:0:0:0:
256,192,245467,1,0,0:0:0:0:
256,192,245542,1,0,0:0:0:0:
256,192,245617,1,0,0:0:0:0:
256,192,245692,1,2,0:0:0:0:
256,192,245767,1,0,0:0:0:0:
256,192,245842,1,0,0:0:0:0:
256,192,245917,1,0,0:0:0:0:
256,192,245992,1,2,0:0:0:0:
256,192,246142,1,2,0:0:0:0:
256,192,246217,1,0,0:0:0:0:
256,192,246292,1,0,0:0:0:0:
256,192,246442,1,2,0:0:0:0:
256,192,246517,1,0,0:0:0:0:
256,192,246592,1,0,0:0:0:0:
256,192,246667,1,0,0:0:0:0:
256,192,246742,1,0,0:0:0:0:
256,192,246817,1,0,0:0:0:0:
256,192,246892,1,2,0:0:0:0:
256,192,246967,1,0,0:0:0:0:
256,192,247042,1,2,0:0:0:0:
256,192,247192,1,0,0:0:0:0:
256,192,247342,1,0,0:0:0:0:
256,192,247492,1,2,0:0:0:0:
256,192,247642,1,0,0:0:0:0:
256,192,247717,1,2,0:0:0:0:
256,192,247792,1,0,0:0:0:0:
256,192,247867,1,0,0:0:0:0:
256,192,247942,1,2,0:0:0:0:
256,192,248092,1,0,0:0:0:0:
256,192,248167,1,0,0:0:0:0:
256,192,248242,1,2,0:0:0:0:
256,192,248392,1,0,0:0:0:0:
256,192,248467,1,0,0:0:0:0:
256,192,248542,1,2,0:0:0:0:
256,192,248692,1,2,0:0:0:0:
256,192,248767,1,0,0:0:0:0:
256,192,248842,1,2,0:0:0:0:
256,192,249067,1,0,0:0:0:0:
256,192,249292,1,2,0:0:0:0:
256,192,249367,1,0,0:0:0:0:
256,192,249442,1,2,0:0:0:0:
256,192,249667,1,0,0:0:0:0:
256,192,249892,1,2,0:0:0:0:
256,192,249967,1,0,0:0:0:0:
256,192,250042,1,2,0:0:0:0:
256,192,250267,1,0,0:0:0:0:
256,192,250492,1,2,0:0:0:0:
256,192,250567,1,0,0:0:0:0:
256,192,250642,1,2,0:0:0:0:
256,192,250867,1,0,0:0:0:0:
256,192,251092,1,2,0:0:0:0:
256,192,251167,1,0,0:0:0:0:
256,192,251242,1,0,0:0:0:0:
256,192,251317,1,0,0:0:0:0:
256,192,251392,1,2,0:0:0:0:
256,192,251542,1,2,0:0:0:0:
256,192,251617,1,0,0:0:0:0:
256,192,251692,1,0,0:0:0:0:
256,192,251767,1,2,0:0:0:0:
256,192,251842,1,0,0:0:0:0:
256,192,251917,1,0,0:0:0:0:
256,192,251992,1,2,0:0:0:0:
256,192,252142,1,2,0:0:0:0:
256,192,252292,1,0,0:0:0:0:
256,192,252442,1,0,0:0:0:0:
256,192,252592,1,2,0:0:0:0:
256,192,252667,1,0,0:0:0:0:
256,192,252742,1,0,0:0:0:0:
256,192,252817,1,0,0:0:0:0:
256,192,252892,1,2,0:0:0:0:
256,192,252967,1,0,0:0:0:0:
256,192,253042,1,2,0:0:0:0:
256,192,253117,1,0,0:0:0:0:
256,192,253192,1,0,0:0:0:0:
256,192,253342,1,2,0:0:0:0:
256,192,253417,1,0,0:0:0:0:
256,192,253492,1,0,0:0:0:0:
256,192,253642,1,2,0:0:0:0:
256,192,253717,1,0,0:0:0:0:
256,192,253792,1,0,0:0:0:0:
256,192,253867,1,0,0:0:0:0:
256,192,253942,1,0,0:0:0:0:
256,192,254017,1,0,0:0:0:0:
256,192,254092,1,2,0:0:0:0:
256,192,254167,1,0,0:0:0:0:
256,192,254242,1,0,0:0:0:0:
256,192,254392,1,0,0:0:0:0:
256,192,254542,1,2,0:0:0:0:
256,192,254692,1,0,0:0:0:0:
256,192,254842,1,0,0:0:0:0:
256,192,254917,1,2,0:0:0:0:
256,192,254992,1,0,0:0:0:0:
256,192,255067,1,0,0:0:0:0:
256,192,255142,1,2,0:0:0:0:
256,192,255217,1,0,0:0:0:0:
256,192,255292,1,2,0:0:0:0:
256,192,255442,1,2,0:0:0:0:
256,192,255517,1,0,0:0:0:0:
256,192,255592,1,0,0:0:0:0:
256,192,255742,1,2,0:0:0:0:
256,192,256042,1,2,0:0:0:0:
256,192,256117,1,0,0:0:0:0:
256,192,256192,1,0,0:0:0:0:
256,192,256342,1,0,0:0:0:0:
256,192,256417,1,0,0:0:0:0:
256,192,256492,1,2,0:0:0:0:
256,192,256567,1,0,0:0:0:0:
256,192,256642,1,2,0:0:0:0:
256,192,256792,1,2,0:0:0:0:
256,192,256942,1,0,0:0:0:0:
256,192,257092,1,2,0:0:0:0:
256,192,257242,1,2,0:0:0:0:
256,192,257317,1,0,0:0:0:0:
256,192,257392,1,2,0:0:0:0:
256,192,257467,1,0,0:0:0:0:
256,192,257542,1,0,0:0:0:0:
256,192,257617,1,2,0:0:0:0:
256,192,257692,1,0,0:0:0:0:
256,192,257767,1,0,0:0:0:0:
256,192,257842,1,2,0:0:0:0:
256,192,258142,1,2,0:0:0:0:
256,192,258442,1,2,0:0:0:0:
256,192,258667,1,0,0:0:0:0:
256,192,258892,1,0,0:0:0:0:
256,192,259042,1,2,0:0:0:0:
256,192,259267,1,0,0:0:0:0:
256,192,259492,1,0,0:0:0:0:
256,192,259642,1,2,0:0:0:0:
256,192,259867,1,0,0:0:0:0:
256,192,260092,1,0,0:0:0:0:
256,192,260167,1,0,0:0:0:0:
256,192,260242,1,2,0:0:0:0:
256,192,260317,1,0,0:0:0:0:
256,192,260392,1,0,0:0:0:0:
256,192,260692,1,2,0:0:0:0:
256,192,260842,1,0,0:0:0:0:
256,192,260917,1,2,0:0:0:0:
256,192,260992,1,2,0:0:0:0:
256,192,261067,1,2,0:0:0:0:
256,192,261142,1,2,0:0:0:0:
256,192,261217,1,2,0:0:0:0:
256,192,261292,1,2,0:0:0:0:
256,192,261367,1,2,0:0:0:0:
256,192,261442,1,0,0:0:0:0:
256,192,261592,1,0,0:0:0:0:
256,192,261742,1,2,0:0:0:0:
256,192,261892,1,2,0:0:0:0:
256,192,262042,1,0,0:0:0:0:
256,192,262342,1,0,0:0:0:0:
256,192,262492,1,0,0:0:0:0:
256,192,262642,1,2,0:0:0:0:
256,192,262792,1,0,0:0:0:0:
256,192,262942,1,2,0:0:0:0:
256,192,263242,1,0,0:0:0:0:
256,192,263317,1,2,0:0:0:0:
256,192,263392,1,2,0:0:0:0:
256,192,263467,1,2,0:0:0:0:
256,192,263542,1,2,0:0:0:0:
256,192,263617,1,2,0:0:0:0:
256,192,263692,1,2,0:0:0:0:
256,192,263767,1,2,0:0:0:0:
256,192,263842,1,0,0:0:0:0:
256,192,263992,1,0,0:0:0:0:
256,192,264142,1,2,0:0:0:0:
256,192,264292,1,2,0:0:0:0:
256,192,264442,1,0,0:0:0:0:
256,192,264742,1,2,0:0:0:0:
256,192,264892,1,0,0:0:0:0:
256,192,265042,1,2,0:0:0:0:
256,192,265192,1,0,0:0:0:0:
256,192,265342,1,2,0:0:0:0:
256,192,265492,1,2,0:0:0:0:
256,192,265642,1,0,0:0:0:0:
256,192,265717,1,2,0:0:0:0:
256,192,265792,1,2,0:0:0:0:
256,192,265867,1,2,0:0:0:0:
256,192,265942,1,2,0:0:0:0:
256,192,266017,1,2,0:0:0:0:
256,192,266092,1,2,0:0:0:0:
256,192,266167,1,2,0:0:0:0:
256,192,266242,1,0,0:0:0:0:
256,192,266392,1,0,0:0:0:0:
256,192,266542,1,2,0:0:0:0:
256,192,266692,1,2,0:0:0:0:
256,192,266842,1,0,0:0:0:0:
256,192,267142,1,2,0:0:0:0:
256,192,267292,1,0,0:0:0:0:
256,192,267442,1,2,0:0:0:0:
256,192,267742,1,2,0:0:0:0:
256,192,267892,1,2,0:0:0:0:
256,192,268042,1,0,0:0:0:0:
256,192,268192,1,0,0:0:0:0:
256,192,268342,1,2,0:0:0:0:
256,192,268492,1,0,0:0:0:0:
256,192,268642,1,2,0:0:0:0:
256,192,268792,1,2,0:0:0:0:
256,192,268942,1,2,0:0:0:0:
256,192,269242,1,0,0:0:0:0:
256,192,269392,1,2,0:0:0:0:
256,192,269542,1,0,0:0:0:0:
256,192,269692,1,0,0:0:0:0:
256,192,269842,1,2,0:0:0:0:
256,192,270142,1,2,0:0:0:0:
0,32,270442,2,2,L|288:32,1,280
0,32,271642,2,2,L|288:32,1,280
256,192,272842,1,0,0:0:0:0:
256,192,273442,1,2,0:0:0:0:
256,192,274042,1,0,0:0:0:0:
256,192,274642,1,2,0:0:0:0:
256,192,275242,8,0,282442,0:0:0:0:
256,192,283255,5,0,0:0:0:0:
256,192,283870,1,2,0:0:0:0:
256,192,284039,1,0,0:0:0:0:
256,192,284354,1,0,0:0:0:0:
256,192,285819,1,0,0:0:0:0:
256,192,286474,1,2,0:0:0:0:
256,192,286643,1,0,0:0:0:0:
256,192,286955,1,2,0:0:0:0:
256,192,287840,1,2,0:0:0:0:
256,192,288168,1,0,0:0:0:0:
256,192,288497,1,0,0:0:0:0:
256,192,289154,1,2,0:0:0:0:
256,192,289318,1,0,0:0:0:0:
256,192,289621,1,0,0:0:0:0:
256,192,290823,1,0,0:0:0:0:
256,192,291126,1,2,0:0:0:0:
256,192,291362,1,0,0:0:0:0:
256,192,291599,1,2,0:0:0:0:
256,192,291757,1,2,0:0:0:0:
256,192,291994,1,0,0:0:0:0:
256,192,292231,1,2,0:0:0:0:
256,192,292389,1,2,0:0:0:0:
256,192,292626,1,0,0:0:0:0:
256,192,292862,1,2,0:0:0:0:
256,192,293020,1,2,0:0:0:0:
256,192,293257,1,0,0:0:0:0:
256,192,293768,1,0,0:0:0:0:
256,192,294443,1,2,0:0:0:0:
256,192,294602,1,0,0:0:0:0:
256,192,294950,1,0,0:0:0:0:
256,192,296430,1,0,0:0:0:0:
256,192,297086,1,2,0:0:0:0:
256,192,297245,1,0,0:0:0:0:
256,192,297563,1,2,0:0:0:0:
256,192,298387,1,0,0:0:0:0:
256,192,298718,1,2,0:0:0:0:
256,192,299033,1,2,0:0:0:0:
256,192,299699,1,2,0:0:0:0:
256,192,299855,1,0,0:0:0:0:
256,192,300193,1,0,0:0:0:0:
256,192,301028,1,2,0:0:0:0:
256,192,301334,1,2,0:0:0:0:
256,192,301634,1,2,0:0:0:0:
256,192,301887,1,0,0:0:0:0:
256,192,302141,1,0,0:0:0:0:
256,192,302310,1,2,0:0:0:0:
256,192,302587,1,0,0:0:0:0:
256,192,302865,1,2,0:0:0:0:
256,192,303050,1,0,0:0:0:0:
256,192,303421,1,0,0:0:0:0:
256,192,303767,1,0,0:0:0:0:
256,192,304183,1,2,0:0:0:0:
256,192,304542,1,2,0:0:0:0:
256,192,305044,1,0,0:0:0:0:
256,192,305527,1,0,0:0:0:0:
256,192,306203,1,2,0:0:0:0:
256,192,307203,1,2,0:0:0:0:
256,192,307714,1,2,0:0:0:0:
256,192,308187,1,0,0:0:0:0:
256,192,308552,1,0,0:0:0:0:
256,192,309877,1,2,0:0:0:0:
256,192,310348,1,2,0:0:0:0:
256,192,310871,1,0,0:0:0:0:
256,192,311536,1,2,0:0:0:0:
256,192,311874,1,0,0:0:0:0:
256,192,312212,1,0,0:0:0:0:
256,192,312539,1,2,0:0:0:0:
256,192,313036,1,2,0:0:0:0:
256,192,313533,1,0,0:0:0:0:
256,192,314215,1,0,0:0:0:0:
256,192,314546,1,0,0:0:0:0:
256,192,314877,1,2,0:0:0:0:
256,192,315207,1,2,0:0:0:0:
256,192,315859,1,2,0:0:0:0:
256,192,316220,1,2,0:0:0:0:
256,192,316562,1,2,0:0:0:0:
256,192,317162,1,0,0:0:0:0:
256,192,317521,1,0,0:0:0:0:
256,192,318535,1,0,0:0:0:0:
256,192,318835,1,0,0:0:0:0:
256,192,319032,1,2,0:0:0:0:
256,192,319529,1,2,0:0:0:0:
256,192,319705,1,0,0:0:0:0:
256,192,320294,1,2,0:0:0:0:
256,192,320463,1,0,0:0:0:0:
256,192,321192,1,2,0:0:0:0:
256,192,321538,1,0,0:0:0:0:
256,192,321885,1,0,0:0:0:0:
256,192,322503,1,2,0:0:0:0:
256,192,322858,1,2,0:0:0:0:
256,192,323213,1,0,0:0:0:0:
256,192,323400,8,0,325088,0:0:0:0:
256,192,325258,5,2,0:0:0:0:
256,192,325940,1,0,0:0:0:0:
256,192,326622,1,2,0:0:0:0:
256,192,326773,1,2,0:0:0:0:
256,192,327138,1,0,0:0:0:0:
