osu file format v14

[General]
AudioFilename: audio.mp3
AudioLeadIn: 0
PreviewTime: 4324
Countdown: 0
SampleSet: Soft
StackLeniency: 0.7
Mode: 0
LetterboxInBreaks: 0
WidescreenStoryboard: 1

[Editor]
DistanceSpacing: 3.7
BeatDivisor: 4
GridSize: 8
TimelineZoom: 1.5

[Metadata]
Title:Dragon Ball Rap
TitleUnicode:Dragon Ball Rap
Artist:Porta
ArtistUnicode:Porta
Creator:Tatan
Version:Hebel's perdonen
Source:
Tags:dbz dragonball dragonballz ulqui TheShadowOfDark beat goku vegeta xd dragonbol bol meme chile espaƱa -hebel- wolf3211
BeatmapID:1881584
BeatmapSetID:809913

[Difficulty]
HPDrainRate:3.5
CircleSize:3
OverallDifficulty:8
ApproachRate:9.8
SliderMultiplier:3.4
SliderTickRate:1

[Events]
//Background and Video events
0,0,"QUE_DIJISTE_DE_MI_WAIFU.jpg",0,0
//Break Periods
//Storyboard Layer 0 (Background)
//Storyboard Layer 1 (Fail)
//Storyboard Layer 2 (Pass)
//Storyboard Layer 3 (Foreground)
//Storyboard Sound Samples

[TimingPoints]
101,545.454545454546,4,2,69,60,1,0
101,-133.333333333333,4,2,69,60,0,0
4464,-100,4,2,69,60,0,0
6101,-66.6666666666667,4,2,69,60,0,0
7055,-50,4,2,69,60,0,0
11010,-100,4,2,69,60,0,1
13191,-100,4,2,69,60,0,0
16124,-100,4,2,69,5,0,0
16192,-100,4,2,69,60,0,0
19396,-100,4,2,69,5,0,0
19464,-100,4,2,69,60,0,0
19737,-100,4,2,69,60,0,1
21646,-66.6666666666667,4,2,69,60,0,0
21851,-66.6666666666667,4,2,69,5,0,0
21919,-100,4,2,69,60,0,0
22124,-100,4,2,69,5,0,0
22192,-100,4,2,69,60,0,0
23215,-100,4,2,69,5,0,0
23283,-100,4,2,69,60,0,0
24101,-100,4,2,69,60,0,0
24305,-100,4,2,69,5,0,0
24373,-90.9090909090909,4,2,69,60,0,0
24646,-50,4,2,69,60,0,0
24919,-66.6666666666667,4,2,69,60,0,0
25191,-50,4,2,69,60,0,0
25464,-100,4,2,69,60,0,0
25737,-50,4,2,69,60,0,0
26010,-133.333333333333,4,2,69,60,0,0
26215,-100,4,2,69,5,0,0
26283,-100,4,2,69,60,0,0
28124,-100,4,2,69,5,0,0
28192,-100,4,2,69,60,0,0
28464,-100,4,2,69,60,0,1
30305,-100,4,2,69,5,0,0
30373,-100,4,2,69,60,0,0
37191,-100,4,2,69,60,0,1
38215,-100,4,2,69,5,0,0
38283,-100,4,2,69,60,0,0
39646,-100,4,2,69,60,0,0
41010,-50,4,2,69,60,0,0
43191,-33.3333333333333,4,2,69,60,0,0
44828,-66.6666666666667,4,2,69,60,0,0
45101,-66.6666666666667,4,2,69,5,0,0
45237,-25,4,2,69,60,0,0
45578,-100,4,2,69,5,0,0
45646,-100,4,2,69,60,0,0
45919,-66.6666666666667,4,2,69,60,0,1
47760,-100,4,2,69,5,0,0
47828,-100,4,2,69,60,0,0
48101,-66.6666666666667,4,2,69,60,0,0
50828,-66.6666666666667,4,2,69,60,0,0
51919,-52.6315789473684,4,2,69,60,0,0
52124,-100,4,2,69,60,0,0
52192,-100,4,2,69,60,0,0
52601,-50,4,2,69,60,0,0
54646,-100,4,2,69,60,0,1
56282,-28.5714285714286,4,2,69,60,0,1
56487,-100,4,2,69,5,0,0
56555,-100,4,2,69,60,0,0
57373,-88.8888888888889,4,2,69,60,0,0
58805,-100,4,2,69,5,0,0
58873,-100,4,2,69,60,0,0
60033,-100,4,2,69,5,0,0
60101,-100,4,2,69,60,0,0
63373,-100,4,2,69,60,0,1
65282,-100,4,2,69,60,0,0
69646,-33.3333333333333,4,2,69,60,0,0
71828,-25,4,2,69,60,0,1
74282,-100,4,2,69,60,0,0
74828,-37.037037037037,4,2,69,60,0,0
80828,-100,4,2,69,60,0,1
82191,-40,4,2,69,60,0,1
83010,-100,4,2,69,60,0,0
84101,-142.857142857143,4,2,69,60,0,0
84646,-50,4,2,69,60,0,0
86964,-100,4,2,69,60,0,0
87646,-133.333333333333,4,2,69,60,0,0
87919,-43.4782608695652,4,2,69,60,0,0
88601,-181.818181818181,4,2,69,60,0,0
89555,-181.818181818181,4,2,69,60,0,1
91601,-100,4,2,69,60,0,0
98282,-100,4,2,69,60,0,1
100464,-100,4,2,69,60,0,0
103191,-50,4,2,69,60,0,0
107010,-100,4,2,69,60,0,1
109191,-100,4,2,69,60,0,0
111101,-66.6666666666667,4,2,69,60,0,0
113555,-25,4,2,69,60,0,0
115191,-50,4,2,69,60,0,0
115737,-100,4,2,69,60,0,1
117646,-100,4,2,69,60,0,0

[Colours]
Combo1 : 0,255,0
Combo2 : 0,255,128
Combo3 : 128,255,128

[HitObjects]
45,217,101,6,0,L|122:117,1,63.7500024318696,2|0,0:0|0:0,0:0:0:0:
217,149,373,2,0,L|179:200,1,63.7500024318696,2|0,0:0|0:0,0:0:0:0:
264,256,646,2,0,L|341:156,1,63.7500024318696,2|0,0:0|0:0,0:0:0:0:
439,166,919,2,0,L|404:220,1,63.7500024318696,2|0,0:0|0:0,0:0:0:0:
311,293,1191,5,0,0:0:0:0:
257,207,1327,1,0,0:0:0:0:
337,142,1464,1,0,0:0:0:0:
141,83,1737,6,0,P|56:142|66:212,1,127.500004863739,0|0,0:0|0:0,0:0:0:0:
149,218,2282,6,0,L|266:264,1,63.7500024318696,2|0,0:0|0:0,0:0:0:0:
331,187,2554,2,0,L|272:162,1,63.7500024318696,2|0,0:0|0:0,0:0:0:0:
316,71,2827,2,0,L|433:117,1,63.7500024318696,2|0,0:0|0:0,0:0:0:0:
512,58,3100,2,0,L|454:29,1,63.7500024318696,2|0,0:0|0:0,0:0:0:0:
428,128,3373,5,0,0:0:0:0:
336,174,3510,1,0,0:0:0:0:
420,232,3646,1,0,0:0:0:0:
331,75,3919,6,0,P|246:108|244:112,1,63.7500024318696,0|0,0:0|0:0,0:0:0:0:
181,309,4191,2,0,P|266:276|268:272,1,63.7500024318696,0|0,0:0|0:0,0:0:0:0:
62,49,4464,5,2,1:2:0:0:
321,184,4601,1,2,0:0:0:0:
120,138,4737,5,8,0:1:0:0:
413,103,4873,1,2,0:0:0:0:
216,27,5010,5,10,0:0:0:0:
160,289,5146,1,2,0:0:0:0:
134,65,5282,5,8,0:1:0:0:
374,264,5419,1,0,0:0:0:0:
38,321,5555,5,2,1:2:0:0:
151,132,5691,1,2,0:0:0:0:
313,253,5828,5,10,0:1:0:0:
38,63,5964,1,2,0:0:0:0:
229,330,6101,6,0,B|174:131|174:131|237:179,1,255.000009727478,10|10,0:0|0:1,0:0:0:0:
403,282,6510,5,2,0:0:0:0:
201,39,6646,1,2,1:0:0:0:
117,338,6782,1,2,0:0:0:0:
399,96,6919,5,10,0:1:0:0:
94,177,7055,1,2,0:0:0:0:
329,379,7191,1,10,0:0:0:0:
0,59,7328,5,2,0:0:0:0:
47,371,7464,1,10,0:1:0:0:
273,158,7600,1,2,0:0:0:0:
81,179,7737,5,2,1:0:0:0:
384,323,7873,1,2,0:0:0:0:
449,47,8010,1,10,1:0:0:0:
144,321,8146,1,2,0:0:0:0:
497,231,8282,1,10,0:0:0:0:
256,87,8555,5,10,0:1:0:0:
401,306,8691,1,2,0:0:0:0:
491,75,8828,1,2,1:0:0:0:
256,306,8964,5,2,0:0:0:0:
369,99,9100,1,10,0:1:0:0:
147,164,9237,1,2,0:0:0:0:
361,225,9373,5,8,0:0:0:0:
133,285,9509,1,2,0:0:0:0:
250,86,9646,1,10,0:1:0:0:
150,384,9782,5,2,0:0:0:0:
263,177,9918,1,2,1:0:0:0:
41,242,10055,1,2,0:0:0:0:
286,315,10191,1,10,0:1:0:0:
141,113,10328,1,2,0:0:0:0:
383,183,10464,1,10,0:0:0:0:
238,3,10601,1,0,0:0:0:0:
477,74,10737,1,10,0:1:0:0:
26,144,11010,5,2,1:0:0:0:
150,384,11146,1,0,0:0:0:0:
26,144,11282,5,10,0:1:0:0:
150,384,11418,1,2,0:0:0:0:
199,64,11555,5,10,0:0:0:0:
75,304,11691,1,0,0:0:0:0:
199,64,11827,5,10,0:1:0:0:
75,304,11963,1,2,0:0:0:0:
362,384,12101,5,2,1:0:0:0:
486,144,12237,1,2,0:0:0:0:
362,384,12373,5,10,1:0:0:0:
486,144,12509,1,2,0:0:0:0:
512,321,12646,5,10,0:0:0:0:
337,115,12782,1,2,0:0:0:0:
512,321,12918,5,10,1:0:0:0:
337,115,13054,1,2,0:0:0:0:
55,322,13191,5,2,1:0:0:0:
2,189,13328,1,2,0:0:0:0:
147,136,13464,1,10,0:1:0:0:
204,286,13601,1,2,0:0:0:0:
38,91,13737,2,0,P|143:37|234:56,1,170,10|10,0:0|0:1,0:3:0:0:
434,227,14146,5,2,0:0:0:0:
342,41,14282,1,2,1:0:0:0:
289,174,14419,1,2,0:0:0:0:
434,227,14555,1,10,0:1:0:0:
491,77,14692,1,2,0:0:0:0:
339,276,14828,2,0,P|444:330|535:311,1,170,10|10,0:0|0:1,0:3:0:0:
89,217,15373,5,2,1:0:0:0:
424,224,15510,1,2,0:0:0:0:
42,106,15646,1,10,0:1:0:0:
355,304,15782,2,0,P|310:211|388:126,1,170,2|2,0:0|0:0,0:0:0:0:
174,46,16191,5,8,0:1:0:0:
424,224,16328,1,2,0:0:0:0:
344,28,16464,1,2,1:0:0:0:
234,293,16601,1,2,0:0:0:0:
493,108,16737,1,10,1:0:0:0:
88,214,16873,1,2,0:0:0:0:
491,278,17010,2,0,L|289:176,1,170,10|10,0:0|0:1,0:0:0:0:
283,332,17555,5,2,1:0:0:0:
376,112,17691,1,2,0:0:0:0:
146,164,17828,1,10,0:1:0:0:
343,321,17964,1,2,0:0:0:0:
267,38,18101,1,10,0:0:0:0:
185,318,18237,1,2,0:0:0:0:
450,162,18373,1,10,0:1:0:0:
89,137,18510,1,2,0:0:0:0:
489,331,18646,5,2,1:0:0:0:
123,1,18782,1,2,0:0:0:0:
418,382,18919,1,10,0:1:0:0:
0,256,19055,1,2,0:0:0:0:
512,46,19191,1,10,0:0:0:0:
9,136,19464,1,10,0:1:0:0:
111,315,19737,5,2,1:0:0:0:
48,29,19873,1,2,0:0:0:0:
297,298,20010,5,10,0:1:0:0:
5,284,20146,1,2,0:0:0:0:
316,93,20282,5,10,0:0:0:0:
270,377,20418,1,2,0:0:0:0:
97,65,20555,5,10,0:1:0:0:
387,99,20691,1,2,0:0:0:0:
125,215,20828,5,2,1:0:0:0:
352,23,20964,1,2,0:0:0:0:
174,87,21101,5,10,1:0:0:0:
450,197,21237,1,2,0:0:0:0:
194,331,21373,1,10,0:0:0:0:
111,162,21646,6,0,P|260:195|273:236,1,127.500004863739,10|0,1:0|0:0,0:0:0:0:
239,265,21919,6,0,B|265:315|265:315|295:317,1,85,2|0,1:0|0:0,0:0:0:0:
271,115,22191,2,0,B|251:37|251:37|292:73,1,85,2|0,0:0|0:0,0:0:0:0:
299,257,22464,2,0,B|369:298|369:298|314:301,1,85,10|0,0:0|0:0,0:0:0:0:
178,205,22737,2,0,B|113:252|113:252|132:201,1,85,2|0,0:0|0:0,0:0:0:0:
398,64,23010,2,0,B|439:-5|439:-5|442:49,1,85,2|0,1:0|0:0,0:0:0:0:
263,309,23283,2,0,B|283:387|283:387|241:351,1,85,2|0,0:0|0:0,0:0:0:0:
78,89,23556,2,0,B|-1:75|-1:75|48:52,1,85,10|0,0:0|0:0,0:0:0:0:
413,325,23828,2,0,B|488:352|488:352|436:365,1,85,2|0,0:0|0:0,0:0:0:0:
105,330,24101,6,0,B|64:306|64:306|87:241|87:241,1,85,2|0,1:0|3:0,3:0:0:0:
188,48,24373,2,0,B|246:38|246:38|258:70,1,93.5000028533936,2|0,0:0|0:0,0:0:0:0:
260,186,24646,2,0,B|358:161|325:91|406:79,1,170,10|0,0:0|0:0,0:0:0:0:
154,145,24919,2,0,B|86:167|86:167|45:327,1,127.500004863739,2|0,0:0|0:0,0:0:0:0:
324,286,25191,2,0,P|241:295|175:245,1,170,2|0,1:0|0:0,0:0:0:0:
58,73,25464,2,0,B|87:51|87:51|108:66|108:66|172:39,1,85,2|0,1:0|0:0,0:0:0:0:
450,314,25737,2,0,B|412:341|412:341|384:322|384:322|302:357,1,170,10|0,0:0|0:0,0:0:0:0:
251,105,26010,2,0,B|284:125|284:125|303:114|303:114|329:149,1,63.7500024318696,10|0,0:1|0:0,0:0:0:0:
95,266,26282,5,2,1:0:0:0:
366,180,26419,1,2,0:0:0:0:
356,306,26555,5,10,0:1:0:0:
229,149,26692,1,2,0:0:0:0:
383,78,26828,5,10,0:0:0:0:
221,244,26965,1,2,0:0:0:0:
51,51,27101,5,10,0:1:0:0:
151,325,27238,1,2,0:0:0:0:
5,166,27373,5,2,1:0:0:0:
334,147,27510,1,2,0:0:0:0:
14,308,27646,5,10,0:1:0:0:
455,273,27782,1,2,0:0:0:0:
50,40,27919,1,10,0:0:0:0:
84,292,28191,5,10,0:1:0:0:
291,33,28328,1,2,0:0:0:0:
209,384,28464,5,2,1:0:0:0:
172,54,28601,1,2,0:0:0:0:
358,360,28737,5,10,0:1:0:0:
99,153,28874,1,0,0:0:0:0:
350,275,29010,5,10,0:0:0:0:
30,185,29147,1,0,0:0:0:0:
109,350,29282,5,10,0:1:0:0:
250,148,29419,1,2,0:0:0:0:
234,346,29555,1,2,1:0:0:0:
168,51,29692,1,2,0:0:0:0:
328,333,29828,1,10,1:0:0:0:
74,11,29965,1,2,0:0:0:0:
416,227,30101,1,10,0:0:0:0:
262,115,30373,5,10,0:1:0:0:
288,153,30510,1,2,0:0:0:0:
239,152,30646,1,2,1:0:0:0:
308,118,30782,1,2,0:0:0:0:
265,188,30919,1,10,0:1:0:0:
221,116,31055,1,2,0:0:0:0:
320,175,31191,1,10,0:0:0:0:
260,70,31328,1,2,0:0:0:0:
320,175,31464,5,10,0:1:0:0:
162,119,31601,1,2,0:0:0:0:
366,122,31737,1,2,1:0:0:0:
231,241,31873,1,2,0:0:0:0:
330,72,32010,1,10,0:1:0:0:
192,55,32146,1,2,0:0:0:0:
311,244,32282,1,10,0:0:0:0:
289,19,32419,1,2,0:0:0:0:
161,232,32555,5,10,0:1:0:0:
381,190,32691,1,2,0:0:0:0:
143,60,32828,1,2,1:0:0:0:
311,244,32964,1,2,0:0:0:0:
142,175,33101,1,10,0:1:0:0:
388,74,33237,1,2,0:0:0:0:
266,307,33373,1,10,0:0:0:0:
230,21,33510,1,2,0:0:0:0:
415,309,33646,5,10,0:1:0:0:
49,120,33782,1,2,0:0:0:0:
461,77,33919,1,2,1:0:0:0:
164,303,34055,1,2,0:0:0:0:
446,204,34191,1,10,1:0:0:0:
92,229,34328,1,2,0:0:0:0:
381,291,34464,1,10,0:0:0:0:
134,73,34601,1,2,0:0:0:0:
392,92,34737,5,10,0:1:0:0:
487,323,34873,1,2,0:0:0:0:
176,178,35010,5,2,1:0:0:0:
488,157,35146,1,2,0:0:0:0:
214,41,35282,5,10,0:1:0:0:
146,327,35419,1,2,0:0:0:0:
96,92,35555,5,10,0:0:0:0:
319,237,35691,1,2,0:0:0:0:
419,137,35828,5,10,0:1:0:0:
73,263,35964,1,2,0:0:0:0:
354,63,36101,5,2,1:0:0:0:
3,181,36237,1,2,0:0:0:0:
43,88,36373,5,10,0:1:0:0:
154,315,36510,1,2,0:0:0:0:
167,147,36646,5,10,0:0:0:0:
281,358,36782,1,2,0:0:0:0:
87,208,36919,5,10,0:1:0:0:
317,124,37055,1,2,0:0:0:0:
172,287,37191,5,2,1:0:0:0:
496,171,37328,1,2,0:0:0:0:
258,73,37464,5,10,0:1:0:0:
0,158,37601,1,2,0:0:0:0:
215,196,37737,5,10,0:0:0:0:
489,142,37873,1,2,0:0:0:0:
377,273,38010,5,10,0:1:0:0:
111,336,38146,1,0,0:0:0:0:
372,110,38282,5,2,1:0:0:0:
77,23,38418,1,2,0:0:0:0:
246,280,38554,1,0,0:0:0:0:
211,28,38691,1,2,0:0:0:0:
72,318,38827,1,10,0:0:0:0:
43,114,38963,1,2,0:0:0:0:
286,381,39100,1,10,0:1:0:0:
240,78,39373,5,2,1:0:0:0:
396,313,39510,1,2,0:0:0:0:
492,147,39646,2,0,B|449:157|415:137|382:166,1,85,10|2,0:1|0:0,0:0:0:0:
512,362,39919,1,10,0:0:0:0:
309,35,40055,1,2,0:0:0:0:
314,290,40191,1,10,0:1:0:0:
507,1,40328,1,0,0:0:0:0:
142,196,40464,2,0,L|137:324,1,85,2|0,1:0|0:0,0:0:0:0:
69,148,41010,6,0,B|126:92|199:132|199:132|278:129,1,170,8|0,0:0|0:0,0:0:0:0:
196,17,41282,5,10,0:1:0:0:
371,346,41419,1,2,0:0:0:0:
102,57,41555,5,2,1:0:0:0:
395,95,41691,1,2,0:0:0:0:
51,167,41828,5,10,0:1:0:0:
420,115,41965,1,2,0:0:0:0:
56,269,42101,5,10,0:0:0:0:
192,6,42237,1,2,0:0:0:0:
238,384,42373,5,10,0:1:0:0:
128,27,42510,1,2,0:0:0:0:
337,363,42646,5,2,1:0:0:0:
76,99,42782,1,2,0:0:0:0:
24,334,42919,5,10,1:0:0:0:
294,14,43055,1,2,0:0:0:0:
312,250,43191,6,0,B|312:63|312:63|447:62|447:62|447:257,1,510.000019454957,10|10,0:0|0:1,0:0:0:0:
0,383,43737,5,2,1:0:0:0:
138,384,43873,1,0,0:0:0:0:
2,62,44282,5,10,0:0:0:0:
140,61,44418,1,0,0:0:0:0:
61,175,44828,5,2,1:0:0:0:
199,174,44964,1,0,0:0:0:0:
440,239,45237,6,0,B|387:239|387:239|386:303|386:303|386:168|386:168|474:168,1,340,0|10,0:0|0:0,0:0:0:0:
72,345,45646,5,10,0:1:0:0:
434,62,45782,1,2,0:0:0:0:
111,382,45919,5,2,1:0:0:0:
400,25,46055,1,2,0:0:0:0:
443,340,46191,5,10,0:1:0:0:
91,45,46327,1,2,0:0:0:0:
490,243,46464,5,8,0:0:0:0:
43,132,46600,1,0,0:0:0:0:
468,162,46737,5,10,0:1:0:0:
104,242,46873,1,2,0:0:0:0:
385,93,47010,5,2,1:0:0:0:
207,321,47146,1,2,0:0:0:0:
127,94,47282,5,10,1:0:0:0:
12,292,47419,1,2,0:0:0:0:
410,204,47555,2,0,L|408:63,2,127.500004863739,10|0|10,0:0|0:0|0:1,0:0:0:0:
405,43,47964,5,2,0:0:0:0:
169,120,48101,1,2,1:0:0:0:
428,258,48237,1,2,0:0:0:0:
98,336,48373,1,10,0:1:0:0:
273,162,48510,1,2,0:0:0:0:
307,352,48646,1,10,0:0:0:0:
71,213,48919,5,10,0:1:0:0:
358,95,49055,2,0,L|334:264,1,127.500004863739,2|2,0:0|1:0,0:0:0:0:
186,46,49328,1,2,0:0:0:0:
423,168,49464,2,0,L|399:337,1,127.500004863739,10|2,0:1|0:0,0:0:0:0:
235,95,49737,1,10,0:0:0:0:
492,336,49873,1,0,0:0:0:0:
130,130,50010,5,10,0:1:0:0:
371,113,50147,1,2,0:0:0:0:
265,331,50283,1,2,1:0:0:0:
255,52,50418,5,2,0:0:0:0:
134,261,50555,1,10,0:1:0:0:
377,261,50691,1,2,0:0:0:0:
160,89,50828,5,10,0:0:0:0:
392,160,50964,1,2,0:0:0:0:
215,325,51102,1,2,0:0:0:0:
343,49,51237,1,2,0:0:0:0:
390,343,51374,1,2,1:0:0:0:
163,166,51510,1,2,0:0:0:0:
475,187,51646,1,10,1:0:0:0:
153,133,51782,1,2,0:0:0:0:
464,60,51919,2,0,B|428:126|428:126|482:179|482:179|437:240|437:240|388:154,1,322.99999137497,10|10,0:0|0:1,0:0:0:0:
37,294,52328,5,2,0:0:0:0:
264,73,52464,1,2,1:0:0:0:
41,186,52601,2,0,P|138:248|151:303,1,170,2|10,0:0|0:1,0:0:0:0:
362,44,52873,1,2,0:0:0:0:
70,371,53010,1,10,0:0:0:0:
467,19,53146,1,2,0:0:0:0:
441,384,53419,5,2,0:0:0:0:
252,74,53555,1,2,1:0:0:0:
475,187,53692,2,0,P|378:249|365:304,1,170,2|10,0:0|0:1,0:0:0:0:
154,45,53964,1,2,0:0:0:0:
446,372,54101,1,10,0:0:0:0:
49,20,54237,1,0,0:0:0:0:
259,196,54510,5,2,0:0:0:0:
154,276,54646,5,2,1:0:0:0:
171,90,54783,1,2,0:0:0:0:
357,107,54918,1,10,0:1:0:0:
340,293,55055,1,2,0:0:0:0:
166,353,55191,5,10,0:0:0:0:
94,102,55328,1,2,0:0:0:0:
345,30,55463,1,10,0:1:0:0:
417,281,55601,1,2,0:0:0:0:
60,278,55737,5,2,1:0:0:0:
303,25,55874,1,2,0:0:0:0:
355,363,56010,1,10,1:0:0:0:
75,57,56146,1,2,0:0:0:0:
462,140,56282,2,0,B|417:129|417:129|373:134|349:169|367:215|413:211|413:211|456:215|459:250|450:282|401:288|401:288|356:277|356:277|353:278|402:288|402:288|401:307|402:307|411:100,1,595,10|10,0:0|0:1,0:0:0:0:
44,327,56691,5,2,0:0:0:0:
199,72,56828,1,2,1:0:0:0:
259,349,56964,1,2,0:0:0:0:
29,139,57101,1,8,0:1:0:0:
345,172,57237,1,2,0:0:0:0:
46,238,57373,6,0,L|244:121,1,191.250007295609,10|8,0:0|0:1,0:0:0:0:
119,344,57919,5,2,1:0:0:0:
470,162,58056,1,2,0:0:0:0:
196,304,58192,5,10,0:1:0:0:
101,28,58328,1,2,0:0:0:0:
393,40,58465,5,10,0:0:0:0:
42,222,58602,1,2,0:0:0:0:
347,302,58873,5,2,0:0:0:0:
244,115,59010,1,2,1:0:0:0:
167,302,59146,1,2,0:0:0:0:
319,319,59282,5,10,0:1:0:0:
261,114,59419,1,2,0:0:0:0:
144,279,59555,1,10,0:0:0:0:
289,330,59691,5,2,0:0:0:0:
278,117,59828,1,10,0:1:0:0:
127,251,59964,1,0,0:0:0:0:
259,334,60101,5,2,1:0:0:0:
293,123,60238,1,2,0:0:0:0:
118,223,60374,1,10,1:0:0:0:
341,254,60510,1,2,0:0:0:0:
171,105,60646,1,10,0:0:0:0:
157,326,60782,1,0,0:0:0:0:
282,94,60919,5,10,0:1:0:0:
267,323,61055,1,2,0:0:0:0:
71,166,61191,1,2,1:0:0:0:
378,23,61464,5,10,0:1:0:0:
364,274,61600,1,2,0:0:0:0:
184,132,61736,1,10,0:0:0:0:
44,334,62010,5,10,0:1:0:0:
459,169,62146,1,2,0:0:0:0:
83,210,62282,5,2,1:0:0:0:
501,356,62418,1,2,0:0:0:0:
396,38,62555,5,10,0:1:0:0:
304,370,62691,1,0,0:0:0:0:
304,14,62828,5,10,0:0:0:0:
412,274,62964,1,0,0:0:0:0:
46,347,63101,5,10,0:1:0:0:
498,252,63237,1,2,0:0:0:0:
91,141,63373,5,2,1:0:0:0:
165,278,63510,1,0,0:0:0:0:
184,51,63646,5,10,0:1:0:0:
83,357,63782,1,2,0:0:0:0:
84,49,63919,5,10,0:0:0:0:
323,347,64055,1,0,0:0:0:0:
274,60,64191,1,10,0:1:0:0:
32,294,64328,1,2,0:0:0:0:
475,222,64464,5,2,1:0:0:0:
44,125,64601,1,0,0:0:0:0:
451,78,64737,5,10,1:0:0:0:
103,351,64873,1,2,0:0:0:0:
89,34,65010,5,10,0:0:0:0:
202,372,65146,1,2,0:0:0:0:
366,234,65282,5,10,1:0:0:0:
344,146,65419,1,2,0:0:0:0:
279,210,65555,1,2,1:0:0:0:
425,178,65691,1,2,0:0:0:0:
256,120,65828,1,10,0:1:0:0:
450,270,65964,1,2,0:0:0:0:
317,61,66101,1,10,0:0:0:0:
367,302,66237,1,2,0:0:0:0:
415,81,66373,5,10,0:1:0:0:
280,274,66510,1,2,0:0:0:0:
378,13,66646,1,2,1:0:0:0:
438,354,66782,1,2,0:0:0:0:
237,35,66919,1,10,0:1:0:0:
355,384,67055,1,2,0:0:0:0:
432,7,67191,1,10,0:0:0:0:
123,80,67464,5,10,0:1:0:0:
256,274,67601,1,2,0:0:0:0:
352,44,67737,5,2,1:0:0:0:
113,278,67874,1,0,0:0:0:0:
66,117,68010,5,10,0:1:0:0:
399,313,68147,1,0,0:0:0:0:
345,76,68283,5,10,0:0:0:0:
177,129,68420,1,0,0:0:0:0:
492,201,68555,1,10,0:1:0:0:
67,242,68691,5,2,0:0:0:0:
319,105,68828,1,2,1:0:0:0:
32,108,68964,1,2,0:0:0:0:
395,274,69101,1,0,0:0:0:0:
29,43,69237,1,2,0:0:0:0:
409,335,69373,1,10,0:0:0:0:
44,230,69646,6,0,B|101:378|101:378|178:351|166:321|145:271|70:299|70:299|145:270|130:234|114:196|42:225|42:225,1,510,10|2,0:1|1:0,0:0:0:0:
124,62,70055,1,0,0:0:0:0:
292,334,70191,1,10,0:1:0:0:
394,99,70328,1,0,0:0:0:0:
6,33,70464,1,10,0:0:0:0:
399,267,70601,1,2,0:0:0:0:
150,215,70873,5,0,0:0:0:0:
481,199,71009,1,2,1:0:0:0:
393,64,71145,5,2,0:0:0:0:
269,343,71281,1,10,0:1:0:0:
214,84,71418,5,2,0:0:0:0:
290,339,71554,1,10,0:0:0:0:
174,64,71691,5,2,0:0:0:0:
378,202,71828,1,10,0:1:0:0:
61,284,71964,5,2,0:0:0:0:
430,298,72101,1,2,1:0:0:0:
124,222,72236,5,2,0:0:0:0:
373,118,72373,1,10,0:1:0:0:
124,159,72509,5,0,0:0:0:0:
373,263,72646,1,10,0:0:0:0:
151,261,72782,5,2,0:0:0:0:
342,140,72919,1,10,0:1:0:0:
124,133,73055,5,2,0:0:0:0:
382,260,73192,1,2,1:0:0:0:
31,244,73328,5,2,0:0:0:0:
456,66,73465,1,10,1:0:0:0:
31,137,73601,5,2,0:0:0:0:
465,172,73737,1,10,0:0:0:0:
98,47,73873,5,2,0:0:0:0:
456,316,74010,1,2,0:0:0:0:
437,174,74146,5,0,0:0:0:0:
340,288,74282,2,0,L|320:183,1,85,2|2,1:0|0:0,0:0:0:0:
286,53,74555,5,8,0:1:0:0:
186,330,74691,1,2,0:0:0:0:
54,144,74828,2,0,B|122:89|223:165|300:103,1,229.500000875473,10|2,0:0|0:0,0:0:0:0:
277,117,75510,5,2,0:0:0:0:
53,144,75646,1,10,0:1:0:0:
277,117,75782,1,2,0:0:0:0:
277,117,75919,5,8,0:0:0:0:
53,144,76055,1,2,0:0:0:0:
297,299,76191,5,10,0:1:0:0:
134,52,76328,1,2,0:0:0:0:
157,205,76464,5,2,1:0:0:0:
512,246,76601,1,2,0:0:0:0:
151,47,76737,5,10,0:1:0:0:
377,332,76874,1,2,0:0:0:0:
339,177,77010,5,10,0:0:0:0:
0,138,77147,1,2,0:0:0:0:
78,347,77282,5,0,0:0:0:0:
297,167,77419,1,2,0:0:0:0:
211,344,77555,5,2,1:0:0:0:
166,90,77691,1,2,0:0:0:0:
350,308,77828,5,0,0:0:0:0:
299,13,77964,1,2,0:0:0:0:
471,227,78101,5,10,0:0:0:0:
250,112,78237,1,2,0:0:0:0:
376,335,78373,5,0,0:0:0:0:
429,75,78510,1,2,0:0:0:0:
267,277,78646,5,2,1:0:0:0:
346,84,78782,1,2,0:0:0:0:
146,291,78919,5,10,0:1:0:0:
212,17,79055,1,2,0:0:0:0:
17,320,79191,5,10,0:0:0:0:
97,35,79328,1,0,0:0:0:0:
225,280,79464,5,10,0:1:0:0:
0,226,79601,1,2,0:0:0:0:
211,112,79737,5,2,1:0:0:0:
175,342,79873,1,2,0:0:0:0:
35,82,80010,5,10,0:1:0:0:
260,173,80146,1,2,0:0:0:0:
225,29,80282,5,10,0:0:0:0:
162,232,80419,1,0,0:0:0:0:
130,70,80555,5,10,0:1:0:0:
312,223,80691,1,2,0:0:0:0:
105,154,80828,5,2,1:0:0:0:
408,53,80964,1,2,0:0:0:0:
196,18,81101,1,10,0:1:0:0:
239,314,81237,1,2,0:0:0:0:
346,137,81373,1,10,0:0:0:0:
114,68,81510,1,2,0:0:0:0:
398,306,81646,1,10,0:1:0:0:
309,22,81782,1,0,0:0:0:0:
82,319,81919,1,2,1:0:0:0:
430,97,82055,1,2,0:0:0:0:
467,228,82191,6,0,B|337:149|177:202|39:115,2,425,10|10|10,1:0|0:0|1:0,0:0:0:0:
306,356,82873,1,0,0:0:0:0:
162,76,83010,5,2,1:0:0:0:
231,201,83146,1,2,0:0:0:0:
167,80,83282,5,10,0:1:0:0:
126,265,83419,1,2,0:0:0:0:
163,86,83555,5,10,0:0:0:0:
214,323,83691,1,2,0:0:0:0:
169,84,83828,5,10,0:1:0:0:
239,117,83964,1,2,0:0:0:0:
167,80,84101,5,2,1:0:0:0:
90,168,84646,6,0,B|144:354|144:354|237:241,1,340,10|10,0:0|0:1,0:0:0:0:
401,123,85191,5,2,1:0:0:0:
188,347,85328,1,0,0:0:0:0:
217,135,85464,1,10,0:1:0:0:
401,261,85601,5,2,0:0:0:0:
188,37,85738,1,10,0:0:0:0:
217,249,85874,1,0,0:0:0:0:
111,123,86010,5,10,0:1:0:0:
324,347,86147,1,2,0:0:0:0:
295,135,86283,1,2,1:0:0:0:
47,322,86419,5,2,0:0:0:0:
398,283,86556,1,10,1:0:0:0:
193,221,86692,1,2,0:0:0:0:
446,217,86828,5,10,0:0:0:0:
94,255,86965,1,0,0:0:0:0:
299,317,87101,1,10,0:1:0:0:
47,322,87237,5,2,0:0:0:0:
398,283,87374,1,2,1:0:0:0:
193,221,87510,1,2,0:0:0:0:
446,217,87646,5,10,0:1:0:0:
94,255,87783,1,0,0:3:0:0:
63,142,87919,6,0,B|181:58|181:58|244:144|244:144|126:222,1,391.000007457733,10|0,0:0|0:0,0:0:0:0:
212,44,88328,6,0,B|339:262|339:262|190:382|190:382|151:245|151:245|471:15,1,977.500018644333,2|8,0:0|0:0,0:0:0:0:
98,225,89282,5,10,0:1:0:0:
156,119,89419,1,2,0:0:0:0:
172,328,89555,5,2,1:0:0:0:
361,89,89691,1,2,0:0:0:0:
483,297,89828,1,10,0:1:0:0:
88,165,89964,1,2,0:0:0:0:
292,36,90101,1,10,0:0:0:0:
371,345,90237,1,2,0:0:0:0:
113,83,90373,1,10,0:1:0:0:
490,209,90510,1,2,0:0:0:0:
227,348,90646,1,2,1:0:0:0:
501,70,90782,1,2,0:0:0:0:
437,343,90919,1,10,1:0:0:0:
93,145,91055,1,2,0:0:0:0:
294,306,91191,1,10,0:0:0:0:
213,56,91328,1,0,0:0:0:0:
161,277,91464,5,8,0:1:0:0:
376,181,91600,1,2,0:0:0:0:
303,310,91736,5,2,1:0:0:0:
286,75,91872,1,2,0:0:0:0:
376,150,92009,5,10,0:1:0:0:
148,152,92146,2,0,L|148:276,1,85,2|10,0:0|0:0,0:0:0:0:
468,94,92555,5,10,0:1:0:0:
367,350,92691,1,2,0:0:0:0:
328,67,92828,1,2,1:0:0:0:
473,273,92964,1,2,0:0:0:0:
493,29,93101,1,10,0:1:0:0:
329,243,93237,1,2,0:0:0:0:
505,163,93373,1,10,0:0:0:0:
42,131,93510,1,2,0:0:0:0:
218,329,93646,5,10,0:1:0:0:
263,162,93782,1,2,0:0:0:0:
56,284,93919,1,2,1:0:0:0:
395,296,94055,1,2,0:0:0:0:
224,52,94191,1,10,0:1:0:0:
129,371,94328,1,2,0:0:0:0:
402,92,94464,1,10,0:0:0:0:
49,153,94601,1,2,0:0:0:0:
305,369,94737,1,10,0:1:0:0:
318,28,94873,1,2,0:0:0:0:
48,286,95010,1,2,1:0:0:0:
465,313,95146,1,2,0:0:0:0:
169,174,95282,1,10,1:0:0:0:
388,217,95419,1,2,0:0:0:0:
80,139,95555,1,10,0:0:0:0:
483,245,95691,1,2,0:0:0:0:
322,88,95964,6,0,L|279:187,1,85,0|2,0:0|1:0,0:0:0:0:
209,325,96373,1,10,0:1:0:0:
304,326,96510,1,2,0:0:0:0:
112,326,96646,1,10,0:0:0:0:
398,325,96782,1,2,0:0:0:0:
179,136,97191,5,2,1:0:0:0:
385,216,97328,1,2,0:0:0:0:
79,176,97464,5,10,0:1:0:0:
460,309,97601,1,2,0:0:0:0:
199,347,97737,1,10,0:0:0:0:
392,103,98010,5,10,0:1:0:0:
102,261,98146,1,2,0:0:0:0:
392,103,98282,5,2,1:0:0:0:
16,57,98419,1,2,0:0:0:0:
263,226,98555,5,10,0:1:0:0:
392,103,98691,1,2,0:0:0:0:
263,226,98827,5,0,0:0:0:0:
403,324,98964,1,2,0:0:0:0:
151,97,99101,5,10,0:1:0:0:
101,308,99237,1,2,0:0:0:0:
56,60,99373,5,0,0:0:0:0:
191,331,99510,1,2,0:0:0:0:
6,133,99646,5,10,1:0:0:0:
278,312,99782,1,2,0:0:0:0:
1,210,99919,5,10,0:0:0:0:
376,370,100055,1,0,0:0:0:0:
452,71,100191,6,0,L|451:282,1,170,8|2,0:1|1:0,0:0:0:0:
78,161,100601,1,0,0:0:0:0:
351,221,100737,1,10,0:1:0:0:
6,143,100873,1,0,0:0:0:0:
452,313,101010,6,0,L|451:102,1,170,10|10,0:0|0:1,0:0:0:0:
78,223,101420,1,0,0:0:0:0:
351,163,101556,1,2,1:0:0:0:
6,241,101692,1,2,0:0:0:0:
156,202,101828,1,10,0:1:0:0:
257,181,101964,1,2,0:0:0:0:
458,132,102101,1,10,0:0:0:0:
155,328,102237,5,0,0:0:0:0:
183,68,102374,1,0,0:0:0:0:
296,310,102510,1,2,0:0:0:0:
53,187,102646,1,2,1:0:0:0:
481,258,102783,1,2,0:0:0:0:
301,50,102919,1,8,0:1:0:0:
154,207,103191,6,0,L|113:385,2,170,10|2|10,0:0|0:0|0:1,0:0:0:0:
266,324,103601,1,0,0:0:0:0:
452,108,103737,1,2,1:0:0:0:
344,5,103873,1,2,0:0:0:0:
193,81,104010,1,10,1:0:0:0:
322,335,104146,1,2,0:0:0:0:
472,222,104282,6,0,P|163:320|193:80,1,680,10|2,0:0|1:0,0:0:0:0:
259,256,104964,1,2,0:0:0:0:
259,256,105101,1,10,0:1:0:0:
259,256,105237,1,2,0:0:0:0:
259,256,105373,1,10,0:0:0:0:
259,256,105510,1,2,0:0:0:0:
259,256,105646,1,8,0:1:0:0:
510,378,105782,5,2,0:0:0:0:
327,316,105919,1,2,1:0:0:0:
84,84,106055,1,2,0:0:0:0:
0,384,106191,5,10,0:1:0:0:
98,217,106328,1,2,0:0:0:0:
376,28,106464,1,10,0:0:0:0:
247,311,106737,1,10,0:1:0:0:
105,154,107010,5,2,1:0:0:0:
408,53,107146,1,10,0:1:0:0:
196,18,107283,1,2,0:0:0:0:
239,314,107419,1,2,0:0:0:0:
346,137,107555,1,10,0:0:0:0:
114,68,107692,1,2,0:0:0:0:
398,306,107828,1,10,0:1:0:0:
309,22,107964,1,0,0:0:0:0:
82,319,108101,1,2,1:0:0:0:
430,97,108237,1,2,0:0:0:0:
10,201,108373,1,10,1:0:0:0:
302,328,108510,1,0,0:0:0:0:
225,124,108646,2,0,L|194:313,1,170,10|10,0:0|0:1,0:0:0:0:
313,216,109191,5,2,1:0:0:0:
413,266,109328,1,2,0:0:0:0:
198,215,109601,5,2,0:0:0:0:
92,250,109738,1,10,0:0:0:0:
341,228,110010,5,2,0:0:0:0:
491,303,110147,1,2,0:0:0:0:
170,227,110282,1,2,1:0:0:0:
264,300,110419,5,2,0:0:0:0:
229,78,110555,1,10,0:1:0:0:
112,266,110692,1,2,0:0:0:0:
330,173,110828,1,10,0:0:0:0:
101,138,110965,1,2,0:0:0:0:
433,108,111101,2,0,L|448:251,1,127.5,10|2,0:1|0:0,0:0:0:0:
180,52,111373,5,2,1:0:0:0:
278,347,111510,1,2,0:0:0:0:
331,161,111646,1,10,0:1:0:0:
92,228,111782,1,2,0:0:0:0:
161,18,111919,5,10,0:0:0:0:
283,383,112056,1,2,0:0:0:0:
348,153,112192,1,10,0:1:0:0:
52,236,112328,1,2,0:0:0:0:
208,105,112464,5,2,1:0:0:0:
269,287,112601,1,2,0:0:0:0:
302,172,112737,1,10,1:0:0:0:
154,214,112873,1,2,0:0:0:0:
356,53,113010,1,10,0:0:0:0:
481,235,113146,1,0,0:0:0:0:
124,116,113555,2,0,B|131:253|131:253|295:181|123:113,1,340,2|2,1:0|0:0,0:0:0:0:
298,142,113828,2,0,B|301:337|301:337|432:313|432:313|345:246|345:246|428:174|428:174|294:132|294:132,1,680,10|8,0:1|0:0,0:0:0:0:
72,313,114237,5,2,0:0:0:0:
357,50,114373,1,10,0:1:0:0:
336,313,114510,5,2,0:0:0:0:
86,71,114646,6,0,B|275:137|275:137|39:230|39:230|273:316,1,680,2|8,1:0|0:1,0:0:0:0:
433,62,115055,1,2,0:0:0:0:
229,182,115191,6,0,B|266:141|296:166|297:202|273:237|227:260|227:260|204:252|182:236|178:231|160:210|153:197|151:176|165:159|182:141|209:174|216:180|228:181|228:181,1,340,10|10,0:0|0:1,0:0:0:0:
149,313,115737,5,2,1:0:0:0:
247,47,115873,1,2,0:0:0:0:
409,312,116010,1,10,0:1:0:0:
118,150,116146,1,2,0:0:0:0:
399,56,116282,1,10,0:0:0:0:
285,324,116419,1,0,0:0:0:0:
118,44,116555,1,10,0:1:0:0:
459,201,116691,1,2,0:0:0:0:
34,318,116828,1,2,1:0:0:0:
330,22,116964,1,2,0:0:0:0:
398,347,117101,1,10,1:0:0:0:
3,1,117237,5,2,0:0:0:0:
501,379,117373,1,10,0:0:0:0:
501,379,117646,1,2,0:0:0:0:
