osu file format v14

[General]
AudioFilename: audio.mp3
AudioLeadIn: 0
PreviewTime: 58203
Countdown: 0
SampleSet: Soft
StackLeniency: 0.4
Mode: 0
LetterboxInBreaks: 0
WidescreenStoryboard: 1

[Editor]
Bookmarks: 89507
DistanceSpacing: 0.5
BeatDivisor: 4
GridSize: 8
TimelineZoom: 2.450002

[Metadata]
Title:Papa, Ne Pey!
TitleUnicode:Папа, Не Пей!
Artist:PORNOFIL'MY
ArtistUnicode:ПОРНОФИЛЬМЫ
Creator:-Mikan
Version:Panty's Insane
Source:
Tags:FCL adioni unranked_mapper unranked mapper DendyHere DendyMudak TheMefisto wenect Frakturehawkens Gordon123 PantyDev Русский Russian Rock Alternative Punk
BeatmapID:2004399
BeatmapSetID:936950

[Difficulty]
HPDrainRate:6
CircleSize:4
OverallDifficulty:7
ApproachRate:9
SliderMultiplier:1.5
SliderTickRate:1

[Events]
//Background and Video events
0,0,"bg.jpg",0,0
//Break Periods
//Storyboard Layer 0 (Background)
//Storyboard Layer 1 (Fail)
//Storyboard Layer 2 (Pass)
//Storyboard Layer 3 (Foreground)
//Storyboard Layer 4 (Overlay)
//Storyboard Sound Samples

[TimingPoints]
812,326.086956521739,4,2,1,40,1,0
812,-133.333333333333,4,2,1,40,0,0
11246,-117.647058823529,4,3,1,55,0,0
21681,-100,4,3,1,70,0,0
32116,-111.111111111111,4,3,1,60,0,0
36029,-111.111111111111,4,3,1,65,0,0
37333,-111.111111111111,4,3,1,60,0,0
41246,-111.111111111111,4,3,1,65,0,0
42551,-100,4,3,1,70,0,0
52985,-100,4,3,1,60,0,0
56898,-100,4,3,1,70,0,0
57143,-100,4,3,1,5,0,0
57225,-100,4,3,1,70,0,0
57469,-100,4,3,1,5,0,0
57551,-100,4,3,1,70,0,0
57795,-100,4,3,1,5,0,0
57877,-100,4,3,1,70,0,0
58121,-100,4,3,1,5,0,0
58203,-133.333333333333,4,3,1,55,0,0
62116,-133.333333333333,4,3,1,60,0,0
63420,-86.9565217391304,4,3,1,75,0,1
79072,-133.333333333333,4,2,1,60,0,0
81355,-133.333333333333,4,2,1,50,0,0
81681,-133.333333333333,4,2,1,60,0,0
83638,-133.333333333333,4,2,1,50,0,0
84290,-133.333333333333,4,2,2,60,0,0
85594,-133.333333333333,4,2,2,50,0,0
86898,-133.333333333333,4,2,2,40,0,0
88203,-133.333333333333,4,2,2,30,0,0
88855,-133.333333333333,4,2,2,20,0,0
89507,-133.333333333333,4,2,1,5,0,0

[Colours]
Combo1 : 174,70,102
Combo2 : 92,92,132
Combo3 : 142,142,192

[HitObjects]
448,292,812,6,0,L|436:221,1,56.2500021457673,2|2,3:2|0:0,0:0:0:0:
421,148,1138,1,2,3:2:0:0:
331,155,1301,2,0,P|317:185|319:220,1,56.2500021457673,2|2,0:0|3:2,0:0:0:0:
236,242,1627,2,0,P|225:216|228:189,2,56.2500021457673,2|2|2,0:0|3:2|0:0,0:0:0:0:
300,331,2116,6,0,L|227:327,1,56.2500021457673,2|2,3:2|0:0,0:0:0:0:
154,322,2442,1,2,3:2:0:0:
93,255,2605,2,0,P|83:228|84:200,1,56.2500021457673,2|2,0:0|3:2,0:0:0:0:
15,110,2931,2,0,P|2:135|2:163,2,56.2500021457673,2|2|2,0:0|3:2|0:0,0:0:0:0:
44,16,3420,6,0,L|99:23,1,56.2500021457673,2|2,3:2|0:0,0:0:0:0:
169,80,3746,1,2,3:2:0:0:
258,74,3909,2,0,L|265:7,1,56.2500021457673,2|2,0:0|3:2,0:0:0:0:
353,21,4235,2,0,L|347:76,1,56.2500021457673,2|2,0:0|3:2,0:0:0:0:
333,165,4561,1,0,0:0:0:0:
441,83,4725,6,0,L|447:28,2,56.2500021457673,2|2|2,3:2|0:0|3:2,0:0:0:0:
460,167,5214,2,0,P|487:159|508:141,2,56.2500021457673,2|2|2,0:0|3:2|0:0,0:0:0:0:
376,145,5703,1,2,3:2:0:0:
473,316,6029,6,0,L|415:308,1,56.2500021457673,2|2,3:2|0:0,0:0:0:0:
328,291,6355,1,2,3:2:0:0:
238,301,6518,2,0,P|209:320|191:349,1,56.2500021457673,2|2,0:0|3:2,0:0:0:0:
97,350,6844,2,0,P|104:323|121:301,2,56.2500021457673,2|2|2,0:0|3:2|0:0,0:0:0:0:
123,144,7333,6,0,L|189:173,1,56.2500021457673,2|2,3:2|0:0,0:0:0:0:
260,192,7659,1,2,3:2:0:0:
325,129,7822,2,0,P|333:106|329:65,1,56.2500021457673,2|2,0:0|3:2,0:0:0:0:
403,21,8148,2,0,P|417:46|421:74,2,56.2500021457673,2|2|2,0:0|3:2|0:0,0:0:0:0:
481,249,8638,6,0,L|415:278,1,56.2500021457673,2|2,3:2|0:0,0:0:0:0:
343,245,8964,1,2,3:2:0:0:
257,273,9127,2,0,L|256:341,1,56.2500021457673,2|2,0:0|3:2,0:0:0:0:
167,329,9453,2,0,L|168:261,1,56.2500021457673,2|2,0:0|3:2,0:0:0:0:
170,182,9779,1,0,0:0:0:0:
79,271,9942,6,0,L|79:328,2,56.2500021457673,2|2|2,3:2|0:0|3:2,0:0:0:0:
51,197,10431,2,0,P|25:209|9:231,2,56.2500021457673,2|2|2,0:0|3:2|0:0,0:0:0:0:
147,209,10920,1,2,3:2:0:0:
56,72,11083,1,0,0:0:0:0:
56,56,11165,1,0,0:0:0:0:
56,40,11246,6,0,P|114:31|189:60,1,127.50000243187,10|10,0:2|0:2,0:0:0:0:
208,152,11735,2,0,B|226:152|249:141|249:141|312:169,1,95.6250018239022,8|8,0:2|0:2,0:0:0:0:
319,169,12061,2,0,P|317:137|329:103,2,63.7500012159348,8|10|8,0:2|0:2|0:2,0:0:0:0:
471,80,12551,6,0,P|449:136|456:225,1,127.50000243187,10|10,0:2|0:2,0:0:0:0:
414,298,13040,2,0,L|303:305,1,95.6250018239022,10|8,0:2|0:2,0:0:0:0:
295,309,13366,2,0,P|304:339|302:370,2,63.7500012159348,10|10|10,0:2|0:2|0:2,0:0:0:0:
170,253,13855,6,0,P|201:311|185:398,1,127.50000243187,10|10,0:2|0:2,0:0:0:0:
106,326,14344,2,0,L|4:324,1,95.6250018239022,8|8,0:2|0:2,0:0:0:0:
2,308,14670,2,0,P|5:274|3:237,2,63.7500012159348,8|10|8,0:2|0:2|0:2,0:0:0:0:
128,365,15159,6,0,P|133:304|129:237,1,127.50000243187,10|10,0:2|0:2,0:0:0:0:
128,135,15648,2,0,B|146:135|169:146|169:146|232:118,1,95.6250018239022,10|8,0:2|0:2,0:0:0:0:
236,118,15975,2,0,P|246:142|247:191,1,63.7500012159348,8|10,0:2|0:2,0:0:0:0:
240,303,16301,1,10,0:2:0:0:
240,303,16382,1,8,0:2:0:0:
240,303,16464,6,0,B|297:280|302:338|376:300,1,127.50000243187,10|10,0:2|0:2,0:0:0:0:
444,243,16953,2,0,P|452:209|428:133,1,95.6250018239022,8|8,0:2|0:2,0:0:0:0:
426,131,17279,2,0,L|348:137,2,63.7500012159348,8|10|8,0:2|0:2|0:2,0:0:0:0:
497,6,17768,6,0,L|353:17,1,127.50000243187,10|10,0:2|0:2,0:0:0:0:
271,43,18257,2,0,P|239:87|240:152,1,95.6250018239022,10|8,0:2|0:2,0:0:0:0:
240,153,18583,2,0,B|214:137|214:137|161:140,2,63.7500012159348,10|10|10,0:2|0:2|0:2,0:0:0:0:
246,303,19072,6,0,B|202:276|202:276|115:281,1,127.50000243187,10|10,0:2|0:2,0:0:0:0:
49,347,19561,2,0,P|29:308|59:214,1,127.50000243187,8|8,0:2|0:2,0:0:0:0:
71,129,20051,1,10,0:2:0:0:
160,177,20214,1,8,0:2:0:0:
160,177,20295,1,8,0:2:0:0:
160,177,20377,6,0,L|281:172,1,95.6250018239022,10|8,0:2|0:2,0:0:0:0:
277,161,20703,2,0,P|310:180|314:251,1,95.6250018239022,10|8,0:2|0:2,0:0:0:0:
305,254,21029,1,10,0:2:0:0:
366,338,21192,1,8,0:2:0:0:
332,352,21273,1,8,0:2:0:0:
295,358,21355,1,10,0:2:0:0:
260,349,21436,1,8,0:2:0:0:
225,336,21518,1,10,0:2:0:0:
189,333,21599,1,8,0:2:0:0:
152,340,21681,5,4,0:1:0:0:
59,369,21844,1,8,0:2:0:0:
41,273,22007,1,0,0:0:0:0:
41,273,22089,1,0,0:0:0:0:
41,273,22170,1,8,0:2:0:0:
126,226,22333,2,0,L|213:237,1,75,2|8,0:2|0:2,0:0:0:0:
291,201,22659,2,0,P|302:161|292:109,1,75,0|8,0:0|0:2,0:0:0:0:
112,136,22985,6,0,L|199:147,1,75,2|8,0:2|0:2,0:0:0:0:
70,41,23311,1,0,0:0:0:0:
70,41,23393,1,0,0:0:0:0:
70,41,23475,2,0,P|32:64|3:112,2,75,8|2|8,0:2|0:2|0:2,0:0:0:0:
167,33,23964,1,0,0:0:0:0:
186,128,24127,1,8,0:2:0:0:
309,0,24290,6,0,L|296:88,1,75,6|8,0:2|0:2,0:0:0:0:
381,124,24616,1,0,0:0:0:0:
381,124,24697,1,0,0:0:0:0:
381,124,24779,1,8,0:2:0:0:
351,216,24942,2,0,L|364:304,1,75,2|8,0:2|0:2,0:0:0:0:
434,359,25268,2,0,L|516:359,1,75,0|8,0:0|0:2,0:0:0:0:
369,286,25594,6,0,B|330:277|330:277|287:286,1,75,6|8,0:2|0:2,0:0:0:0:
223,204,25920,6,0,B|251:183|251:183|291:175,1,75,2|8,0:2|0:2,0:0:0:0:
173,107,26246,6,0,B|141:131|141:131|124:161,1,75,6|8,0:2|0:2,0:0:0:0:
135,258,26572,5,0,0:0:0:0:
185,341,26735,1,8,0:2:0:0:
31,384,26898,6,0,P|11:350|11:299,1,75,6|8,0:2|0:2,0:0:0:0:
43,224,27225,1,0,0:0:0:0:
43,224,27306,1,0,0:0:0:0:
43,224,27388,1,8,0:2:0:0:
24,128,27551,2,0,L|24:44,1,75,2|8,0:2|0:2,0:0:0:0:
116,22,27877,2,0,L|116:97,1,75,0|8,0:0|0:2,0:0:0:0:
229,130,28203,6,0,L|304:130,1,75,2|8,0:2|0:2,0:0:0:0:
233,27,28529,1,0,0:0:0:0:
233,27,28610,1,0,0:0:0:0:
233,27,28692,2,0,L|323:27,2,75,8|2|8,0:2|0:2|0:2,0:0:0:0:
229,130,29181,1,0,0:0:0:0:
326,130,29344,1,8,0:2:0:0:
495,251,29507,6,0,L|406:260,1,75,6|8,0:2|0:2,0:0:0:0:
339,314,29833,1,0,0:0:0:0:
339,314,29915,1,0,0:0:0:0:
339,314,29996,1,8,0:2:0:0:
243,331,30159,2,0,L|154:322,1,75,2|8,0:2|0:2,0:0:0:0:
74,347,30485,2,0,P|71:308|91:257,1,75,0|8,0:0|0:2,0:0:0:0:
166,228,30811,6,0,L|255:237,1,75,6|8,0:2|0:2,0:0:0:0:
263,140,31138,6,0,L|174:131,1,75,2|8,0:2|0:2,0:0:0:0:
210,36,31464,6,0,L|285:44,1,75,6|8,0:2|0:2,0:0:0:0:
376,96,31790,6,0,P|370:113|374:150,3,37.5,8|8|8|8,0:2|0:2|0:2|0:2,0:0:0:0:
397,79,32116,6,0,L|485:82,1,67.4999979400635,4|8,0:1|0:2,0:0:0:0:
498,162,32442,1,2,0:2:0:0:
498,162,32523,1,0,0:0:0:0:
498,162,32605,2,0,P|481:203|480:290,1,101.249996910095,10|0,0:2|0:0,0:0:0:0:
490,286,32931,2,0,L|415:287,1,67.4999979400635,10|0,0:2|0:0,0:0:0:0:
365,353,33257,1,10,0:2:0:0:
318,227,33420,6,0,L|222:231,1,67.4999979400635,2|10,0:2|0:2,0:0:0:0:
184,287,33746,1,0,0:0:0:0:
184,287,33828,1,0,0:0:0:0:
184,287,33909,2,0,P|165:246|184:170,1,101.249996910095,10|0,0:2|0:0,0:0:0:0:
168,169,34235,2,0,P|128:171|94:204,1,67.4999979400635,10|0,0:2|0:0,0:0:0:0:
53,115,34561,1,8,0:2:0:0:
178,59,34725,6,0,P|218:61|252:94,1,67.4999979400635,2|10,0:2|0:2,0:0:0:0:
289,148,35051,1,0,0:0:0:0:
289,148,35132,1,0,0:0:0:0:
289,148,35214,2,0,L|277:240,1,67.4999979400635,10|2,0:2|0:2,0:0:0:0:
358,254,35540,2,0,L|370:162,1,67.4999979400635,8|2,0:2|0:2,0:0:0:0:
386,94,35866,1,8,0:2:0:0:
464,297,36029,6,0,P|415:276|319:344,1,168.749994850159,6|0,0:2|0:0,0:0:0:0:
322,357,36518,2,0,L|247:366,1,67.4999979400635,8|2,0:2|0:2,0:0:0:0:
180,237,36844,2,0,L|255:246,1,67.4999979400635,8|0,0:2|0:0,0:0:0:0:
131,357,37170,1,8,0:2:0:0:
47,231,37333,6,0,L|42:147,1,67.4999979400635,6|10,0:2|0:2,0:0:0:0:
70,80,37659,1,0,0:0:0:0:
70,80,37741,1,0,0:0:0:0:
70,80,37822,2,0,P|123:70|176:109,1,101.249996910095,10|0,0:2|0:0,0:0:0:0:
174,109,38148,2,0,L|167:190,1,67.4999979400635,10|0,0:2|0:0,0:0:0:0:
218,248,38475,1,10,0:2:0:0:
300,145,38638,6,0,L|293:226,1,67.4999979400635,2|10,0:2|0:2,0:0:0:0:
301,299,38964,1,0,0:0:0:0:
301,299,39045,1,0,0:0:0:0:
301,299,39127,2,0,B|335:303|355:288|355:288|417:312,1,101.249996910095,10|0,0:2|0:0,0:0:0:0:
415,319,39453,2,0,P|401:268|406:237,1,67.4999979400635,10|2,0:2|0:2,0:0:0:0:
478,210,39779,1,8,0:2:0:0:
406,82,39942,6,0,L|321:81,1,67.4999979400635,2|10,0:2|0:2,0:0:0:0:
264,128,40268,1,0,0:0:0:0:
264,128,40350,1,0,0:0:0:0:
264,128,40431,1,10,0:2:0:0:
310,202,40594,2,0,B|319:238|319:238|306:287,1,67.4999979400635,2|8,0:2|0:2,0:0:0:0:
223,267,40920,2,0,B|215:237|215:237|224:201,1,67.4999979400635,2|8,0:2|0:2,0:0:0:0:
421,352,41246,6,0,B|362:335|362:335|325:361|325:361|239:359,1,168.749994850159,6|0,0:2|0:0,0:0:0:0:
240,360,41735,2,0,L|157:359,1,67.4999979400635,8|2,0:2|0:2,0:0:0:0:
132,281,42061,1,8,0:2:0:0:
52,344,42225,1,8,0:2:0:0:
38,317,42306,1,8,0:2:0:0:
32,286,42388,1,8,0:2:0:0:
34,255,42469,1,8,0:2:0:0:
45,223,42551,5,6,0:2:0:0:
137,192,42714,1,10,0:2:0:0:
94,104,42877,1,0,0:0:0:0:
94,104,42958,1,0,0:0:0:0:
94,104,43040,2,0,P|146:90|210:125,1,112.5,10|0,0:2|0:0,0:0:0:0:
220,128,43366,2,0,L|222:41,1,75,10|2,0:2|0:2,0:0:0:0:
308,8,43692,1,10,0:2:0:0:
402,138,43855,6,0,P|369:160|322:170,1,75,2|10,0:2|0:2,0:0:0:0:
275,246,44181,1,0,0:0:0:0:
275,246,44263,1,0,0:0:0:0:
275,246,44344,2,0,L|201:226,2,75,10|0|10,0:2|0:0|0:2,0:0:0:0:
331,334,44833,2,0,P|389:322|459:350,1,112.5,2|0,0:2|0:0,0:0:0:0:
455,349,45159,6,0,L|445:270,1,75,2|8,0:2|0:2,0:0:0:0:
367,154,45485,2,0,L|357:228,1,75,2|8,0:2|0:2,0:0:0:0:
259,344,45811,2,0,P|296:348|331:334,1,75,2|8,0:2|0:2,0:0:0:0:
221,253,46138,1,2,0:2:0:0:
221,253,46301,1,8,0:2:0:0:
102,376,46464,6,0,B|110:300|110:300|93:263|93:263|103:182,1,187.5,6|0,0:2|0:0,0:0:0:0:
115,167,46953,2,0,P|149:153|208:169,1,75,8|6,0:2|0:2,0:0:0:0:
293,265,47279,2,0,P|259:251|200:267,1,75,8|0,0:2|0:0,0:0:0:0:
251,347,47605,1,8,0:2:0:0:
349,193,47768,6,0,L|344:115,1,75,6|10,0:2|0:2,0:0:0:0:
340,19,48094,1,0,0:0:0:0:
340,19,48176,1,0,0:0:0:0:
340,19,48257,2,0,P|285:37|254:102,1,112.5,10|0,0:2|0:0,0:0:0:0:
242,92,48583,2,0,L|141:81,1,75,10|2,0:2|0:2,0:0:0:0:
108,161,48909,1,10,0:2:0:0:
28,21,49072,6,0,L|129:10,1,75,2|10,0:2|0:2,0:0:0:0:
199,5,49398,1,0,0:0:0:0:
199,5,49480,1,0,0:0:0:0:
199,5,49561,2,0,P|209:33|200:90,2,75,10|0|10,0:2|0:0|0:2,0:0:0:0:
296,11,50051,1,2,0:2:0:0:
392,21,50214,1,10,0:2:0:0:
200,96,50377,6,0,L|301:107,1,75,2|8,0:2|0:2,0:0:0:0:
341,174,50703,2,0,P|347:206|331:261,1,75,2|8,0:2|0:2,0:0:0:0:
179,191,51029,2,0,L|280:202,1,75,2|8,0:2|0:2,0:0:0:0:
88,221,51355,2,0,P|82:189|98:134,1,75,2|8,0:2|0:2,0:0:0:0:
161,291,51681,6,0,L|152:383,1,75,2|8,0:2|0:2,0:0:0:0:
250,378,52007,2,0,L|259:286,1,75,2|8,0:2|0:2,0:0:0:0:
332,241,52333,2,0,P|367:229|419:245,2,75,2|8|2,0:2|0:2|0:2,0:0:0:0:
371,330,52822,1,8,0:2:0:0:
488,207,52985,6,0,L|484:129,1,75,4|8,0:2|0:2,0:0:0:0:
419,59,53311,1,2,0:2:0:0:
419,59,53393,1,0,0:0:0:0:
419,59,53475,2,0,P|377:37|343:37,1,75,8|0,0:2|0:0,0:0:0:0:
278,158,53801,2,0,P|320:136|354:136,1,75,8|0,0:2|0:0,0:0:0:0:
341,232,54127,1,8,0:2:0:0:
197,119,54290,6,0,L|226:34,1,75,0|8,0:0|0:2,0:0:0:0:
106,93,54616,2,0,P|104:143|130:187,1,75,2|8,0:2|0:2,0:0:0:0:
93,254,54942,2,0,P|60:237|37:208,1,75,2|8,0:2|0:2,0:0:0:0:
69,338,55268,2,0,P|119:340|163:314,1,75,2|8,0:2|0:2,0:0:0:0:
196,250,55594,5,2,0:2:0:0:
276,325,55757,1,8,0:2:0:0:
291,199,55920,1,0,0:0:0:0:
291,199,56002,1,0,0:0:0:0:
291,199,56083,1,8,0:2:0:0:
382,294,56246,6,0,P|385:329|374:382,1,75,2|8,0:2|0:2,0:0:0:0:
490,248,56572,2,0,P|483:211|486:173,1,75,0|8,0:0|0:2,0:0:0:0:
350,85,56898,5,6,0:2:0:0:
318,90,57225,5,6,0:2:0:0:
282,113,57551,5,6,0:2:0:0:
262,145,57877,5,6,0:2:0:0:
255,189,58203,5,6,0:2:0:0:
255,189,59507,5,6,0:2:0:0:
255,189,60811,6,0,P|231:224|224:257,1,56.2500021457673,6|2,0:2|0:2,0:0:0:0:
146,288,61138,2,0,L|71:295,1,56.2500021457673,0|2,0:0|0:2,0:0:0:0:
39,204,61464,1,2,0:2:0:0:
39,204,61627,2,0,L|114:211,2,56.2500021457673,2|2|2,0:2|0:2|0:2,0:0:0:0:
96,95,62116,6,0,P|86:77|86:51,3,28.1250010728836,10|8|8|8,0:2|0:2|0:2|0:2,0:0:0:0:
175,140,62442,2,0,P|165:158|165:184,3,28.1250010728836,10|8|8|8,0:2|0:2|0:2|0:2,0:0:0:0:
175,53,62768,5,10,0:2:0:0:
202,55,62849,1,8,0:2:0:0:
229,65,62931,1,8,0:2:0:0:
251,82,63012,1,8,0:2:0:0:
271,100,63094,5,10,0:2:0:0:
313,121,63175,1,8,0:2:0:0:
360,122,63257,1,8,0:2:0:0:
403,104,63338,1,8,0:2:0:0:
435,69,63420,6,0,L|424:182,1,86.2500016450882,4|10,0:1|0:2,0:0:0:0:
324,206,63746,1,0,0:0:0:0:
324,206,63828,1,0,0:0:0:0:
324,206,63909,2,0,L|312:120,1,86.2500016450882,10|2,0:2|0:2,0:0:0:0:
273,15,64235,2,0,P|227:48|215:99,1,86.2500016450882,8|0,0:2|0:0,0:0:0:0:
215,186,64561,1,8,0:2:0:0:
109,48,64725,6,0,L|120:133,1,86.2500016450882,6|10,0:2|0:2,0:0:0:0:
65,231,65051,1,0,0:0:0:0:
65,231,65132,1,0,0:0:0:0:
65,231,65214,1,10,0:2:0:0:
127,324,65377,2,0,B|207:274|208:365|311:323,1,172.500003290176,2|0,0:2|0:0,0:0:0:0:
386,270,65866,1,8,0:2:0:0:
250,165,66029,6,0,L|260:265,1,86.2500016450882,6|8,0:2|0:2,0:0:0:0:
381,100,66355,2,0,L|347:194,1,86.2500016450882,2|8,0:2|0:2,0:0:0:0:
201,86,66681,2,0,P|248:68|294:82,1,86.2500016450882,2|8,0:2|0:2,0:0:0:0:
433,170,67007,2,0,P|386:188|340:174,1,86.2500016450882,2|8,0:2|0:2,0:0:0:0:
258,250,67333,6,0,P|211:232|165:246,1,86.2500016450882,6|8,0:2|0:2,0:0:0:0:
82,298,67659,2,0,L|97:388,1,86.2500016450882,2|8,0:2|0:2,0:0:0:0:
30,167,67985,2,0,P|77:149|123:163,1,86.2500016450882,6|8,0:2|0:2,0:0:0:0:
206,96,68311,1,6,0:2:0:0:
206,96,68475,1,8,0:2:0:0:
22,62,68638,6,0,P|69:44|115:58,1,86.2500016450882,4|10,0:1|0:2,0:0:0:0:
206,96,68964,1,0,0:0:0:0:
206,96,69045,1,0,0:0:0:0:
206,96,69127,2,0,L|300:73,1,86.2500016450882,10|2,0:2|0:2,0:0:0:0:
393,32,69453,2,0,P|405:73|376:135,1,86.2500016450882,8|0,0:2|0:0,0:0:0:0:
302,178,69779,1,8,0:2:0:0:
471,267,69942,6,0,L|387:287,1,86.2500016450882,6|10,0:2|0:2,0:0:0:0:
296,353,70268,1,0,0:0:0:0:
296,353,70350,1,0,0:0:0:0:
296,353,70431,1,10,0:2:0:0:
225,265,70594,2,0,B|145:315|144:224|41:266,1,172.500003290176,2|0,0:2|0:0,0:0:0:0:
98,364,71083,1,8,0:2:0:0:
180,177,71246,5,6,0:2:0:0:
67,111,71409,2,0,P|44:182|55:240,1,129.375002467632,10|0,0:2|0:0,0:0:0:0:
60,259,71735,2,0,P|94:256|154:277,1,86.2500016450882,10|2,0:2|0:2,0:0:0:0:
263,165,72061,2,0,P|229:162|169:183,1,86.2500016450882,10|0,0:2|0:0,0:0:0:0:
237,273,72388,1,10,0:2:0:0:
351,79,72551,6,0,P|348:126|354:185,1,86.2500016450882,6|8,0:2|0:2,0:0:0:0:
358,279,72877,1,2,0:2:0:0:
358,279,73040,2,0,P|360:322|342:365,2,86.2500016450882,8|6|10,0:2|0:2|0:2,0:0:0:0:
248,298,73529,2,0,B|195:280|195:280|91:322,1,129.375002467632,6|0,0:2|0:0,0:0:0:0:
106,324,73855,6,0,L|119:221,1,86.2500016450882,4|10,0:1|0:2,0:0:0:0:
73,134,74181,1,0,0:0:0:0:
73,134,74263,1,0,0:0:0:0:
73,134,74344,1,10,0:2:0:0:
148,51,74507,2,0,P|215:83|253:182,1,172.500003290176,2|0,0:2|0:0,0:0:0:0:
248,281,74996,1,10,0:2:0:0:
379,133,75159,6,0,L|368:240,1,86.2500016450882,6|10,0:2|0:2,0:0:0:0:
355,329,75485,1,0,0:0:0:0:
355,329,75567,1,0,0:0:0:0:
355,329,75648,1,10,0:2:0:0:
465,312,75811,2,0,B|472:245|472:245|458:202|458:202|464:121,1,172.500003290176,2|0,0:2|0:0,0:0:0:0:
468,29,76301,1,8,0:2:0:0:
355,42,76464,6,0,P|307:69|299:119,1,86.2500016450882,6|8,0:2|0:2,0:0:0:0:
232,187,76790,2,0,L|138:185,1,86.2500016450882,2|8,0:2|0:2,0:0:0:0:
82,71,77116,2,0,L|176:69,1,86.2500016450882,2|8,0:2|0:2,0:0:0:0:
125,272,77442,2,0,P|77:245|69:195,1,86.2500016450882,2|8,0:2|0:2,0:0:0:0:
3,22,77768,5,6,0:2:0:0:
3,22,77931,2,0,L|5:118,1,86.2500016450882,8|2,0:2|0:2,0:0:0:0:
145,185,78257,1,8,0:2:0:0:
145,185,78420,2,0,L|142:80,1,86.2500016450882,6|8,0:2|0:2,0:0:0:0:
230,29,78746,1,6,0:2:0:0:
272,125,78909,1,8,0:2:0:0:
352,54,79072,5,4,3:1:0:0:
366,57,79725,5,0,0:0:0:0:
381,62,80377,5,2,0:2:0:0:
398,66,81029,6,0,P|405:84|402:129,2,37.5000014305115,8|8|8,3:2|3:2|3:2,0:0:0:0:
332,137,81355,2,0,P|325:155|328:200,2,37.5000014305115,8|8|8,3:0|3:0|3:0,0:0:0:0:
390,235,81681,5,4,3:1:0:0:
388,251,82333,5,0,0:0:0:0:
385,265,82985,5,10,3:2:0:0:
346,295,83094,1,8,3:2:0:0:
297,302,83203,1,8,3:2:0:0:
252,283,83311,1,8,3:2:0:0:
225,241,83420,1,8,3:2:0:0:
222,192,83529,1,8,3:2:0:0:
250,152,83638,6,0,L|257:79,2,37.5000014305115,10|8|8,3:0|3:0|3:0,0:0:0:0:
170,108,83964,2,0,L|177:35,2,37.5000014305115,8|8|8,3:0|3:0|3:0,0:0:0:0:
112,188,84290,5,4,3:1:0:0:
256,192,84371,12,0,89507,0:0:0:0:
