osu file format v14

[General]
AudioFilename: audio.mp3
AudioLeadIn: 0
PreviewTime: 58203
Countdown: 0
SampleSet: None
StackLeniency: 0.5
Mode: 0
LetterboxInBreaks: 0
WidescreenStoryboard: 1

[Editor]
DistanceSpacing: 1.4
BeatDivisor: 4
GridSize: 4
TimelineZoom: 1.650002

[Metadata]
Title:Papa, Ne Pey!
TitleUnicode:Папа, Не Пей!
Artist:PORNOFIL'MY
ArtistUnicode:ПОРНОФИЛЬМЫ
Creator:-Mikan
Version:Easy
Source:
Tags:FCL adioni unranked_mapper unranked mapper DendyHere DendyMudak TheMefisto wenect Frakturehawkens Gordon123 PantyDev Русский Russian Rock Alternative Punk
BeatmapID:1959808
BeatmapSetID:936950

[Difficulty]
HPDrainRate:1
CircleSize:2.5
OverallDifficulty:1.5
ApproachRate:4
SliderMultiplier:1
SliderTickRate:1

[Events]
//Background and Video events
0,0,"bg.jpg",0,0
//Break Periods
//Storyboard Layer 0 (Background)
//Storyboard Layer 1 (Fail)
//Storyboard Layer 2 (Pass)
//Storyboard Layer 3 (Foreground)
//Storyboard Layer 4 (Overlay)
//Storyboard Sound Samples

[TimingPoints]
812,326.086956521739,4,2,1,52,1,0
11246,-100,4,3,1,72,0,0
21681,-100,4,3,1,82,0,0
32116,-100,4,3,1,62,0,0
42551,-100,4,3,1,72,0,0
52985,-100,4,3,1,62,0,0
56898,-100,4,3,1,82,0,0
58203,-100,4,2,1,52,0,0
62116,-100,4,3,1,72,0,0
63420,-100,4,3,1,82,0,1
79072,-100,4,2,1,62,0,0
81355,-100,4,2,1,42,0,0
81681,-100,4,2,1,52,0,0
83638,-100,4,2,1,32,0,0
84290,-100,4,3,1,42,0,0
85594,-133.333333333333,4,2,2,50,0,0
86898,-133.333333333333,4,2,2,40,0,0
88203,-133.333333333333,4,2,2,30,0,0
88855,-133.333333333333,4,2,2,20,0,0
89507,-133.333333333333,4,2,1,5,0,0

[Colours]
Combo1 : 174,70,102
Combo2 : 92,92,132
Combo3 : 142,142,192

[HitObjects]
326,340,11246,6,0,B|275:347|275:347|240:329|240:329|171:341,2,150,10|8|10,0:2|0:2|0:2,0:0:0:0:
288,246,12551,1,10,0:2:0:0:
351,169,12877,2,0,P|341:86|323:28,2,100,10|10|10,0:2|0:2|0:2,0:0:0:0:
288,246,13855,6,0,P|201:213|186:125,1,150,10|8,0:2|0:2,0:0:0:0:
99,39,14833,2,0,P|71:109|25:127,1,100,10|10,0:2|0:2,0:0:0:0:
13,212,15485,2,0,P|81:204|153:203,1,100,10|10,0:2|0:2,0:0:0:0:
154,293,16138,1,10,0:2:0:0:
246,250,16464,6,0,B|243:189|243:189|230:165|230:165|228:99,2,150,10|8|10,0:2|0:2|0:2,0:0:0:0:
316,320,17768,1,10,0:2:0:0:
408,283,18094,2,0,L|414:167,1,100,10|10,0:2|0:2,0:0:0:0:
420,83,18746,1,10,0:2:0:0:
338,24,19072,6,0,B|298:14|239:38|285:58|221:73|168:48,1,150,10|8,0:2|0:2,0:0:0:0:
49,33,20051,1,10,0:2:0:0:
91,123,20377,2,0,P|78:199|75:245,2,100,10|10|10,0:2|0:2|0:2,0:0:0:0:
248,246,21681,6,0,B|310:232|370:252|318:280|391:291|454:281,1,200,4|2,0:1|0:2,0:0:0:0:
498,203,22659,1,0,0:0:0:0:
457,111,22985,2,0,P|411:149|402:197,1,100,2|0,0:2|0:0,0:0:0:0:
307,152,23638,2,0,P|277:100|286:52,1,100,2|0,0:2|0:0,0:0:0:0:
192,18,24290,6,0,P|131:25|79:164,1,200,6|2,0:2|0:2,0:0:0:0:
137,212,25268,1,0,0:0:0:0:
105,306,25594,2,0,L|214:314,1,100,6|2,0:2|0:2,0:0:0:0:
288,367,26246,2,0,L|397:359,1,100,6|0,0:2|0:0,0:0:0:0:
463,294,26898,6,0,B|424:173|519:231|468:90,1,200,6|2,0:2|0:2,0:0:0:0:
391,43,27877,1,0,0:0:0:0:
327,119,28203,2,0,B|290:137|290:137|197:120,1,100,2|0,0:2|0:0,0:0:0:0:
177,42,28855,2,0,B|140:24|140:24|47:41,1,100,2|0,0:2|0:0,0:0:0:0:
25,117,29507,6,0,P|41:183|58:318,1,200,6|2,0:2|0:2,0:0:0:0:
143,365,30485,1,0,0:0:0:0:
215,296,30811,2,0,P|223:238|239:184,1,100,6|2,0:2|0:2,0:0:0:0:
148,146,31464,2,0,P|145:76|134:22,1,100,6|8,0:2|0:2,0:0:0:0:
233,11,32116,5,4,0:1:0:0:
461,338,33420,1,2,0:2:0:0:
60,338,34725,1,2,0:2:0:0:
336,48,36029,2,0,P|327:118|313:269,1,200,6|2,0:2|0:2,0:0:0:0:
254,327,37007,1,0,0:0:0:0:
162,286,37333,5,6,0:2:0:0:
479,41,38638,1,2,0:2:0:0:
79,41,39942,1,2,0:2:0:0:
340,343,41246,2,0,P|326:260|289:129,1,200,6|2,0:2|0:2,0:0:0:0:
341,59,42225,1,8,0:2:0:0:
247,23,42551,6,0,B|192:12|117:42|182:66|118:98|35:64,1,200,6|0,0:2|0:0,0:0:0:0:
29,166,43529,2,0,P|44:222|47:280,1,100,2|2,0:2|0:2,0:0:0:0:
119,333,44181,1,0,0:0:0:0:
204,281,44507,2,0,P|212:220|230:171,1,100,0|2,0:0|0:2,0:0:0:0:
293,112,45159,6,0,B|363:106|363:106|404:140|404:140|490:133,2,200,2|2|6,0:2|0:2|0:2,0:0:0:0:
215,48,46790,1,0,0:0:0:0:
153,127,47116,2,0,L|26:118,1,100,6|0,0:2|0:0,0:0:0:0:
10,210,47768,6,0,P|38:282|168:262,1,200,6|0,0:2|0:0,0:0:0:0:
221,216,48746,1,2,0:2:0:0:
288,289,49072,2,0,P|381:297|426:214,1,200,2|0,0:2|0:0,0:0:0:0:
367,133,50051,1,2,0:2:0:0:
441,66,50377,6,0,B|403:34|403:34|308:36,1,100,2|2,0:2|0:2,0:0:0:0:
272,95,51029,2,0,B|234:127|234:127|139:125,1,100,2|2,0:2|0:2,0:0:0:0:
100,70,51681,2,0,P|93:143|90:194,1,100,2|2,0:2|0:2,0:0:0:0:
10,227,52333,2,0,P|17:300|20:351,1,100,2|2,0:2|0:2,0:0:0:0:
110,366,52985,6,0,B|317:382|172:302|411:313,1,300,4|0,0:2|0:0,0:0:0:0:
477,371,54290,1,0,0:0:0:0:
497,273,54616,2,0,B|469:242|469:242|479:167,1,100,2|2,0:2|0:2,0:0:0:0:
489,85,55268,1,2,0:2:0:0:
256,192,55594,12,2,56898,0:2:0:0:
61,58,58203,5,6,0:2:0:0:
460,56,59507,1,6,0:2:0:0:
100,231,60811,1,6,0:2:0:0:
496,285,62116,6,0,B|450:271|369:295|438:328|356:346|272:331,1,200,10|10,0:2|0:2,0:0:0:0:
241,263,63094,1,10,0:2:0:0:
153,312,63420,6,0,B|121:258|145:178|172:221|190:155|160:84,1,200,4|2,0:1|0:2,0:0:0:0:
93,58,64398,1,0,0:0:0:0:
184,16,64725,2,0,P|255:20|299:28,1,100,6|0,0:2|0:0,0:0:0:0:
332,111,65377,2,0,P|392:108|448:95,1,100,2|0,0:2|0:0,0:0:0:0:
489,181,66029,6,0,P|480:237|467:381,2,200,6|2|6,0:2|0:2|0:2,0:0:0:0:
431,100,67659,1,2,0:2:0:0:
358,169,67985,2,0,P|285:161|235:151,1,100,6|6,0:2|0:2,0:0:0:0:
163,124,68638,6,0,B|167:191|167:191|198:236|198:236|203:336,1,200,4|2,0:1|0:2,0:0:0:0:
115,365,69616,1,0,0:0:0:0:
38,300,69942,2,0,L|47:181,2,100,6|0|2,0:2|0:0|0:2,0:0:0:0:
115,365,70920,1,0,0:0:0:0:
201,314,71246,6,0,B|269:299|340:320|249:362|361:368|430:360,1,200,6|2,0:2|0:2,0:0:0:0:
472,311,72225,1,0,0:0:0:0:
398,243,72551,2,0,P|365:198|387:137,1,100,6|2,0:2|0:2,0:0:0:0:
463,119,73203,2,0,P|496:74|474:13,1,100,6|6,0:2|0:2,0:0:0:0:
391,15,73855,6,0,P|316:16|153:16,1,200,4|2,0:1|0:2,0:0:0:0:
99,55,74833,1,0,0:0:0:0:
131,149,75159,2,0,P|206:150|369:150,1,200,6|2,0:2|0:2,0:0:0:0:
410,210,76138,1,0,0:0:0:0:
328,268,76464,6,0,P|289:306|279:364,1,100,6|2,0:2|0:2,0:0:0:0:
178,353,77116,2,0,P|159:301|86:273,1,100,2|2,0:2|0:2,0:0:0:0:
175,191,77768,2,0,P|239:202|301:171,1,100,6|2,0:2|0:2,0:0:0:0:
339,117,78420,6,0,P|392:171|463:82,1,200,6|4,0:2|3:1,0:0:0:0:
277,41,79725,1,0,0:0:0:0:
84,96,80377,1,2,0:2:0:0:
92,295,81029,6,0,P|175:277|228:282,1,100,8|8,3:2|3:0,0:0:0:0:
280,317,81681,1,4,3:1:0:0:
352,130,82333,1,0,0:0:0:0:
160,80,82985,6,0,P|180:153|185:312,2,200,10|10|4,3:2|3:0|3:1,0:0:0:0:
256,192,84371,12,0,89507,0:0:0:0:
