osu file format v14

[General]
AudioFilename: audio.mp3
AudioLeadIn: 0
PreviewTime: -1
Countdown: 0
SampleSet: None
StackLeniency: 0.7
Mode: 0
LetterboxInBreaks: 0
WidescreenStoryboard: 0
SamplesMatchPlaybackRate: 1

[Editor]
Bookmarks: 2498,2598,4396,25328,25480,25580
DistanceSpacing: 1.2
BeatDivisor: 4
GridSize: 4
TimelineZoom: 1

[Metadata]
Title:The Day Short ver.
TitleUnicode:The Day Short ver.
Artist:Porno Graffitti
ArtistUnicode:Porno Graffitti
Creator:Togepissed
Version:Insane
Source:youtube mp3 file
Tags:Boku no Hero Academia
BeatmapID:959076
BeatmapSetID:446589

[Difficulty]
HPDrainRate:8
CircleSize:4
OverallDifficulty:4
ApproachRate:9
SliderMultiplier:1.39999990463257
SliderTickRate:1

[Events]
//Background and Video events
//Break Periods
//Storyboard Layer 0 (Background)
//Storyboard Layer 1 (Fail)
//Storyboard Layer 2 (Pass)
//Storyboard Layer 3 (Foreground)
//Storyboard Sound Samples

[TimingPoints]
0,332.174285714286,4,1,0,90,1,0

[HitObjects]
156,88,0,6,0,L|252:192,1,139.999990463257
250,190,332,2,0,L|376:64,2,174.999988079071
144,280,1328,1,0,0:0:0:0:
352,264,1826,1,0,0:0:0:0:
152,136,2325,5,0,0:0:0:0:
352,264,2491,1,0,0:0:0:0:
352,264,2740,1,0,0:0:0:0:
352,264,2906,1,0,0:0:0:0:
192,156,3238,2,0,B|268:152|264:152,1,69.9999952316285
360,100,3736,5,0,0:0:0:0:
192,156,3903,1,0,0:0:0:0:
428,72,4235,2,0,L|344:96,1,69.9999952316285
192,156,4567,1,0,0:0:0:0:
408,244,5065,2,0,P|360:252|352:308,1,104.999992847443
144,288,5480,1,0,0:0:0:0:
148,104,5813,1,0,0:0:0:0:
368,104,6311,5,0,0:0:0:0:
376,304,6477,1,0,0:0:0:0:
204,200,6643,1,0,0:0:0:0:
368,104,6809,2,0,L|372:192,1,69.9999952316285
376,304,7141,1,0,0:0:0:0:
140,196,7473,6,0,B|200:160|208:156|232:200|236:196|268:192,1,139.999990463257
376,92,7972,1,0,0:0:0:0:
236,344,8138,1,0,0:0:0:0:
132,88,8304,2,0,L|160:168,1,69.9999952316285
352,192,8636,5,0,0:0:0:0:
352,192,8802,1,0,0:0:0:0:
128,188,8968,1,0,0:0:0:0:
312,68,9217,1,0,0:0:0:0:
312,68,9383,1,0,0:0:0:0:
240,292,9550,1,0,0:0:0:0:
168,72,9716,5,0,0:0:0:0:
340,236,9882,1,0,0:0:0:0:
148,224,10048,1,0,0:0:0:0:
324,80,10214,2,0,B|328:172|328:168,1,69.9999952316285
148,88,10546,1,0,0:0:0:0:
328,232,10712,1,0,0:0:0:0:
156,240,10878,5,0,0:0:0:0:
368,48,11127,1,0,0:0:0:0:
244,328,11293,1,0,0:0:0:0:
120,40,11460,1,0,0:0:0:0:
120,40,11792,2,0,P|196:160|256:184,1,209.999985694886
312,76,12622,5,0,0:0:0:0:
92,196,12788,1,0,0:0:0:0:
324,284,13120,2,0,L|240:284,1,69.9999952316285
184,76,13619,1,0,0:0:0:0:
200,296,13951,5,0,0:0:0:0:
380,164,14117,2,0,L|284:236,1,104.999992847443
200,296,14532,2,0,L|304:216,1,104.999992847443
364,152,14947,1,0,0:0:0:0:
160,116,15363,2,0,P|112:188|116:208,2,104.999992847443
344,196,16027,1,0,0:0:0:0:
140,196,16193,1,0,0:0:0:0:
236,72,16525,5,0,0:0:0:0:
200,312,16691,2,0,L|272:312,1,69.9999952316285
280,312,16940,1,0,0:0:0:0:
312,312,17023,1,0,0:0:0:0:
308,188,17190,2,0,L|176:188,2,104.999992847443
256,64,17854,6,0,B|216:100|212:100|208:100|208:100|256:120|256:120|220:160|220:160|228:196,1,174.999988079071
348,300,18435,1,0,0:0:0:0:
348,300,18601,1,0,0:0:0:0:
168,100,18767,2,0,L|168:184,1,69.9999952316285
340,92,19100,1,0,0:0:0:0:
92,292,19266,2,0,L|192:292,1,69.9999952316285
228,64,19598,5,0,0:0:0:0:
352,308,19764,1,0,0:0:0:0:
120,300,19930,1,0,0:0:0:0:
376,104,20096,1,0,0:0:0:0:
248,312,20262,1,0,0:0:0:0:
116,96,20428,1,0,0:0:0:0:
376,104,20594,1,0,0:0:0:0:
376,104,20843,5,0,0:0:0:0:
248,312,21010,1,0,0:0:0:0:
116,96,21176,2,0,L|176:168,2,69.9999952316285
72,192,21674,1,0,0:0:0:0:
80,196,21840,1,0,0:0:0:0:
96,196,22172,5,0,0:0:0:0:
124,200,22255,1,0,0:0:0:0:
152,192,22338,1,0,0:0:0:0:
184,176,22421,1,0,0:0:0:0:
232,168,22504,1,0,0:0:0:0:
272,192,22587,1,0,0:0:0:0:
304,208,22670,1,0,0:0:0:0:
232,72,22836,6,0,L|232:168,1,69.9999952316285
92,224,23169,1,0,0:0:0:0:
112,248,23252,1,0,0:0:0:0:
136,272,23335,1,0,0:0:0:0:
168,288,23418,1,0,0:0:0:0:
204,296,23501,1,0,0:0:0:0:
244,296,23584,1,0,0:0:0:0:
280,276,23667,5,0,0:0:0:0:
312,244,23750,1,0,0:0:0:0:
336,216,23833,1,0,0:0:0:0:
344,176,23916,1,0,0:0:0:0:
340,140,23999,1,0,0:0:0:0:
300,100,24082,1,0,0:0:0:0:
264,72,24165,5,0,0:0:0:0:
224,56,24248,1,0,0:0:0:0:
192,56,24331,1,0,0:0:0:0:
152,64,24414,1,0,0:0:0:0:
120,80,24497,1,0,0:0:0:0:
104,116,24580,1,0,0:0:0:0:
96,156,24663,5,0,0:0:0:0:
96,192,24746,1,0,0:0:0:0:
108,228,24830,1,0,0:0:0:0:
128,260,24913,1,0,0:0:0:0:
168,260,24996,1,0,0:0:0:0:
196,232,25079,1,0,0:0:0:0:
208,200,25162,1,0,0:0:0:0:
224,168,25245,1,0,0:0:0:0:
236,140,25328,1,0,0:0:0:0:
124,92,25660,6,0,L|168:152,3,69.9999952316285
165,148,26158,2,0,L|219:199,3,69.9999952316285
215,196,26656,2,0,L|288:196,3,69.9999952316285
285,196,27155,2,0,L|360:196,3,69.9999952316285
355,196,27653,2,0,P|424:216|436:240,1,69.9999952316285
144,76,27985,1,0,0:0:0:0:
148,284,28151,1,0,0:0:0:0:
256,192,28317,12,0,29563,0:0:0:0:
