osu file format v14

[General]
AudioFilename: audio.mp3
AudioLeadIn: 0
PreviewTime: 12112
Countdown: 0
SampleSet: Soft
StackLeniency: 0.4
Mode: 0
LetterboxInBreaks: 0
WidescreenStoryboard: 0

[Editor]
Bookmarks: 47031,47838,54450,55096
DistanceSpacing: 1
BeatDivisor: 4
GridSize: 4
TimelineZoom: 1.2

[Metadata]
Title:THE DAY (TV Size)
TitleUnicode:THE DAY (TV Size)
Artist:Porno Graffitti
ArtistUnicode:Porno Graffitti
Creator:Sassbjorn
Version:Insane
Source:My Hero Academia
Tags:Boku No Hero Academia My Hero Academia anime opening
BeatmapID:1551743
BeatmapSetID:735040

[Difficulty]
HPDrainRate:5.8
CircleSize:3.8
OverallDifficulty:7
ApproachRate:8.7
SliderMultiplier:1.4
SliderTickRate:1

[Events]
//Background and Video events
0,0,"maxresdefault.jpg",0,0
//Break Periods
//Storyboard Layer 0 (Background)
//Storyboard Layer 1 (Fail)
//Storyboard Layer 2 (Pass)
//Storyboard Layer 3 (Foreground)
//Storyboard Sound Samples

[TimingPoints]
623,322.58064516129,4,2,0,58,1,0
623,-83.3333333333333,4,2,0,58,0,0
3203,-86.9565217391304,4,2,0,55,0,0
8364,-86.9565217391304,4,2,0,60,0,0
12235,-80,4,2,0,65,0,0
13526,-76.9230769230769,4,1,0,65,0,0
16106,-76.9230769230769,4,1,0,60,0,0
24977,-100,4,2,0,55,0,0
26429,-90.9090909090909,4,2,0,55,0,0
34655,-100,4,2,0,62,0,0
36752,-86.9565217391304,4,1,0,60,0,0
47074,-86.9565217391304,4,2,0,55,0,0
50300,-86.9565217391304,4,2,0,55,0,0
50622,-86.9565217391304,4,2,0,56,0,0
50945,-86.9565217391304,4,2,0,57,0,0
51268,-86.9565217391304,4,2,0,58,0,0
51590,-86.9565217391304,4,2,0,59,0,0
51913,-86.9565217391304,4,2,0,60,0,0
52235,-86.9565217391304,4,2,0,55,0,0
54816,-86.9565217391304,4,2,0,58,0,0
57397,-80,4,1,0,62,0,0
59977,-76.9230769230769,4,1,0,60,0,0
60461,-74.0740740740741,4,1,0,63,0,0
60945,-71.4285714285714,4,1,0,66,0,0
61429,-68.9655172413793,4,1,0,70,0,0
61913,-68.9655172413793,4,1,0,60,0,0
62558,-71.4285714285714,4,1,0,63,0,1
67719,-71.4285714285714,4,1,0,60,0,1
71590,-66.6666666666667,4,1,0,68,0,1
72235,-71.4285714285714,4,1,0,63,0,1
78042,-71.4285714285714,4,1,0,60,0,1
81913,-66.6666666666667,4,1,0,68,0,1
82558,-68.9655172413793,4,1,0,70,0,0
85784,-68.9655172413793,4,1,0,65,0,0

[Colours]
Combo1 : 97,10,151
Combo2 : 255,116,158
Combo3 : 26,40,101
Combo4 : 49,217,165
Combo5 : 255,126,0

[HitObjects]
108,133,461,5,0,3:0:0:0:
108,133,542,1,0,3:0:0:0:
108,133,623,2,2,L|191:124,1,83.9999974365235,0|0,1:1|0:1,0:1:0:0:
282,217,945,2,2,L|198:208,1,83.9999974365235,0|0,1:0|0:0,0:1:0:0:
185,43,1268,2,2,L|268:50,1,83.9999974365235,0|0,1:0|0:0,0:1:0:0:
126,273,1752,5,0,1:0:0:0:
77,80,2074,1,0,1:0:0:0:
269,133,2397,6,2,P|254:237|125:273,1,251.999992309571,0|2,1:0|0:0,0:1:0:0:
55,207,3042,1,0,0:0:0:0:
113,127,3203,6,0,P|148:196|123:277,1,161.000003070831
55,207,3687,2,0,L|214:186,1,161.000003070831,0|0,0:0|0:0,0:0:0:0:
428,98,4493,5,0,0:0:0:0:
338,126,4656,1,0,0:0:0:0:
407,190,4816,1,0,0:0:0:0:
359,34,4977,2,0,P|269:58|244:134,1,161.000003070831,0|0,0:0|0:0,0:0:0:0:
318,218,5461,1,0,0:0:0:0:
318,218,5784,5,0,0:0:0:0:
184,242,5945,1,0,0:0:0:0:
239,163,6106,1,0,0:0:0:0:
263,297,6268,2,0,P|233:326|188:339,1,80.5000015354157
50,266,6590,1,0,0:0:0:0:
184,242,6751,1,0,0:0:0:0:
294,84,7074,1,0,0:0:0:0:
162,82,7235,1,0,0:0:0:0:
162,82,7558,2,0,L|183:241,1,161.000003070831,0|0,0:0|0:0,0:0:0:0:
354,110,8203,1,0,0:0:0:0:
354,110,8364,2,0,P|301:45|227:46,1,161.000003070831,4|0,0:0|0:0,0:0:0:0:
260,136,8848,1,0,0:0:0:0:
329,204,9010,2,0,P|411:190|447:126,1,161.000003070831,0|0,0:0|0:0,0:0:0:0:
65,232,9655,6,0,P|132:197|215:235,1,161.000003070831
227,139,10139,1,0,0:0:0:0:
401,84,10300,1,0,0:0:0:0:
295,200,10462,1,0,0:0:0:0:
314,111,10623,1,0,0:0:0:0:
382,173,10784,1,0,0:0:0:0:
363,262,10945,6,0,L|442:251,1,80.5000015354157,0|0,0:0|0:0,0:0:0:0:
401,84,11268,1,0,0:0:0:0:
382,173,11429,1,0,0:0:0:0:
466,147,11590,1,0,0:0:0:0:
123,257,11913,1,0,0:0:0:0:
191,319,12074,1,0,0:0:0:0:
210,229,12235,6,0,L|201:137,1,87.5,0|0,1:0|0:0,0:0:0:0:
382,173,12558,2,0,L|374:260,1,87.5,4|0,1:1|0:0,0:0:0:0:
134,247,12881,1,4,0:1:0:0:
134,247,13203,2,0,L|225:238,1,87.5
247,93,13526,6,2,B|254:161|254:161|283:191|283:191|291:264,1,181.999991668702,0|0,0:0|2:0,0:1:0:0:
89,153,14010,2,2,P|155:96|251:94,1,181.999991668702,0|0,0:0|2:0,0:1:0:0:
360,28,14493,2,2,P|376:113|330:197,1,181.999991668702,0|0,0:0|2:0,0:1:0:0:
332,325,14977,2,2,P|250:296|200:214,1,181.999991668702,0|0,0:0|2:0,0:1:0:0:
325,103,15461,6,2,L|333:202,1,90.9999958343508,0|0,0:0|2:0,0:1:0:0:
182,283,15784,2,2,L|189:192,1,90.9999958343508,0|0,0:0|2:0,0:1:0:0:
416,178,16106,6,0,B|356:247|356:247|261:274,2,181.999991668702,4|0|0,0:0|3:0|3:0,0:0:0:0:
329,56,16913,1,0,0:0:0:0:
179,69,17074,1,0,0:0:0:0:
266,191,17235,1,0,0:0:0:0:
257,110,17397,6,0,L|250:20,1,90.9999958343508,0|0,3:0|3:0,3:0:0:0:
169,93,17719,2,0,L|162:184,1,90.9999958343508,0|0,3:0|3:0,3:0:0:0:
82,247,18042,2,0,L|75:157,1,90.9999958343508,0|0,3:0|3:0,3:0:0:0:
273,229,18364,1,0,0:0:0:0:
273,229,18687,6,0,B|317:149|317:149|309:58,2,181.999991668702,0|0|0,0:0|3:0|3:0,0:0:0:0:
231,131,19493,1,0,0:0:0:0:
393,82,19654,1,0,0:0:0:0:
354,245,19815,1,0,0:0:0:0:
299,295,19977,2,0,L|216:256,1,90.9999958343508,0|0,3:0|3:0,3:0:0:0:
279,106,20300,2,0,L|284:196,1,90.9999958343508,0|0,3:0|3:0,3:0:0:0:
125,218,20622,2,0,L|199:166,2,90.9999958343508,0|0|0,3:0|3:0|3:0,3:0:0:0:
385,97,21268,6,0,B|293:98|293:98|218:150,2,181.999991668702,0|0|0,0:0|3:0|3:0,0:0:0:0:
303,203,22074,1,0,0:0:0:0:
230,32,22235,1,0,0:0:0:0:
120,170,22396,1,0,0:0:0:0:
211,239,22558,6,0,L|219:148,1,90.9999958343508,0|0,3:0|3:0,3:0:0:0:
303,203,22881,2,0,L|311:293,1,90.9999958343508,0|0,3:0|3:0,3:0:0:0:
398,226,23203,2,0,L|406:135,1,90.9999958343508,0|0,3:0|3:0,3:0:0:0:
205,139,23526,1,0,0:0:0:0:
205,139,23848,6,0,B|212:226|212:226|188:324,1,181.999991668702,0|0,0:0|3:0,0:0:0:0:
335,273,24332,1,0,3:0:0:0:
335,273,24413,1,0,3:0:0:0:
335,273,24493,1,0,3:0:0:0:
317,143,24655,1,4,0:0:0:0:
438,192,24816,1,4,0:0:0:0:
317,143,24977,6,2,P|325:331|489:255,1,420,0|4,0:0|0:0,0:1:0:0:
229,111,26268,1,0,0:0:0:0:
153,119,26429,6,0,P|171:160|202:183,1,77.0000023498536,0|0,0:0|0:0,0:0:0:0:
305,103,26752,2,0,P|286:61|256:39,1,77.0000023498536,0|0,0:0|0:0,0:0:0:0:
271,171,27074,2,0,P|358:160|379:92,1,154.000004699707,0|0,0:0|0:0,0:0:0:0:
201,103,27558,2,0,L|195:179,2,77.0000023498536,0|0|0,0:0|3:0|3:0,0:0:0:0:
297,229,28848,1,0,0:0:0:0:
235,311,29010,6,0,L|312:318,1,77.0000023498536,0|0,3:0|3:0,0:0:0:0:
381,264,29332,1,0,0:0:0:0:
369,173,29493,1,0,0:0:0:0:
213,194,29655,1,0,0:0:0:0:
297,229,29816,1,0,0:0:0:0:
285,138,29977,1,0,0:0:0:0:
201,103,30139,1,0,0:0:0:0:
225,285,30300,6,0,L|148:278,1,77.0000023498536,0|0,3:0|3:0,0:0:0:0:
76,323,30622,1,0,0:0:0:0:
151,362,30784,1,0,0:0:0:0:
148,278,30945,2,0,P|134:239|101:199,1,77.0000023498536
413,40,31429,1,0,0:0:0:0:
457,120,31590,6,0,L|380:113,1,77.0000023498536,0|0,3:0|3:0,3:0:0:0:
333,52,31913,2,0,P|309:81|301:119,1,77.0000023498536,0|0,0:0|0:0,0:0:0:0:
350,186,32235,2,0,P|313:198|276:192,1,77.0000023498536,0|0,0:0|0:0,0:0:0:0:
221,131,32558,1,0,0:0:0:0:
192,210,32719,1,0,0:0:0:0:
247,271,32881,6,0,L|253:347,1,77.0000023498536,0|0,3:0|3:0,3:0:0:0:
174,74,33364,2,0,B|170:152|116:121|105:206,1,154.000004699707,0|0,0:0|0:0,0:0:0:0:
182,200,33848,2,0,P|217:168|245:103,1,115.50000352478,0|0,0:0|0:0,0:0:0:0:
243,83,34171,6,0,L|320:77,1,77.0000023498536,0|0,3:0|3:0,3:0:0:0:
315,249,34655,2,2,P|367:175|318:76,1,210,0|0,0:1|0:1,0:1:0:0:
212,280,35461,5,0,1:0:0:0:
223,119,35622,1,0,1:0:0:0:
264,200,35784,5,0,1:0:0:0:
168,198,35945,1,0,1:0:0:0:
402,200,36268,1,0,0:0:0:0:
291,120,36429,1,0,0:0:0:0:
333,250,36590,1,0,0:0:0:0:
250,63,36752,5,0,0:0:0:0:
264,200,36913,1,0,0:0:0:0:
375,120,37074,1,4,0:0:0:0:
183,206,37235,2,0,L|267:199,1,80.5000015354157,0|0,0:0|3:0,0:0:0:0:
199,102,37558,1,0,0:0:0:0:
243,304,37719,1,0,0:0:0:0:
316,220,37881,6,0,P|308:181|295:142,1,80.5000015354157,0|0,0:0|3:0,0:0:0:0:
180,47,38203,2,0,P|187:85|200:124,1,80.5000015354157,0|0,0:0|3:0,0:0:0:0:
310,46,38526,1,0,0:0:0:0:
310,46,38687,2,2,B|374:86|374:86|396:174,1,161.000003070831,0|0,0:0|3:0,0:0:0:0:
366,298,39171,1,0,0:0:0:0:
300,144,39332,6,0,L|293:228,1,80.5000015354157
190,80,39655,2,0,L|196:164,1,80.5000015354157
38,249,39977,1,0,0:0:0:0:
113,80,40139,1,0,0:0:0:0:
124,186,40300,1,0,0:0:0:0:
27,143,40461,1,0,0:0:0:0:
223,128,40622,6,0,P|253:154|280:185,1,80.5000015354157,0|0,0:0|3:0,0:0:0:0:
242,333,40944,2,0,P|211:306|185:275,1,80.5000015354157,0|0,0:0|3:0,0:0:0:0:
341,275,41268,1,0,0:0:0:0:
124,186,41429,2,0,L|130:101,1,80.5000015354157,4|0,0:1|3:0,0:0:0:0:
279,184,41752,1,0,0:0:0:0:
217,38,41913,6,0,L|223:122,1,80.5000015354157,0|0,0:0|0:0,0:0:0:0:
335,254,42235,1,0,0:0:0:0:
352,123,42397,1,0,0:0:0:0:
205,236,42558,2,0,L|211:320,1,80.5000015354157,0|0,0:0|0:0,0:0:0:0:
335,253,42881,2,0,L|328:168,1,80.5000015354157,0|0,0:0|0:0,0:0:0:0:
265,48,43203,5,0,0:0:0:0:
189,166,43364,2,0,B|148:169|148:169|108:159,1,80.5000015354157,0|0,0:0|3:0,0:0:0:0:
328,172,43687,2,0,P|369:169|408:178,2,80.5000015354157,0|0|0,0:0|3:0|3:0,0:0:0:0:
268,298,44171,1,0,0:0:0:0:
189,166,44332,6,0,B|184:124|184:124|196:83,1,80.5000015354157,0|0,0:0|3:0,0:0:0:0:
268,298,44655,2,0,B|272:256|272:256|261:215,1,80.5000015354157,0|0,0:0|3:0,0:0:0:0:
372,20,44977,1,0,0:0:0:0:
372,20,45139,2,0,P|332:105|267:129,1,161.000003070831,0|0,0:0|3:0,0:0:0:0:
119,40,45784,5,0,0:0:0:0:
150,65,45864,1,0,3:0:0:0:
169,100,45945,1,0,3:0:0:0:
174,139,46025,1,0,3:0:0:0:
164,178,46106,1,0,3:0:0:0:
65,264,46268,2,0,B|48:227|48:227|57:188,1,80.5000015354157
119,40,46590,2,0,P|168:101|160:185,1,161.000003070831,4|0,0:0|3:0,0:0:0:0:
225,355,47074,5,0,0:0:0:0:
165,246,47236,6,0,P|172:206|190:170,1,80.5000015354157,0|0,0:0|3:0,0:0:0:0:
288,249,47558,2,0,P|319:274|342:307,2,80.5000015354157,0|0|0,0:0|3:0|3:0,0:0:0:0:
87,327,48042,1,0,0:0:0:0:
212,232,48203,1,0,0:0:0:0:
118,167,48364,2,0,B|100:203|100:203|98:251,2,80.5000015354157,0|0|0,3:0|3:0|3:0,3:0:0:0:
183,73,48848,5,0,0:0:0:0:
277,138,49010,1,0,0:0:0:0:
287,25,49171,2,0,P|333:35|371:57,1,80.5000015354157,0|0,0:0|3:0,0:0:0:0:
277,138,49493,1,0,0:0:0:0:
183,73,49655,6,0,P|157:127|181:189,2,120.750002303124,0|0|0,0:0|0:0|3:0,3:0:0:0:
183,73,50219,1,0,0:0:0:0:
183,73,50300,2,0,L|179:32,3,40.2500007677078,0|0|0|0,1:0|3:0|3:0|3:0,0:0:0:0:
262,86,50622,2,0,L|276:48,3,40.2500007677078,0|0|0|0,1:0|3:0|3:0|3:0,0:0:0:0:
328,131,50945,2,0,L|356:102,3,40.2500007677078,0|0|0|0,1:0|3:0|3:0|3:0,0:0:0:0:
367,199,51268,2,0,L|404:185,3,40.2500007677078,0|0|0|0,1:0|3:0|3:0|3:0,0:0:0:0:
375,279,51590,2,0,L|414:282,3,40.2500007677078,0|0|0|0,1:0|3:0|3:0|3:0,0:0:0:0:
348,354,51913,2,0,L|382:374,3,40.2500007677078,4|0|0|0,1:0|3:0|3:0|3:0,0:0:0:0:
225,355,52235,5,0,0:0:0:0:
165,246,52397,6,0,P|172:206|190:170,1,80.5000015354157,0|0,0:0|3:0,0:0:0:0:
288,249,52719,2,0,P|319:274|342:307,2,80.5000015354157,0|0|0,0:0|3:0|3:0,0:0:0:0:
165,246,53203,1,0,3:0:0:0:
225,355,53364,1,0,3:0:0:0:
288,249,53526,2,0,B|286:208|286:208|268:172,1,80.5000015354157,0|0,3:0|3:0,3:0:0:0:
203,65,53848,2,0,B|162:66|162:66|126:84,1,80.5000015354157,0|0,3:0|3:0,3:0:0:0:
165,246,54170,2,0,B|183:210|183:210|186:170,1,80.5000015354157,0|0,3:0|3:0,3:0:0:0:
27,123,54493,2,0,B|48:156|48:156|82:179,1,80.5000015354157,0|0,3:0|3:0,3:0:0:0:
82,179,54735,5,0,1:0:0:0:
82,179,54816,2,0,P|58:254|92:325,1,161.000003070831,4|0,0:0|3:0,0:0:0:0:
171,164,55300,2,0,P|146:117|113:94,1,80.5000015354157,0|0,1:0|3:0,1:0:0:0:
163,258,55622,2,0,P|188:305|221:328,1,80.5000015354157,0|0,1:0|3:0,1:0:0:0:
325,209,55945,1,0,1:0:0:0:
171,164,56106,5,0,1:0:0:0:
208,321,56267,2,0,B|248:326|248:326|287:314,2,80.5000015354157,0|0|0,3:0|3:0|3:0,3:0:0:0:
171,164,56752,1,0,1:0:0:0:
325,209,56913,2,0,P|272:215|234:201,2,80.5000015354157,0|0|0,1:0|3:0|3:0,1:0:0:0:
219,55,57397,6,0,P|146:87|170:163,1,175,4|0,0:0|0:0,0:0:0:0:
403,168,57881,2,0,P|373:137|326:126,1,87.5,0|0,0:0|0:0,0:0:0:0:
282,283,58203,1,0,0:0:0:0:
256,192,58526,12,0,59816,0:0:0:0:
315,23,59977,6,2,P|372:92|370:181,1,181.999991668702,4|0,0:0|2:0,0:0:0:0:
123,171,60461,2,2,P|196:113|288:119,1,189.000000720978,0|0,0:0|2:0,0:0:0:0:
276,368,60945,2,2,P|217:292|228:197,1,195.999994018555,0|0,0:0|2:0,0:0:0:0:
477,221,61429,2,2,P|399:280|301:266,1,203.000006195069,0|0,0:0|2:0,0:0:0:0:
302,68,61913,1,0,0:0:0:0:
212,316,62235,1,0,0:0:0:0:
212,214,62397,1,4,0:0:0:0:
124,265,62558,6,0,P|111:212|127:154,1,97.9999970092774,0|0,0:0|3:0,0:0:0:0:
202,112,62881,1,0,0:0:0:0:
306,209,63042,2,0,P|259:221|211:213,1,97.9999970092774,0|0,0:0|3:0,0:0:0:0:
314,108,63364,2,0,P|360:95|408:103,2,97.9999970092774,0|0|0,0:0|3:0|3:0,0:0:0:0:
264,195,63848,5,0,0:0:0:0:
372,288,64009,2,0,P|379:240|366:193,1,97.9999970092774,0|0,0:0|3:0,0:0:0:0:
171,98,64332,2,0,L|161:204,1,97.9999970092774,0|0,0:0|3:0,0:0:0:0:
272,292,64655,2,0,L|262:185,2,97.9999970092774,0|0|0,0:0|3:0|3:0,0:0:0:0:
76,237,65139,6,0,P|114:206|161:194,1,97.9999970092774,0|0,0:0|3:0,0:0:0:0:
93,325,65461,1,0,0:0:0:0:
59,149,65622,2,0,L|68:51,1,97.9999970092774,0|0,0:0|3:0,0:0:0:0:
196,129,65945,2,0,L|293:119,2,97.9999970092774,0|0|0,0:0|3:0|3:0,0:0:0:0:
132,204,66429,5,0,0:0:0:0:
228,222,66590,1,0,0:0:0:0:
164,296,66752,1,0,0:0:0:0:
196,129,66913,2,0,P|234:98|281:86,1,97.9999970092774,0|0,0:0|3:0,0:0:0:0:
447,105,67235,2,0,P|408:135|361:147,1,97.9999970092774,0|0,0:0|3:0,0:0:0:0:
196,129,67558,1,0,0:0:0:0:
244,269,67719,6,0,P|292:273|338:258,1,97.9999970092774,0|0,0:0|3:0,0:0:0:0:
374,63,68042,1,0,0:0:0:0:
286,150,68203,1,0,0:0:0:0:
406,183,68364,2,0,L|503:192,1,97.9999970092774,0|0,0:0|3:0,0:0:0:0:
443,284,68687,1,0,0:0:0:0:
466,91,68848,1,0,0:0:0:0:
342,252,69010,6,0,P|318:209|315:160,1,97.9999970092774,0|0,0:0|3:0,0:0:0:0:
309,56,69332,1,0,3:0:0:0:
440,95,69494,1,0,3:0:0:0:
341,187,69655,1,0,3:0:0:0:
384,37,69816,1,0,3:0:0:0:
417,168,69977,1,0,3:0:0:0:
286,132,70139,1,0,3:0:0:0:
440,95,70300,6,0,L|449:192,1,97.9999970092774,0|0,0:0|3:0,0:0:0:0:
230,94,70622,1,0,0:0:0:0:
364,111,70784,1,0,0:0:0:0:
281,218,70945,2,0,L|183:224,1,97.9999970092774,0|0,0:0|3:0,0:0:0:0:
226,131,71268,1,0,0:0:0:0:
238,312,71429,1,0,0:0:0:0:
115,278,71590,6,0,P|90:245|111:185,1,105.000004005432,0|0,0:0|3:0,0:0:0:0:
226,131,71913,6,0,P|250:163|229:223,1,105.000004005432,4|0,0:0|3:0,0:0:0:0:
95,111,72235,2,2,L|104:14,1,97.9999970092774,0|0,0:0|0:0,0:1:0:0:
248,22,72558,1,0,3:0:0:0:
292,42,72638,1,0,3:0:0:0:
326,76,72719,1,0,3:0:0:0:
347,120,72799,1,0,3:0:0:0:
351,169,72881,6,0,P|341:217|312:256,1,97.9999970092774,4|0,0:0|3:0,0:0:0:0:
222,147,73203,1,0,0:0:0:0:
386,84,73364,2,0,P|423:116|442:161,1,97.9999970092774,0|0,0:0|3:0,0:0:0:0:
400,292,73687,2,0,P|362:259|343:214,2,97.9999970092774,0|0|0,3:0|3:0|3:0,0:0:0:0:
446,193,74171,5,0,0:0:0:0:
297,314,74332,2,0,P|265:275|254:228,1,97.9999970092774,0|0,0:0|3:0,0:0:0:0:
153,133,74655,2,0,L|144:230,1,97.9999970092774,0|0,0:0|3:0,0:0:0:0:
42,329,74977,2,0,L|33:232,2,97.9999970092774,0|0|0,3:0|3:0|3:0,3:0:0:0:
218,239,75461,6,0,P|187:277|175:324,1,97.9999970092774,0|0,0:0|3:0,0:0:0:0:
306,256,75783,1,0,0:0:0:0:
130,222,75944,2,0,L|32:231,1,97.9999970092774,0|0,0:0|3:0,0:0:0:0:
81,115,76267,2,0,L|91:18,2,97.9999970092774,0|0|0,0:0|3:0|3:0,0:0:0:0:
285,128,76751,5,0,0:0:0:0:
189,146,76912,1,0,0:0:0:0:
221,53,77074,1,0,0:0:0:0:
253,220,77235,2,0,P|290:250|337:262,1,97.9999970092774,0|0,0:0|3:0,0:0:0:0:
502,243,77557,2,0,P|464:214|417:202,1,97.9999970092774,0|0,0:0|3:0,0:0:0:0:
262,159,77881,1,0,0:0:0:0:
215,331,78042,6,0,P|260:348|308:345,1,97.9999970092774,0|0,3:0|3:0,3:0:0:0:
262,159,78364,1,0,0:0:0:0:
269,273,78525,1,0,0:0:0:0:
365,210,78687,2,0,L|462:201,1,97.9999970092774,0|0,0:0|3:0,0:0:0:0:
404,120,79010,1,0,0:0:0:0:
423,290,79171,1,0,0:0:0:0:
275,211,79332,6,0,P|289:164|322:129,1,97.9999970092774,0|0,0:0|3:0,0:0:0:0:
413,205,79655,1,0,0:0:0:0:
269,209,79816,2,0,P|283:162|316:127,1,97.9999970092774,0|0,0:0|3:0,0:0:0:0:
502,96,80139,1,0,0:0:0:0:
418,168,80300,1,0,0:0:0:0:
397,59,80461,1,0,0:0:0:0:
418,168,80622,6,0,P|403:214|370:249,1,97.9999970092774,0|0,0:0|3:0,0:0:0:0:
332,168,80945,1,0,0:0:0:0:
492,204,81106,1,0,0:0:0:0:
380,324,81268,2,0,P|333:311|299:276,1,97.9999970092774,0|0,0:0|3:0,0:0:0:0:
385,225,81590,1,0,0:0:0:0:
213,327,81752,1,0,0:0:0:0:
288,192,81913,6,0,B|342:196|342:196|387:226,1,105.000004005432,4|0,0:0|3:0,0:0:0:0:
188,240,82235,6,0,B|134:236|134:236|89:206,1,105.000004005432,4|0,0:0|3:0,0:0:0:0:
139,86,82558,1,0,3:0:0:0:
190,82,82638,1,0,3:0:0:0:
239,102,82719,1,0,3:0:0:0:
273,141,82799,1,0,3:0:0:0:
287,191,82881,2,0,L|291:242,3,50.7500015487671,0|0|0|0,0:0|3:0|3:0|3:0,0:0:0:0:
280,297,83203,6,2,P|179:297|132:210,1,203.000006195069,0|0,0:0|2:0,0:0:0:0:
306,69,83687,2,2,P|306:170|219:217,1,203.000006195069,0|0,0:0|2:0,0:0:0:0:
78,43,84171,2,2,P|179:43|226:130,1,203.000006195069,4|4,0:0|2:0,0:0:0:0:
52,271,84655,2,2,P|52:170|139:123,1,203.000006195069,0|0,0:0|2:0,0:0:0:0:
334,232,85139,2,2,L|131:216,1,203.000006195069,0|0,0:0|2:0,0:0:0:0:
455,138,85784,6,0,B|464:90|464:90|501:52,2,101.500003097534,0|0|0,0:0|0:0|0:0,0:0:0:0:
366,213,86268,2,0,B|375:260|375:260|412:298,2,101.500003097534,0|0|0,0:0|0:0|0:0,0:0:0:0:
323,53,86752,2,0,B|286:91|286:91|276:138,1,101.500003097534,0|0,0:0|2:0,0:0:0:0:
232,298,87074,6,0,B|195:260|195:260|185:212,1,101.500003097534,0|0,0:0|2:0,0:0:0:0:
141,53,87397,2,0,B|104:91|104:91|94:138,1,101.500003097534,0|0,0:0|2:0,0:0:0:0:
50,298,87719,2,0,B|13:260|13:260|3:212,1,101.500003097534,0|0,0:0|2:0,0:0:0:0:
206,98,88042,1,0,0:0:0:0:
93,222,88203,1,4,0:0:0:0:
256,192,88364,12,0,89655,0:0:0:0:
